<?xml version="1.0" standalone="no"?>
<!DOCTYPE svg PUBLIC "-//W3C//DTD SVG 1.1//EN" "http://www.w3.org/Graphics/SVG/1.1/DTD/svg11.dtd" >
<svg xmlns="http://www.w3.org/2000/svg" xmlns:xlink="http://www.w3.org/1999/xlink" version="1.1">
<metadata>
Created by FontForge 20170731 at Wed Dec 14 12:20:09 2022
 By Aleksey,,,
No Rights Reserved.
</metadata>
<defs>
<font id="Aileron-Bold" horiz-adv-x="1280" >
  <font-face 
    font-family="Aileron Bold"
    font-weight="700"
    font-stretch="normal"
    units-per-em="2048"
    panose-1="0 0 8 0 0 0 0 0 0 0"
    ascent="1577"
    descent="-471"
    x-height="1081"
    cap-height="1413"
    bbox="-252 -457 2224 1855"
    underline-thickness="102"
    underline-position="-307"
    unicode-range="U+0020-FB02"
  />
<missing-glyph horiz-adv-x="1024" 
d="M0 0v1434h1024v-1434h-1024zM512 809l348 522h-696zM573 717l349 -522v1044zM164 102h696l-348 523zM102 1239v-1044l349 522z" />
    <glyph glyph-name="fi" unicode="fi" horiz-adv-x="1230" 
d="M1098 1081v-1081h-281v895h-377v-895h-282v895h-117v186h117v19q0 86 4 123q14 159 129.5 240t367.5 81q72 0 158 -14v-197q-202 13 -283 -16.5t-90 -114.5q-4 -29 -4 -96v-25h658z" />
    <glyph glyph-name="fl" unicode="fl" horiz-adv-x="1230" 
d="M1067 256q4 -51 31.5 -67.5t93.5 -10.5v-182q-74 -10 -184 -10q-213 0 -224 192q-2 49 -2 172v981q-51 15 -133 15q-209 0 -225 -144q-4 -29 -4 -96v-25h223v-186h-223v-895h-283v895h-96v186h96v19q0 75 4 112q29 332 512 332q256 0 410 -53v-1135q0 -71 4 -100z" />
    <glyph glyph-name=".notdef" horiz-adv-x="1024" 
d="M0 0v1434h1024v-1434h-1024zM512 809l348 522h-696zM573 717l349 -522v1044zM164 102h696l-348 523zM102 1239v-1044l349 522z" />
    <glyph glyph-name=".null" horiz-adv-x="0" 
 />
    <glyph glyph-name="nonmarkingreturn" horiz-adv-x="682" 
 />
    <glyph glyph-name="space" unicode=" " horiz-adv-x="397" 
 />
    <glyph glyph-name="exclam" unicode="!" horiz-adv-x="538" 
d="M383 403h-227l-25 1010h277zM268 291q71 0 116.5 -45t45.5 -115t-45.5 -115t-116.5 -45q-69 0 -114 45t-45 115t45 115t114 45z" />
    <glyph glyph-name="quotedbl" unicode="&#x22;" horiz-adv-x="774" 
d="M336 942h-197l-26 563h252zM680 942h-199l-26 563h252z" />
    <glyph glyph-name="numbersign" unicode="#" 
d="M926 825l-52 -237h201v-160h-233l-92 -428h-170l92 428h-180l-93 -428h-170l93 428h-177v160h209l52 237h-199v160h231l92 428h170l-92 -428h180l93 428h170l-93 -428h179v-160h-211zM756 825h-181l-51 -237h181z" />
    <glyph glyph-name="dollar" unicode="$" 
d="M1182 379q0 -172 -124 -278.5t-323 -125.5v-159h-168v159q-208 18 -332 124t-139 298h277q13 -87 63.5 -141.5t130.5 -73.5v416q-103 33 -176 69.5t-129 87t-83 117t-27 152.5q0 92 33 166.5t90.5 124.5t131 81t160.5 42v159h168v-159q198 -19 308 -132t131 -288h-277
q-20 172 -162 213v-395q239 -75 343 -181t104 -276zM420 1057q0 -74 35.5 -117t111.5 -72v365q-69 -15 -108 -60t-39 -116zM735 561v-383q168 25 168 180q0 70 -38 119.5t-130 83.5z" />
    <glyph glyph-name="percent" unicode="%" horiz-adv-x="1562" 
d="M389 1438q148 0 233 -89t85 -247t-85 -248t-233 -90q-147 0 -231 90t-84 248t84 247t231 89zM438 0h-219l918 1413h219zM389 1288q-57 0 -87 -47.5t-30 -138.5t30 -140t87 -49t88 49t31 140q0 90 -31 138t-88 48zM1174 645q148 0 232.5 -89t84.5 -247t-84.5 -248
t-232.5 -90q-147 0 -232.5 90t-85.5 248q0 157 85.5 246.5t232.5 89.5zM1174 496q-57 0 -87 -48t-30 -139t30 -139.5t87 -48.5t86.5 48.5t29.5 139.5t-29.5 139t-86.5 48z" />
    <glyph glyph-name="ampersand" unicode="&#x26;" horiz-adv-x="1378" 
d="M1354 827v-221h-193v-586q-235 -49 -481 -49q-103 0 -186.5 11.5t-156.5 39.5t-122.5 72t-77.5 111t-28 155q0 141 90 237t245 126q-119 31 -190.5 115.5t-71.5 199.5q0 190 141.5 297t387.5 107q124 0 223 -21v-209q-114 19 -221 19q-113 0 -172.5 -51t-59.5 -148
q0 -192 203 -203q37 -2 121 -2h74v191h282v-191h193zM410 397q0 -117 67.5 -166t208.5 -49q103 0 193 17v407h-93q-73 0 -114 -4q-132 -9 -197 -62.5t-65 -142.5z" />
    <glyph glyph-name="quotesingle" unicode="'" horiz-adv-x="409" 
d="M297 942h-197l-28 563h252z" />
    <glyph glyph-name="parenleft" unicode="(" horiz-adv-x="743" 
d="M514 1597h154q-262 -401 -262 -880q0 -480 262 -881h-154q-140 169 -214.5 393t-74.5 488q0 530 289 880z" />
    <glyph glyph-name="parenright" unicode=")" horiz-adv-x="741" 
d="M68 1597h153q289 -350 289 -880q0 -264 -74.5 -488t-214.5 -393h-153q262 401 262 881q0 479 -262 880z" />
    <glyph glyph-name="asterisk" unicode="*" horiz-adv-x="1226" 
d="M682 645l281 119l57 -180l-297 -70l217 -254l-152 -110l-176 282l-174 -282l-151 110l215 254l-297 70l57 180l283 -119l-27 328h189z" />
    <glyph glyph-name="plus" unicode="+" 
d="M1087 571h-364v-407h-166v407h-364v152h364v412h166v-412h364v-152z" />
    <glyph glyph-name="comma" unicode="," horiz-adv-x="501" 
d="M379 266l-207 -516h-229l161 537h275v-21z" />
    <glyph glyph-name="hyphen" unicode="-" horiz-adv-x="606" 
d="M541 500h-475v159h475v-159z" />
    <glyph glyph-name="period" unicode="." horiz-adv-x="501" 
d="M250 315q76 0 124 -48.5t48 -123.5t-48 -123.5t-124 -48.5q-75 0 -122.5 48.5t-47.5 123.5t47.5 123.5t122.5 48.5z" />
    <glyph glyph-name="slash" unicode="/" horiz-adv-x="669" 
d="M166 -61h-176l514 1536h176z" />
    <glyph glyph-name="zero" unicode="0" 
d="M641 1442q549 0 549 -735q0 -736 -549 -736q-551 0 -551 736q0 735 551 735zM641 182q129 0 189.5 128.5t60.5 396.5q0 270 -60.5 397t-189.5 127q-130 0 -191 -127t-61 -397q0 -268 61 -396.5t191 -128.5z" />
    <glyph glyph-name="one" unicode="1" 
d="M946 1413v-1413h-282v1116l-412 -227v266l328 195q111 63 227 63h139z" />
    <glyph glyph-name="two" unicode="2" 
d="M553 223h598v-223h-1030v133l475 465q149 146 207.5 235.5t58.5 186.5q0 96 -53.5 154.5t-149.5 58.5q-104 0 -158.5 -64t-68.5 -194l-2 -21h-280l2 21q22 227 159 348t375 121q228 0 351.5 -111t123.5 -297q0 -131 -74 -247t-272 -310z" />
    <glyph glyph-name="three" unicode="3" 
d="M881 748q295 -67 295 -340q0 -197 -153 -317t-394 -120q-242 0 -384 112.5t-165 330.5l-2 20h282l5 -20q15 -108 85 -170t177 -62q113 0 181.5 59t68.5 156q0 106 -71.5 162t-209.5 59h-47v197l47 2q113 5 180.5 64.5t67.5 158.5q0 87 -54 139t-147 52t-150.5 -60.5
t-68.5 -162.5l-2 -21h-281l2 21q20 194 156.5 314t374.5 120q223 0 346 -103.5t123 -265.5q0 -123 -67.5 -207t-194.5 -118z" />
    <glyph glyph-name="four" unicode="4" 
d="M1210 334h-174v-334h-282v334h-680v151l661 928h301v-856h174v-223zM754 557v537q-51 -88 -95 -150l-276 -387h371z" />
    <glyph glyph-name="five" unicode="5" 
d="M711 948q221 0 345 -129t124 -350q0 -118 -45 -214t-120.5 -157t-171 -94t-200.5 -33q-482 0 -524 416l-2 21h282l2 -21q16 -97 73 -151t155 -54q117 0 183.5 75.5t66.5 201.5t-65 202t-179 76q-84 0 -140 -37.5t-92 -121.5h-262l101 835h880v-221h-649l-53 -395l69 96
q93 55 222 55z" />
    <glyph glyph-name="six" unicode="6" 
d="M715 950q223 0 344 -129.5t121 -333.5q0 -159 -74 -278t-195 -178.5t-268 -59.5q-270 0 -406.5 168.5t-136.5 522.5q0 192 44 342t123 245t184.5 144t232.5 49q208 0 332.5 -106t146.5 -292l2 -20h-286l-5 20q-23 96 -73.5 141.5t-134.5 45.5q-258 0 -275 -492l72 129
q102 82 252 82zM641 182q108 0 174 77t66 194q0 129 -62 207.5t-180 78.5q-100 0 -168 -74t-68 -204q0 -123 65 -201t173 -78z" />
    <glyph glyph-name="seven" unicode="7" 
d="M1192 1413v-149l-678 -1264h-307l649 1192h-745v221h1081z" />
    <glyph glyph-name="eight" unicode="8" 
d="M913 748q115 -38 192 -129.5t77 -219.5q0 -112 -43.5 -197t-120 -134.5t-172 -74t-209.5 -24.5q-121 0 -217 24t-169.5 74.5t-113 134.5t-39.5 197q0 128 79 219.5t196 129.5q-96 36 -152.5 112t-56.5 191q0 177 131.5 284t361.5 107q229 0 359.5 -107t130.5 -284
q0 -115 -65.5 -191.5t-168.5 -111.5zM653 1231q-91 0 -143.5 -53.5t-52.5 -139.5q0 -92 50.5 -144t143.5 -52q95 0 150 52.5t55 143.5q0 87 -54 140t-149 53zM641 180q122 0 183 59.5t61 163.5q0 103 -62.5 166.5t-183.5 63.5q-114 0 -179 -63t-65 -164q0 -104 64.5 -165
t181.5 -61z" />
    <glyph glyph-name="nine" unicode="9" 
d="M637 1442q270 0 406.5 -167.5t136.5 -522.5q0 -192 -43 -342t-121.5 -245.5t-184.5 -144.5t-235 -49q-212 0 -336 106t-143 292l-2 20h286l5 -20q20 -96 70.5 -141.5t137.5 -45.5q258 0 275 492l-72 -129q-102 -82 -252 -82q-223 0 -344 129.5t-121 333.5q0 159 74 278
t195 178.5t268 59.5zM641 674q100 0 168 74t68 204q0 123 -65 201t-173 78t-173 -76.5t-65 -193.5q0 -129 61.5 -208t178.5 -79z" />
    <glyph glyph-name="colon" unicode=":" horiz-adv-x="501" 
d="M250 1118q76 0 124 -48t48 -124q0 -75 -48 -122.5t-124 -47.5q-75 0 -122.5 47.5t-47.5 122.5q0 76 47.5 124t122.5 48zM250 315q76 0 124 -48.5t48 -123.5t-48 -123.5t-124 -48.5q-75 0 -122.5 48.5t-47.5 123.5t47.5 123.5t122.5 48.5z" />
    <glyph glyph-name="semicolon" unicode=";" horiz-adv-x="501" 
d="M250 1118q76 0 124 -48t48 -124q0 -75 -48 -122.5t-124 -47.5q-75 0 -122.5 47.5t-47.5 122.5q0 76 47.5 124t122.5 48zM379 262l-205 -512h-231l161 545h275v-33z" />
    <glyph glyph-name="less" unicode="&#x3c;" 
d="M1116 840l-721 -295l721 -297v-197l-901 383v217l901 385v-196z" />
    <glyph glyph-name="equal" unicode="=" 
d="M1110 776h-940v152h940v-152zM1110 367h-940v151h940v-151z" />
    <glyph glyph-name="greater" unicode="&#x3e;" 
d="M1042 651v-217l-901 -383v195l721 297l-721 295v198z" />
    <glyph glyph-name="question" unicode="?" horiz-adv-x="1124" 
d="M573 1442q220 0 343.5 -104t123.5 -281q0 -113 -51 -203t-164 -192q-87 -78 -119 -130t-38 -129h-244q6 106 37.5 175t109.5 155q96 107 133 171.5t37 133.5q0 92 -48 142.5t-138 50.5q-91 0 -144 -61.5t-59 -180.5h-286q6 210 142.5 331.5t364.5 121.5zM547 291
q71 0 116.5 -45t45.5 -115t-45.5 -115t-116.5 -45q-69 0 -114.5 45t-45.5 115t45.5 115t114.5 45z" />
    <glyph glyph-name="at" unicode="@" horiz-adv-x="1832" 
d="M1374 961l-94 -394q-25 -117 -25 -153q0 -107 82 -107q89 0 152 100t63 281q0 261 -153.5 407t-405.5 146q-107 0 -210 -30.5t-194 -92.5t-160.5 -147t-109.5 -203t-40 -252q0 -283 161 -442.5t439 -159.5q130 0 256 37.5t225 109.5l63 -139q-131 -87 -277.5 -128.5
t-285.5 -41.5q-113 0 -219.5 26.5t-205.5 86t-173 145.5t-118 214t-44 282q0 197 73 366.5t196 285t286.5 180.5t343.5 65q169 0 309 -55.5t232 -151.5t142.5 -223t50.5 -271q0 -117 -25 -211.5t-68 -158t-102.5 -106.5t-125 -62t-138.5 -19q-104 0 -171.5 45.5t-90.5 135.5
l-56 -111q-84 -70 -190 -70q-55 0 -102.5 17t-89.5 54.5t-66.5 105.5t-24.5 161q0 141 52 258t147.5 186.5t214.5 69.5q116 0 168 -59l27 -109l38 132h244zM856 344q57 0 97 47t59 119l24 117q21 87 -4 129.5t-82 42.5q-86 0 -140 -86t-54 -209q0 -160 100 -160z" />
    <glyph glyph-name="A" unicode="A" horiz-adv-x="1384" 
d="M948 426h-475l-141 -426h-301l510 1413h354l500 -1413h-308zM713 1171l-168 -522h332z" />
    <glyph glyph-name="B" unicode="B" horiz-adv-x="1345" 
d="M1008 762q272 -70 272 -340q0 -94 -33.5 -170.5t-90 -125.5t-123 -78t-140.5 -40q-72 -8 -197 -8h-514v1413h506q112 0 182 -8q170 -22 263.5 -115t93.5 -237q0 -215 -219 -291zM465 1192v-358h213q50 0 100 6q154 24 154 176q0 76 -43 118.5t-117 51.5q-50 6 -102 6
h-205zM805 225q77 6 127.5 57.5t50.5 137.5q0 93 -49.5 140.5t-132.5 55.5q-61 7 -101 7h-235v-400h246q67 0 94 2z" />
    <glyph glyph-name="C" unicode="C" horiz-adv-x="1470" 
d="M788 1442q276 0 432 -134t179 -354l2 -20h-283l-4 20q-27 134 -109.5 205.5t-220.5 71.5q-172 0 -276.5 -138.5t-104.5 -377.5q0 -256 104.5 -394.5t272.5 -138.5q134 0 216.5 75.5t111.5 211.5l4 20h281l-2 -20q-24 -228 -189 -363t-434 -135q-196 0 -346 87t-234 252.5
t-84 387.5q0 170 52 311t143.5 235.5t217 146t271.5 51.5z" />
    <glyph glyph-name="D" unicode="D" horiz-adv-x="1497" 
d="M850 1405q126 -15 230 -62.5t183.5 -129t124 -206t44.5 -282.5t-45 -288t-125 -218.5t-186 -142t-230 -68.5q-72 -8 -180 -8h-484v1413h488q108 0 180 -8zM782 229q161 21 256 150t95 342q0 205 -92 323.5t-253 139.5q-63 8 -151 8h-172v-969h168q104 0 149 6z" />
    <glyph glyph-name="E" unicode="E" horiz-adv-x="1261" 
d="M1202 223v-223h-1020v1413h1000v-221h-717v-373h665v-223h-665v-373h737z" />
    <glyph glyph-name="F" unicode="F" horiz-adv-x="1214" 
d="M465 1192v-373h645v-223h-645v-596h-283v1413h1000v-221h-717z" />
    <glyph glyph-name="G" unicode="G" horiz-adv-x="1509" 
d="M829 721h570v-721h-228l-18 229l-63 -143q-118 -115 -345 -115q-295 0 -468 195.5t-173 531.5q0 170 53.5 311t147 235.5t221 146t275.5 51.5q276 0 431.5 -134t178.5 -354l2 -20h-283l-4 20q-56 277 -329 277q-175 0 -284.5 -139t-109.5 -377q0 -256 106.5 -394.5
t278.5 -138.5q137 0 227.5 84.5t112.5 233.5h-299v221z" />
    <glyph glyph-name="H" unicode="H" horiz-adv-x="1540" 
d="M1407 1413v-1413h-281v580h-661v-580h-283v1413h283v-608h661v608h281z" />
    <glyph glyph-name="I" unicode="I" horiz-adv-x="598" 
d="M465 0h-283v1413h283v-1413z" />
    <glyph glyph-name="J" unicode="J" horiz-adv-x="1220" 
d="M1110 1413v-833q0 -105 -6 -195q-11 -192 -136 -303t-368 -111q-240 0 -364 124t-130 347l-2 72h283l4 -72q7 -137 64 -198.5t161 -61.5q96 0 148 57.5t61 161.5q2 45 2 150v862h283z" />
    <glyph glyph-name="K" unicode="K" horiz-adv-x="1398" 
d="M786 737l596 -737h-364l-436 571l-117 -127v-444h-283v1413h283v-682l610 682h336z" />
    <glyph glyph-name="L" unicode="L" horiz-adv-x="1236" 
d="M1202 236v-236h-1020v1413h283v-1177h737z" />
    <glyph glyph-name="M" unicode="M" horiz-adv-x="1837" 
d="M1706 1413v-1413h-283v653q0 337 4 484q-61 -257 -131 -482l-198 -655h-307l-203 657q-75 249 -127 478q4 -147 4 -482v-653h-283v1413h447l319 -1153l320 1153h438z" />
    <glyph glyph-name="N" unicode="N" horiz-adv-x="1556" 
d="M1423 0h-387l-581 1073q10 -193 10 -434v-639h-283v1413h375l594 -1094q-10 190 -10 445v649h280z" />
    <glyph glyph-name="O" unicode="O" horiz-adv-x="1566" 
d="M803 1442q323 0 510.5 -200t187.5 -535q0 -334 -187.5 -535t-510.5 -201q-324 0 -511.5 200.5t-187.5 535.5q0 221 83 387t242 257t374 91zM803 182q188 0 294.5 139t106.5 386q0 248 -106.5 386t-294.5 138q-190 0 -297 -138t-107 -386q0 -247 107.5 -386t296.5 -139z
" />
    <glyph glyph-name="P" unicode="P" horiz-adv-x="1275" 
d="M877 1403q169 -20 274.5 -131t105.5 -299q0 -95 -30.5 -173t-83 -130.5t-120.5 -84.5t-146 -42q-96 -11 -205 -11h-207v-532h-283v1413h490q118 0 205 -10zM793 762q78 11 123 63t45 148t-45 148t-123 63q-47 6 -125 6h-203v-434h203q78 0 125 6z" />
    <glyph glyph-name="Q" unicode="Q" horiz-adv-x="1566" 
d="M1280 211q120 -28 244 -131l-142 -182q-98 62 -158.5 84t-125.5 22q-64 0 -150 -18q-68 -15 -145 -15q-324 0 -511.5 200.5t-187.5 535.5q0 336 187.5 536.5t511.5 200.5q323 0 510.5 -200.5t187.5 -536.5q0 -152 -56.5 -281.5t-164.5 -214.5zM399 707q0 -247 107.5 -386
t296.5 -139q188 0 294.5 139t106.5 386q0 248 -106.5 386t-294.5 138q-190 0 -297 -138t-107 -386z" />
    <glyph glyph-name="R" unicode="R" horiz-adv-x="1339" 
d="M1206 356q14 -131 37.5 -214t65.5 -142h-310q-50 138 -69 315q-29 241 -191 252q-39 2 -110 2h-164v-569h-283v1413h516q118 0 205 -10q80 -10 145 -35.5t117 -69.5t80.5 -112.5t28.5 -157.5q0 -133 -73.5 -220.5t-203.5 -123.5q99 -38 147.5 -120t61.5 -208zM465 780
h194q84 0 115 2q92 8 147.5 57t55.5 146t-48 143.5t-138 57.5q-49 6 -119 6h-207v-412z" />
    <glyph glyph-name="S" unicode="S" horiz-adv-x="1245" 
d="M651 1442q123 0 219 -33.5t158 -95t98 -140.5t48 -176h-289q-12 110 -74 172t-170 62q-89 0 -144 -42.5t-55 -125.5q0 -90 66.5 -141t234.5 -91q232 -54 341.5 -162.5t109.5 -279.5q0 -129 -73 -225.5t-190 -144.5t-259 -48q-258 0 -412 114t-174 333h289
q23 -114 102.5 -175t190.5 -61q99 0 165 49t66 129q0 91 -64.5 146.5t-218.5 91.5q-92 22 -160.5 46.5t-129.5 60t-99 80t-60 105.5t-22 138q0 126 70.5 221.5t184.5 144t251 48.5z" />
    <glyph glyph-name="T" unicode="T" horiz-adv-x="1275" 
d="M1288 1192h-479v-1192h-283v1192h-479v221h1241v-221z" />
    <glyph glyph-name="U" unicode="U" horiz-adv-x="1437" 
d="M1329 1413v-838q0 -99 -4 -165q-7 -92 -43 -169t-103 -138.5t-177.5 -96.5t-253.5 -35q-144 0 -254.5 35t-178.5 96.5t-104 138.5t-43 169q-4 66 -4 165v838h280v-866q0 -64 5 -103q9 -124 85 -193t214 -69q137 0 212 69t84 193q5 39 5 103v866h280z" />
    <glyph glyph-name="V" unicode="V" horiz-adv-x="1409" 
d="M920 0h-355l-499 1413h307l375 -1196l380 1196h302z" />
    <glyph glyph-name="W" unicode="W" horiz-adv-x="2021" 
d="M2030 1413l-375 -1413h-375l-242 1176l-254 -1176h-376l-355 1413h305l238 -1196l250 1176h397l242 -1180l254 1200h291z" />
    <glyph glyph-name="X" unicode="X" horiz-adv-x="1384" 
d="M1055 0l-348 535l-332 -535h-336l506 713l-471 700h327l316 -522l332 522h325l-493 -694l503 -719h-329z" />
    <glyph glyph-name="Y" unicode="Y" horiz-adv-x="1282" 
d="M813 547v-547h-281v547l-499 866h319l330 -616l319 616h312z" />
    <glyph glyph-name="Z" unicode="Z" horiz-adv-x="1273" 
d="M1221 223v-223h-1119v215l772 977h-714v221h1050v-219l-766 -971h777z" />
    <glyph glyph-name="bracketleft" unicode="[" horiz-adv-x="745" 
d="M672 1597v-159h-293v-1442h293v-160h-459v1761h459z" />
    <glyph glyph-name="backslash" unicode="\" horiz-adv-x="669" 
d="M680 -61h-176l-514 1536h176z" />
    <glyph glyph-name="bracketright" unicode="]" horiz-adv-x="733" 
d="M520 -164h-457v160h291v1442h-291v159h457v-1761z" />
    <glyph glyph-name="asciicircum" unicode="^" 
d="M899 440l-260 660l-260 -660h-189l353 822h192l352 -822h-188z" />
    <glyph glyph-name="underscore" unicode="_" horiz-adv-x="1024" 
d="M922 -178h-820v160h820v-160z" />
    <glyph glyph-name="grave" unicode="`" horiz-adv-x="614" 
d="M414 1178h-160l-252 241h254z" />
    <glyph glyph-name="a" unicode="a" horiz-adv-x="1150" 
d="M762 0l-21 160l-53 -117q-107 -72 -270 -72q-148 0 -249 84.5t-101 233.5q0 181 153 278t447 97h69v22q0 65 -4 102q-6 61 -47.5 96.5t-120.5 35.5q-84 0 -130 -47.5t-52 -137.5l-274 -2q6 180 136 282.5t330 102.5q410 0 437 -321q6 -77 6 -168v-353q0 -125 20 -276
h-276zM526 170q91 0 151 60.5t60 170.5v88q-115 8 -198 -7t-131 -58t-48 -113t44.5 -105.5t121.5 -35.5z" />
    <glyph glyph-name="b" unicode="b" horiz-adv-x="1316" 
d="M776 1118q225 0 355.5 -153.5t130.5 -399.5q0 -143 -42 -258t-114.5 -187t-166 -110.5t-200.5 -38.5q-70 0 -143 17t-113 45l-71 112v-145h-283v1505h283v-581l82 118q45 36 121 56t161 20zM684 170q128 0 206.5 97t78.5 280q0 168 -75 270.5t-200 102.5
q-127 0 -204.5 -87.5t-77.5 -275.5v-51q0 -89 23.5 -156.5t63.5 -105t86.5 -56t98.5 -18.5z" />
    <glyph glyph-name="c" unicode="c" horiz-adv-x="1148" 
d="M600 1118q216 0 349.5 -118t148.5 -304h-279q-38 224 -225 224q-112 0 -179 -92.5t-67 -272.5q0 -194 66 -289.5t178 -95.5q84 0 142 53t79 154h283q-35 -197 -173.5 -301.5t-347.5 -104.5q-232 0 -376 146.5t-144 419.5q0 136 43 247.5t117.5 183.5t173 111t211.5 39z
" />
    <glyph glyph-name="d" unicode="d" horiz-adv-x="1320" 
d="M1188 1505v-1505h-283v168l-82 -121q-46 -35 -122 -55.5t-160 -20.5q-225 0 -355.5 153.5t-130.5 399.5q0 144 42 259t114.5 187t166 110t200.5 38q71 0 143.5 -16.5t112.5 -44.5l71 -113v561h283zM623 170q127 0 204.5 87t77.5 275v54q0 88 -23.5 155t-63.5 105
t-86.5 56t-98.5 18q-128 0 -206.5 -97t-78.5 -280q0 -168 75 -270.5t200 -102.5z" />
    <glyph glyph-name="e" unicode="e" horiz-adv-x="1183" 
d="M1118 567q0 -59 -4 -96h-774q24 -301 252 -301q92 0 153 48.5t74 135.5h283q-40 -186 -179 -284.5t-337 -98.5q-114 0 -209.5 36t-168 105t-113 179t-40.5 250q0 253 152.5 415t400.5 162q122 0 220 -44t160.5 -120t96 -175t33.5 -212zM596 920q-101 0 -165.5 -66.5
t-82.5 -198.5h479q-14 130 -72 197.5t-159 67.5z" />
    <glyph glyph-name="f" unicode="f" horiz-adv-x="692" 
d="M444 1229q-4 -29 -4 -94v-54h224v-186h-224v-895h-282v895h-117v186h117v45q0 88 4 125q25 293 395 293q60 0 125 -14v-197q-101 19 -166 -8.5t-72 -95.5z" />
    <glyph glyph-name="g" unicode="g" horiz-adv-x="1320" 
d="M1188 1090v-818q0 -152 -2 -211q-9 -249 -161 -376t-417 -127q-238 0 -370.5 95.5t-151.5 276.5l-2 21h274l2 -19q9 -75 76.5 -119t175.5 -44q132 0 208 66.5t83 195.5q2 41 2 133v26l-82 -120q-99 -76 -270 -76q-228 0 -363 148t-135 390q0 144 42 257.5t114.5 184.5
t166 107.5t200.5 36.5q71 0 143.5 -16.5t112.5 -44.5l71 -113v146h283zM623 193q127 0 204.5 87t77.5 275v31q0 88 -23.5 155t-63.5 105t-86.5 56t-98.5 18q-129 0 -207 -91.5t-78 -271.5q0 -167 74.5 -265.5t200.5 -98.5z" />
    <glyph glyph-name="h" unicode="h" horiz-adv-x="1271" 
d="M1145 813q8 -73 8 -199v-614h-283v575q0 97 -4 152q-6 90 -58 141.5t-151 51.5q-111 -2 -178 -104.5t-67 -317.5v-498h-283v1516h283v-603l84 129q108 76 262 76q171 0 270 -80t117 -225z" />
    <glyph glyph-name="i" unicode="i" horiz-adv-x="544" 
d="M270 1495q69 0 112.5 -41.5t43.5 -107.5q0 -67 -43.5 -108.5t-112.5 -41.5t-112 41.5t-43 108.5q0 66 43 107.5t112 41.5zM412 0h-283v1090h283v-1090z" />
    <glyph glyph-name="j" unicode="j" horiz-adv-x="532" 
d="M264 1495q75 0 114.5 -38t39.5 -111t-39.5 -111.5t-114.5 -38.5q-155 0 -155 150q0 149 155 149zM403 1090v-1115q0 -57 -4 -131q-11 -135 -96 -204.5t-266 -69.5q-59 0 -105 6v201q93 -8 136.5 15t50.5 85q4 58 4 94v1119h280z" />
    <glyph glyph-name="k" unicode="k" horiz-adv-x="1193" 
d="M502 430l-90 -98v-332h-283v1505h283v-913l438 498h340l-483 -506l489 -584h-356z" />
    <glyph glyph-name="l" unicode="l" horiz-adv-x="571" 
d="M403 1505v-1149q0 -56 3 -100q5 -43 30.5 -57.5t95.5 -10.5v-194q-73 -8 -174 -8q-109 0 -169 45t-64 147q-4 49 -4 172v1155h282z" />
    <glyph glyph-name="m" unicode="m" horiz-adv-x="1875" 
d="M1747 848q10 -69 10 -199v-649h-282v567q0 95 -9 178q-22 175 -184 175q-199 0 -199 -361v-559h-280v567q0 105 -8 178q-11 85 -58.5 130t-128.5 45q-196 0 -196 -361v-559h-283v1090h283v-166l80 131q89 63 231 63q128 0 214 -56.5t120 -150.5l106 144q89 63 234 63
q149 0 239.5 -75.5t110.5 -194.5z" />
    <glyph glyph-name="n" unicode="n" horiz-adv-x="1271" 
d="M1145 813q8 -73 8 -199v-614h-283v575q0 97 -4 152q-6 90 -58 141.5t-151 51.5q-110 0 -177.5 -103t-67.5 -319v-498h-283v1090h283v-177l84 129q108 76 262 76q171 0 270 -80t117 -225z" />
    <glyph glyph-name="o" unicode="o" horiz-adv-x="1241" 
d="M621 1118q265 0 415 -159t150 -414q0 -254 -150 -414t-415 -160t-415.5 160t-150.5 414q0 167 65 295.5t194.5 203t306.5 74.5zM621 170q127 0 199.5 100t72.5 275q0 177 -72 276t-200 99t-200.5 -99t-72.5 -276q0 -175 73 -275t200 -100z" />
    <glyph glyph-name="p" unicode="p" horiz-adv-x="1316" 
d="M776 1118q225 0 355.5 -153.5t130.5 -399.5q0 -143 -42 -258t-114.5 -187t-166 -110.5t-200.5 -38.5q-70 0 -143 17t-113 45l-71 112v-546h-283v1491h283v-166l82 118q45 36 121 56t161 20zM684 170q128 0 206.5 97t78.5 280q0 168 -75 270.5t-200 102.5
q-127 0 -204.5 -87.5t-77.5 -275.5v-51q0 -89 23.5 -156.5t63.5 -105t86.5 -56t98.5 -18.5z" />
    <glyph glyph-name="q" unicode="q" horiz-adv-x="1320" 
d="M1188 1090v-1491h-283v569l-82 -121q-46 -35 -122 -55.5t-160 -20.5q-225 0 -355.5 153.5t-130.5 399.5q0 144 42 259t114.5 187t166 110t200.5 38q71 0 143.5 -16.5t112.5 -44.5l71 -113v146h283zM623 170q127 0 204.5 87t77.5 275v54q0 88 -23.5 155t-63.5 105
t-86.5 56t-98.5 18q-128 0 -206.5 -97t-78.5 -280q0 -168 75 -270.5t200 -102.5z" />
    <glyph glyph-name="r" unicode="r" horiz-adv-x="778" 
d="M684 1116q47 0 80 -8v-227q-181 12 -266.5 -76.5t-85.5 -304.5v-500h-283v1090h283v-199l86 151q80 74 186 74z" />
    <glyph glyph-name="s" unicode="s" horiz-adv-x="1017" 
d="M518 1118q189 0 301 -94.5t131 -249.5h-282q-14 76 -56.5 117t-111.5 41q-61 0 -95 -32t-34 -85q0 -61 55.5 -98.5t191.5 -71.5q178 -46 266.5 -125t88.5 -223q0 -106 -61 -181t-160.5 -110t-227.5 -35q-204 0 -331 90.5t-150 270.5h283q17 -86 71 -130t131 -44
q71 0 115.5 30t44.5 88q0 63 -59 103.5t-201 75.5q-165 42 -253.5 118t-88.5 209q0 156 117.5 246t314.5 90z" />
    <glyph glyph-name="t" unicode="t" horiz-adv-x="739" 
d="M467 895v-504q0 -67 2 -96q6 -80 46.5 -104t158.5 -15v-184q-94 -15 -187 -15q-155 0 -222.5 53t-76.5 171q-4 49 -4 157v537h-159v186h159v269h283v-269h225v-186h-225z" />
    <glyph glyph-name="u" unicode="u" horiz-adv-x="1265" 
d="M1135 1090v-1090h-283v184l-84 -139q-112 -74 -262 -74q-162 0 -263.5 79t-121.5 198q-10 69 -10 198v644h282v-584q0 -77 8 -150q23 -184 211 -184q110 0 175 92t65 271v555h283z" />
    <glyph glyph-name="v" unicode="v" horiz-adv-x="1159" 
d="M1161 1090l-422 -1090h-315l-424 1090h313l275 -877l268 877h305z" />
    <glyph glyph-name="w" unicode="w" horiz-adv-x="1701" 
d="M1704 1090l-346 -1090h-320l-184 829l-186 -829h-322l-346 1090h315l193 -854l178 849h340l184 -847l191 852h303z" />
    <glyph glyph-name="x" unicode="x" horiz-adv-x="1107" 
d="M719 551l381 -551h-330l-223 377l-230 -377h-323l385 553l-371 537h330l217 -363l215 363h326z" />
    <glyph glyph-name="y" unicode="y" horiz-adv-x="1157" 
d="M1161 1090l-438 -1131q-85 -219 -186 -304t-269 -85q-72 0 -127 8v195q29 -4 84 -4q75 0 123.5 33t81.5 112l14 35l-444 1141h315l271 -875l266 875h309z" />
    <glyph glyph-name="z" unicode="z" horiz-adv-x="1017" 
d="M958 188v-188h-901v178l590 715h-553v188h856v-186l-585 -707h593z" />
    <glyph glyph-name="braceleft" unicode="{" horiz-adv-x="763" 
d="M655 1438h-37q-82 0 -112.5 -19.5t-30.5 -70.5q0 -38 23 -193q24 -173 24 -229q0 -170 -172 -205q172 -38 172 -213q0 -56 -24 -229q-23 -152 -23 -193q0 -51 30.5 -70.5t112.5 -19.5h37v-160h-67q-146 0 -212.5 53.5t-66.5 176.5q0 59 25 233q20 137 20 203
q0 58 -37.5 93t-130.5 42v160q93 7 130.5 42t37.5 93q0 66 -20 203q-25 174 -25 235q0 122 66.5 174.5t212.5 52.5h67v-159z" />
    <glyph glyph-name="bar" unicode="|" horiz-adv-x="581" 
d="M383 -410h-184v2048h184v-2048z" />
    <glyph glyph-name="braceright" unicode="}" horiz-adv-x="763" 
d="M578 797v-160q-93 -7 -130.5 -42t-37.5 -93q0 -66 20 -203q25 -174 25 -233q0 -123 -66.5 -176.5t-212.5 -53.5h-67v160h36q82 0 113 19.5t31 70.5q0 41 -23 193q-24 173 -24 229q0 170 172 205q-84 19 -128 73.5t-44 139.5q0 56 24 229q23 155 23 193q0 51 -31 70.5
t-113 19.5h-36v159h67q146 0 212.5 -52.5t66.5 -174.5q0 -61 -25 -235q-20 -137 -20 -203q0 -58 37.5 -93t130.5 -42z" />
    <glyph glyph-name="asciitilde" unicode="~" 
d="M952 786h160q0 -329 -250 -329q-59 0 -108.5 18t-141.5 66q-76 40 -115 55.5t-73 15.5q-52 0 -73 -38t-21 -117h-160q0 329 250 329q41 0 82.5 -11.5t72 -25.5t93.5 -47q71 -39 111.5 -55t76.5 -16q52 0 74 36t22 119z" />
    <glyph glyph-name="exclamdown" unicode="&#xa1;" horiz-adv-x="538" 
d="M268 795q-69 0 -114 44.5t-45 114.5t45 115t114 45q71 0 116.5 -45t45.5 -115t-45.5 -114.5t-116.5 -44.5zM156 684h227l25 -1012h-277z" />
    <glyph glyph-name="cent" unicode="&#xa2;" horiz-adv-x="1261" 
d="M731 905v-723q61 19 105 69t61 126h260q-30 -173 -142.5 -275.5t-283.5 -124.5v-161h-166v159q-202 22 -325 168.5t-123 391.5q0 240 124.5 389.5t323.5 181.5v164h166v-160q187 -18 300.5 -132.5t127.5 -285.5h-256q-14 87 -59.5 140t-112.5 73zM387 553q0 -152 49 -244
t129 -123v713q-81 -33 -129.5 -119.5t-48.5 -226.5z" />
    <glyph glyph-name="sterling" unicode="&#xa3;" 
d="M1153 223v-223h-1020v197q213 44 213 247q0 82 -35 174h-159v150h94q-56 124 -56 242q0 197 134 314.5t346 117.5q114 0 203 -33t145.5 -91.5t87.5 -132t37 -161.5h-287q-22 207 -188 207q-82 0 -129 -56.5t-47 -136.5q0 -68 14 -123.5t53 -146.5h416v-150h-361
q21 -74 21 -137q0 -177 -176 -258h694z" />
    <glyph glyph-name="currency" unicode="&#xa4;" 
d="M1010 616q0 -110 -62 -204l113 -113l-100 -102l-113 112q-92 -61 -207 -61t-207 61l-112 -110l-103 100l115 115q-62 91 -62 202t62 205l-115 115l103 100l114 -112q89 61 205 61t205 -61l115 112l100 -100l-113 -115q62 -91 62 -205zM641 408q85 0 139 57.5t54 150.5
t-54 151t-139 58q-87 0 -141 -58t-54 -151t54 -150.5t141 -57.5z" />
    <glyph glyph-name="yen" unicode="&#xa5;" 
d="M870 758h230v-160h-318l-2 -2v-121h320v-160h-320v-315h-280v315h-320v160h320v123h-320v160h232l-363 655h307l293 -643l287 643h297z" />
    <glyph glyph-name="brokenbar" unicode="&#xa6;" horiz-adv-x="563" 
d="M365 717h-166v696h166v-696zM365 -328h-166v697h166v-697z" />
    <glyph glyph-name="section" unicode="&#xa7;" horiz-adv-x="1226" 
d="M1174 489q0 -98 -49.5 -174t-135.5 -122q62 -80 62 -195q0 -111 -62 -192.5t-163.5 -121.5t-227.5 -40q-202 0 -331 91.5t-150 270.5h282q21 -86 76.5 -131t130.5 -45q69 0 112.5 37t43.5 104q0 80 -66 135t-245 107q-195 55 -295.5 145.5t-100.5 245.5q0 102 46 179
t130 124q-49 74 -49 164q0 167 119.5 269t312.5 102q189 0 299 -95.5t131 -259.5h-282q-31 168 -160 168q-57 0 -94 -37.5t-37 -101.5q0 -84 56 -132t206 -89q231 -62 336 -157t105 -249zM584 410q142 -43 215 -78q40 17 63 52t23 79q0 79 -60.5 129.5t-203.5 93.5
q-109 30 -199 72q-80 -34 -80 -144q0 -71 61.5 -121t180.5 -83z" />
    <glyph glyph-name="dieresis" unicode="&#xa8;" horiz-adv-x="614" 
d="M127 1427q56 0 91.5 -34.5t35.5 -89.5t-35.5 -90t-91.5 -35t-91.5 35t-35.5 90t35.5 89.5t91.5 34.5zM487 1427q56 0 91.5 -34.5t35.5 -89.5t-35.5 -90t-91.5 -35t-91.5 35t-35.5 90t35.5 89.5t91.5 34.5z" />
    <glyph glyph-name="copyright" unicode="&#xa9;" horiz-adv-x="1740" 
d="M870 1540q174 0 326.5 -61.5t260.5 -168.5t170.5 -258.5t62.5 -324.5t-62.5 -324.5t-170.5 -258.5t-260.5 -168.5t-326.5 -61.5t-326 61.5t-260.5 168.5t-170.5 258.5t-62 324.5t62 324.5t170.5 258.5t260.5 168.5t326 61.5zM870 1378q-182 0 -328.5 -84t-229.5 -233
t-83 -334t83 -333.5t229.5 -232t328.5 -83.5t328.5 83.5t229.5 232t83 333.5t-83 334t-229.5 233t-328.5 84zM887 1196q180 0 289 -97t131 -263h-250q-23 182 -178 182q-94 0 -141.5 -76t-47.5 -213q0 -143 51.5 -219t143.5 -76q69 0 115 47.5t55 134.5h250
q-30 -168 -139.5 -264t-295.5 -96q-198 0 -320 127t-122 342t125.5 343t333.5 128z" />
    <glyph glyph-name="guillemotleft" unicode="&#xab;" horiz-adv-x="1298" 
d="M770 848l-281 -340l281 -340h-213l-281 340l281 340h213zM1196 848l-281 -340l281 -340h-213l-281 340l281 340h213z" />
    <glyph glyph-name="logicalnot" unicode="&#xac;" 
d="M1032 387h-166v256h-639v160h805v-416z" />
    <glyph glyph-name="registered" unicode="&#xae;" horiz-adv-x="1015" 
d="M508 1565q190 0 310 -120.5t120 -309.5t-120 -309.5t-310 -120.5t-310 120.5t-120 309.5t120 309.5t310 120.5zM508 811q139 0 228 90.5t89 233.5t-89 234t-228 91t-228.5 -91t-89.5 -234q0 -142 89 -233t229 -91zM610 1133q55 -13 62 -93q7 -67 26 -110h-127
q-8 31 -14 88q-9 53 -59 53h-37v-141h-113v428h152q37 0 55 -2q67 -6 103 -37t36 -82q0 -79 -84 -104zM530 1163q41 9 41 54q0 44 -41 51q-14 2 -38 2h-31v-109h28q27 0 41 2z" />
    <glyph glyph-name="macron" unicode="&#xaf;" horiz-adv-x="614" 
d="M588 1217h-561v155h561v-155z" />
    <glyph glyph-name="degree" unicode="&#xb0;" horiz-adv-x="634" 
d="M317 1442q119 0 195 -73t76 -189q0 -115 -76 -188.5t-195 -73.5q-118 0 -193 73t-75 189q0 117 74.5 189.5t193.5 72.5zM317 1290q-44 0 -75 -31t-31 -79t31 -79.5t75 -31.5q45 0 76 31t31 80t-31 79.5t-76 30.5z" />
    <glyph glyph-name="plusminus" unicode="&#xb1;" 
d="M723 731h336v-160h-336v-327h-166v327h-336v160h336v324h166v-324zM1059 0h-838v152h838v-152z" />
    <glyph glyph-name="acute" unicode="&#xb4;" horiz-adv-x="614" 
d="M375 1178h-160l160 241h254z" />
    <glyph glyph-name="paragraph" unicode="&#xb6;" horiz-adv-x="1218" 
d="M1085 1413v-1638h-165v1478h-213v-1478h-166v880h-21q-79 0 -114 2q-151 9 -236.5 116.5t-85.5 260.5t85.5 260.5t236.5 116.5q35 2 114 2h565z" />
    <glyph glyph-name="periodcentered" unicode="&#xb7;" horiz-adv-x="501" 
d="M250 801q77 0 127.5 -50t50.5 -126t-50.5 -126t-127.5 -50q-76 0 -126 49.5t-50 126.5t50 126.5t126 49.5z" />
    <glyph glyph-name="cedilla" unicode="&#xb8;" horiz-adv-x="614" 
d="M389 18l-53 -102q182 -21 182 -164q0 -92 -83.5 -137t-221.5 -45q-63 0 -109 14v121q53 -18 113 -18q125 0 125 69q0 43 -45 61t-152 11l97 190h147z" />
    <glyph glyph-name="guillemotright" unicode="&#xbb;" horiz-adv-x="1261" 
d="M596 508l-281 -340h-213l281 340l-281 340h213zM1022 508l-281 -340h-213l281 340l-281 340h213z" />
    <glyph glyph-name="questiondown" unicode="&#xbf;" horiz-adv-x="1081" 
d="M608 799q-70 0 -114.5 45t-44.5 114q0 71 44.5 115.5t114.5 44.5t115 -45t45 -115q0 -69 -45 -114t-115 -45zM582 -352q-220 0 -343.5 105t-123.5 282q0 112 51.5 201.5t165.5 191.5q86 77 117.5 130t37.5 130h244q-4 -106 -36 -176t-109 -156q-97 -106 -133.5 -171
t-36.5 -134q0 -92 47 -142t137 -50q91 0 144.5 61t60.5 180h285q-6 -210 -143 -331t-365 -121z" />
    <glyph glyph-name="Agrave" unicode="&#xc0;" horiz-adv-x="1384" 
d="M655 1505l-245 230h254l151 -230h-160zM948 426h-475l-141 -426h-301l510 1413h354l500 -1413h-308zM713 1171l-168 -522h332z" />
    <glyph glyph-name="Aacute" unicode="&#xc1;" horiz-adv-x="1384" 
d="M784 1505h-159l153 230h254zM948 426h-475l-141 -426h-301l510 1413h354l500 -1413h-308zM713 1171l-168 -522h332z" />
    <glyph glyph-name="Acircumflex" unicode="&#xc2;" horiz-adv-x="1384" 
d="M651 1505h-176l131 230h223l132 -230h-179l-67 137zM948 426h-475l-141 -426h-301l510 1413h354l500 -1413h-308zM713 1171l-168 -522h332z" />
    <glyph glyph-name="Atilde" unicode="&#xc3;" horiz-adv-x="1384" 
d="M608 1581q-30 0 -30 -53h-144q0 114 37 164.5t113 50.5q68 0 149 -33q66 -27 92 -27q31 0 31 54h143q0 -116 -36 -166.5t-113 -50.5q-63 0 -150 32q-71 29 -92 29zM948 426h-475l-141 -426h-301l510 1413h354l500 -1413h-308zM713 1171l-168 -522h332z" />
    <glyph glyph-name="Adieresis" unicode="&#xc4;" horiz-adv-x="1384" 
d="M541 1493q-56 0 -91.5 35t-35.5 90t35.5 89t91.5 34t90.5 -34t34.5 -89q0 -56 -35 -90.5t-90 -34.5zM895 1493q-56 0 -91.5 35t-35.5 90t35.5 89t91.5 34t90.5 -34t34.5 -89q0 -56 -35 -90.5t-90 -34.5zM948 426h-475l-141 -426h-301l510 1413h354l500 -1413h-308z
M713 1171l-168 -522h332z" />
    <glyph glyph-name="Aring" unicode="&#xc5;" horiz-adv-x="1384" 
d="M717 1473q-95 0 -156 53.5t-61 138.5q0 83 61 136.5t156 53.5t156 -53.5t61 -136.5q0 -85 -61 -138.5t-156 -53.5zM717 1747q-34 0 -56 -23t-22 -59q0 -37 22 -60.5t56 -23.5t56 23.5t22 60.5q0 36 -22 59t-56 23zM948 426h-475l-141 -426h-301l510 1413h354l500 -1413
h-308zM713 1171l-168 -522h332z" />
    <glyph glyph-name="AE" unicode="&#xc6;" horiz-adv-x="1957" 
d="M1898 223v-223h-958l-41 461h-440l-238 -461h-301l772 1413h1186v-221h-764l33 -373h682v-223h-662l33 -373h698zM879 682l-45 504l-261 -504h306z" />
    <glyph glyph-name="Ccedilla" unicode="&#xc7;" horiz-adv-x="1470" 
d="M1112 489h281l-2 -20q-24 -221 -179 -355t-409 -143l-29 -55q182 -21 182 -164q0 -92 -83.5 -137t-221.5 -45q-62 0 -108 14v121q53 -18 112 -18q125 0 125 69q0 43 -45 61t-151 11l75 152q-254 34 -404.5 225t-150.5 493q0 170 52 311t143.5 235.5t217 146t271.5 51.5
q276 0 432 -134t179 -354l2 -20h-283l-4 20q-27 134 -109.5 205.5t-220.5 71.5q-172 0 -276.5 -138.5t-104.5 -377.5q0 -256 104.5 -394.5t272.5 -138.5q134 0 216.5 75.5t111.5 211.5z" />
    <glyph glyph-name="Egrave" unicode="&#xc8;" horiz-adv-x="1261" 
d="M631 1505l-246 230h254l152 -230h-160zM1202 223v-223h-1020v1413h1000v-221h-717v-373h665v-223h-665v-373h737z" />
    <glyph glyph-name="Eacute" unicode="&#xc9;" horiz-adv-x="1261" 
d="M760 1505h-160l154 230h254zM1202 223v-223h-1020v1413h1000v-221h-717v-373h665v-223h-665v-373h737z" />
    <glyph glyph-name="Ecircumflex" unicode="&#xca;" horiz-adv-x="1261" 
d="M627 1505h-176l131 230h223l131 -230h-178l-68 137zM1202 223v-223h-1020v1413h1000v-221h-717v-373h665v-223h-665v-373h737z" />
    <glyph glyph-name="Edieresis" unicode="&#xcb;" horiz-adv-x="1261" 
d="M516 1493q-56 0 -91.5 35t-35.5 90t35.5 89t91.5 34t90.5 -34t34.5 -89q0 -56 -34.5 -90.5t-90.5 -34.5zM870 1493q-56 0 -91.5 35t-35.5 90t35.5 89t91.5 34t90.5 -34t34.5 -89q0 -56 -34.5 -90.5t-90.5 -34.5zM1202 223v-223h-1020v1413h1000v-221h-717v-373h665v-223
h-665v-373h737z" />
    <glyph glyph-name="Igrave" unicode="&#xcc;" horiz-adv-x="598" 
d="M422 1505h-160l-246 230h254zM465 0h-283v1413h283v-1413z" />
    <glyph glyph-name="Iacute" unicode="&#xcd;" horiz-adv-x="598" 
d="M391 1505h-160l154 230h254zM465 0h-283v1413h283v-1413z" />
    <glyph glyph-name="Icircumflex" unicode="&#xce;" horiz-adv-x="598" 
d="M258 1505h-176l131 230h223l131 -230h-178l-67 137zM182 1413h283v-1413h-283v1413z" />
    <glyph glyph-name="Idieresis" unicode="&#xcf;" horiz-adv-x="598" 
d="M147 1741q56 0 90.5 -34t34.5 -89q0 -56 -35 -90.5t-90 -34.5q-56 0 -91.5 35t-35.5 90t35.5 89t91.5 34zM502 1741q56 0 90.5 -34t34.5 -89q0 -56 -34.5 -90.5t-90.5 -34.5t-91.5 35t-35.5 90t35.5 89t91.5 34zM465 0h-283v1413h283v-1413z" />
    <glyph glyph-name="Eth" unicode="&#xd0;" horiz-adv-x="1501" 
d="M854 1405q126 -15 229.5 -62.5t183 -129t123.5 -206t44 -282.5t-45 -288t-124.5 -218.5t-185 -142t-229.5 -68.5q-72 -8 -180 -8h-484v610h-120v160h120v643h488q108 0 180 -8zM786 229q160 21 255.5 150t95.5 342q0 205 -91.5 323.5t-252.5 139.5q-63 8 -152 8h-172
v-422h240v-160h-240v-387h168q104 0 149 6z" />
    <glyph glyph-name="Ntilde" unicode="&#xd1;" horiz-adv-x="1556" 
d="M664 1743q68 0 149 -33q66 -27 92 -27q31 0 31 54h143q0 -116 -36 -166.5t-113 -50.5q-63 0 -150 32q-71 29 -92 29q-31 0 -31 -53h-143q0 114 37 164.5t113 50.5zM1423 0h-387l-581 1073q10 -193 10 -434v-639h-283v1413h375l594 -1094q-10 190 -10 445v649h280z" />
    <glyph glyph-name="Ograve" unicode="&#xd2;" horiz-adv-x="1566" 
d="M741 1505l-245 230h254l151 -230h-160zM803 1442q323 0 510.5 -200t187.5 -535q0 -334 -187.5 -535t-510.5 -201q-324 0 -511.5 200.5t-187.5 535.5q0 221 83 387t242 257t374 91zM803 182q188 0 294.5 139t106.5 386q0 248 -106.5 386t-294.5 138q-190 0 -297 -138
t-107 -386q0 -247 107.5 -386t296.5 -139z" />
    <glyph glyph-name="Oacute" unicode="&#xd3;" horiz-adv-x="1566" 
d="M870 1505h-159l153 230h254zM803 1442q323 0 510.5 -200t187.5 -535q0 -334 -187.5 -535t-510.5 -201q-324 0 -511.5 200.5t-187.5 535.5q0 221 83 387t242 257t374 91zM803 182q188 0 294.5 139t106.5 386q0 248 -106.5 386t-294.5 138q-190 0 -297 -138t-107 -386
q0 -247 107.5 -386t296.5 -139z" />
    <glyph glyph-name="Ocircumflex" unicode="&#xd4;" horiz-adv-x="1566" 
d="M737 1505h-176l131 230h223l132 -230h-179l-67 137zM803 1442q323 0 510.5 -200t187.5 -535q0 -334 -187.5 -535t-510.5 -201q-324 0 -511.5 200.5t-187.5 535.5q0 221 83 387t242 257t374 91zM803 182q188 0 294.5 139t106.5 386q0 248 -106.5 386t-294.5 138
q-190 0 -297 -138t-107 -386q0 -247 107.5 -386t296.5 -139z" />
    <glyph glyph-name="Otilde" unicode="&#xd5;" horiz-adv-x="1566" 
d="M694 1581q-30 0 -30 -53h-144q0 114 37 164.5t113 50.5q68 0 149 -33q66 -27 92 -27q31 0 31 54h143q0 -116 -36 -166.5t-113 -50.5q-63 0 -150 32q-71 29 -92 29zM803 1442q323 0 510.5 -200t187.5 -535q0 -334 -187.5 -535t-510.5 -201q-324 0 -511.5 200.5
t-187.5 535.5q0 221 83 387t242 257t374 91zM803 182q188 0 294.5 139t106.5 386q0 248 -106.5 386t-294.5 138q-190 0 -297 -138t-107 -386q0 -247 107.5 -386t296.5 -139z" />
    <glyph glyph-name="Odieresis" unicode="&#xd6;" horiz-adv-x="1566" 
d="M627 1493q-56 0 -91.5 35t-35.5 90t35.5 89t91.5 34t90.5 -34t34.5 -89q0 -56 -35 -90.5t-90 -34.5zM981 1493q-56 0 -91.5 35t-35.5 90t35.5 89t91.5 34t90.5 -34t34.5 -89q0 -56 -35 -90.5t-90 -34.5zM803 1442q323 0 510.5 -200t187.5 -535q0 -334 -187.5 -535
t-510.5 -201q-324 0 -511.5 200.5t-187.5 535.5q0 221 83 387t242 257t374 91zM803 182q188 0 294.5 139t106.5 386q0 248 -106.5 386t-294.5 138q-190 0 -297 -138t-107 -386q0 -247 107.5 -386t296.5 -139z" />
    <glyph glyph-name="multiply" unicode="&#xd7;" 
d="M756 659l301 -301l-117 -114l-299 301l-301 -301l-117 114l301 301l-301 302l117 116l301 -301l299 301l117 -116z" />
    <glyph glyph-name="Oslash" unicode="&#xd8;" horiz-adv-x="1576" 
d="M1518 1300l-138 -137q125 -184 125 -456q0 -335 -187 -535.5t-511 -200.5q-280 0 -463 156l-131 -131l-117 117l137 137q-124 183 -124 457q0 336 187 535.5t511 199.5q281 0 465 -154l129 129zM406 707q0 -147 36 -248l650 649q-108 123 -285 123q-188 0 -294.5 -138
t-106.5 -386zM1210 707q0 148 -36 249l-650 -649q104 -125 283 -125q189 0 296 139t107 386z" />
    <glyph glyph-name="Ugrave" unicode="&#xd9;" horiz-adv-x="1437" 
d="M846 1505h-160l-246 230h254zM1329 1413v-838q0 -99 -4 -165q-7 -92 -43 -169t-103 -138.5t-177.5 -96.5t-253.5 -35q-144 0 -254.5 35t-178.5 96.5t-104 138.5t-43 169q-4 66 -4 165v838h280v-866q0 -64 5 -103q9 -124 85 -193t214 -69q137 0 212 69t84 193q5 39 5 103
v866h280z" />
    <glyph glyph-name="Uacute" unicode="&#xda;" horiz-adv-x="1437" 
d="M815 1505h-160l154 230h254zM1329 1413v-838q0 -99 -4 -165q-7 -92 -43 -169t-103 -138.5t-177.5 -96.5t-253.5 -35q-144 0 -254.5 35t-178.5 96.5t-104 138.5t-43 169q-4 66 -4 165v838h280v-866q0 -64 5 -103q9 -124 85 -193t214 -69q137 0 212 69t84 193q5 39 5 103
v866h280z" />
    <glyph glyph-name="Ucircumflex" unicode="&#xdb;" horiz-adv-x="1437" 
d="M682 1505h-176l131 230h223l131 -230h-178l-68 137zM1329 1413v-838q0 -99 -4 -165q-7 -92 -43 -169t-103 -138.5t-177.5 -96.5t-253.5 -35q-144 0 -254.5 35t-178.5 96.5t-104 138.5t-43 169q-4 66 -4 165v838h280v-866q0 -64 5 -103q9 -124 85 -193t214 -69
q137 0 212 69t84 193q5 39 5 103v866h280z" />
    <glyph glyph-name="Udieresis" unicode="&#xdc;" horiz-adv-x="1437" 
d="M571 1741q56 0 90.5 -34t34.5 -89q0 -56 -35 -90.5t-90 -34.5q-56 0 -91.5 35t-35.5 90t35.5 89t91.5 34zM926 1741q56 0 90.5 -34t34.5 -89q0 -56 -34.5 -90.5t-90.5 -34.5t-91.5 35t-35.5 90t35.5 89t91.5 34zM1329 1413v-838q0 -99 -4 -165q-7 -92 -43 -169
t-103 -138.5t-177.5 -96.5t-253.5 -35q-144 0 -254.5 35t-178.5 96.5t-104 138.5t-43 169q-4 66 -4 165v838h280v-866q0 -64 5 -103q9 -124 85 -193t214 -69q137 0 212 69t84 193q5 39 5 103v866h280z" />
    <glyph glyph-name="Yacute" unicode="&#xdd;" horiz-adv-x="1282" 
d="M741 1505h-159l153 230h254zM813 547v-547h-281v547l-499 866h319l330 -616l319 616h312z" />
    <glyph glyph-name="Thorn" unicode="&#xde;" horiz-adv-x="1316" 
d="M891 1223q163 -20 264.5 -124t101.5 -286t-101.5 -287.5t-264.5 -126.5q-70 -8 -203 -8h-223v-391h-283v1413h283v-180h223q116 0 203 -10zM791 621q170 25 170 190q0 87 -46 134.5t-124 58.5q-49 6 -125 6h-201v-396h201q67 0 125 7z" />
    <glyph glyph-name="germandbls" unicode="&#xdf;" horiz-adv-x="1310" 
d="M659 1544q233 0 367.5 -104t134.5 -275q0 -105 -57 -190q-69 -38 -101 -76.5t-32 -83.5q0 -46 26 -86t88 -98q89 -85 124.5 -152.5t35.5 -175.5q0 -99 -56.5 -171t-145.5 -106t-197 -34q-146 0 -246 20v215q102 -26 193 -26q75 0 113 35t38 98q0 48 -23.5 92t-84.5 100
q-93 90 -128.5 148t-35.5 141q0 152 157 238q33 49 33 108q0 81 -54 126.5t-159 45.5q-103 0 -164.5 -60t-68.5 -173q-4 -58 -4 -156v-944h-283v928q0 102 4 176q13 211 154 325.5t372 114.5z" />
    <glyph glyph-name="agrave" unicode="&#xe0;" horiz-adv-x="1150" 
d="M520 1178l-252 241h254l158 -241h-160zM762 0l-21 160l-53 -117q-107 -72 -270 -72q-148 0 -249 84.5t-101 233.5q0 181 153 278t447 97h69v22q0 65 -4 102q-6 61 -47.5 96.5t-120.5 35.5q-84 0 -130 -47.5t-52 -137.5l-274 -2q6 180 136 282.5t330 102.5q410 0 437 -321
q6 -77 6 -168v-353q0 -125 20 -276h-276zM526 170q91 0 151 60.5t60 170.5v88q-115 8 -198 -7t-131 -58t-48 -113t44.5 -105.5t121.5 -35.5z" />
    <glyph glyph-name="aacute" unicode="&#xe1;" horiz-adv-x="1150" 
d="M641 1178h-160l160 241h254zM762 0l-21 160l-53 -117q-107 -72 -270 -72q-148 0 -249 84.5t-101 233.5q0 181 153 278t447 97h69v22q0 65 -4 102q-6 61 -47.5 96.5t-120.5 35.5q-84 0 -130 -47.5t-52 -137.5l-274 -2q6 180 136 282.5t330 102.5q410 0 437 -321
q6 -77 6 -168v-353q0 -125 20 -276h-276zM526 170q91 0 151 60.5t60 170.5v88q-115 8 -198 -7t-131 -58t-48 -113t44.5 -105.5t121.5 -35.5z" />
    <glyph glyph-name="acircumflex" unicode="&#xe2;" horiz-adv-x="1150" 
d="M506 1178h-174l131 241h223l131 -241h-176l-68 141zM762 0l-21 160l-53 -117q-107 -72 -270 -72q-148 0 -249 84.5t-101 233.5q0 181 153 278t447 97h69v22q0 65 -4 102q-6 61 -47.5 96.5t-120.5 35.5q-84 0 -130 -47.5t-52 -137.5l-274 -2q6 180 136 282.5t330 102.5
q410 0 437 -321q6 -77 6 -168v-353q0 -125 20 -276h-276zM526 170q91 0 151 60.5t60 170.5v88q-115 8 -198 -7t-131 -58t-48 -113t44.5 -105.5t121.5 -35.5z" />
    <glyph glyph-name="atilde" unicode="&#xe3;" horiz-adv-x="1150" 
d="M465 1253q-31 0 -31 -53h-143q0 114 37 164.5t112 50.5q69 0 150 -33q64 -26 92 -26q31 0 31 53h143q0 -115 -36.5 -166t-112.5 -51q-62 0 -150 35q-71 26 -92 26zM762 0l-21 160l-53 -117q-107 -72 -270 -72q-148 0 -249 84.5t-101 233.5q0 181 153 278t447 97h69v22
q0 65 -4 102q-6 61 -47.5 96.5t-120.5 35.5q-84 0 -130 -47.5t-52 -137.5l-274 -2q6 180 136 282.5t330 102.5q410 0 437 -321q6 -77 6 -168v-353q0 -125 20 -276h-276zM526 170q91 0 151 60.5t60 170.5v88q-115 8 -198 -7t-131 -58t-48 -113t44.5 -105.5t121.5 -35.5z" />
    <glyph glyph-name="adieresis" unicode="&#xe4;" horiz-adv-x="1150" 
d="M393 1178q-56 0 -91.5 35t-35.5 90t35.5 89.5t91.5 34.5t91.5 -34.5t35.5 -89.5t-35.5 -90t-91.5 -35zM754 1178q-56 0 -91.5 35t-35.5 90t35.5 89.5t91.5 34.5t91.5 -34.5t35.5 -89.5t-35.5 -90t-91.5 -35zM762 0l-21 160l-53 -117q-107 -72 -270 -72q-148 0 -249 84.5
t-101 233.5q0 181 153 278t447 97h69v22q0 65 -4 102q-6 61 -47.5 96.5t-120.5 35.5q-84 0 -130 -47.5t-52 -137.5l-274 -2q6 180 136 282.5t330 102.5q410 0 437 -321q6 -77 6 -168v-353q0 -125 20 -276h-276zM526 170q91 0 151 60.5t60 170.5v88q-115 8 -198 -7t-131 -58
t-48 -113t44.5 -105.5t121.5 -35.5z" />
    <glyph glyph-name="aring" unicode="&#xe5;" horiz-adv-x="1150" 
d="M573 1159q-95 0 -156 55.5t-61 143.5q0 87 60.5 141.5t156.5 54.5t157 -54.5t61 -141.5q0 -88 -61.5 -143.5t-156.5 -55.5zM573 1448q-34 0 -55.5 -24t-21.5 -66t21.5 -66t55.5 -24q35 0 56.5 24t21.5 66t-21.5 66t-56.5 24zM762 0l-21 160l-53 -117q-107 -72 -270 -72
q-148 0 -249 84.5t-101 233.5q0 181 153 278t447 97h69v22q0 65 -4 102q-6 61 -47.5 96.5t-120.5 35.5q-84 0 -130 -47.5t-52 -137.5l-274 -2q6 180 136 282.5t330 102.5q410 0 437 -321q6 -77 6 -168v-353q0 -125 20 -276h-276zM526 170q91 0 151 60.5t60 170.5v88
q-115 8 -198 -7t-131 -58t-48 -113t44.5 -105.5t121.5 -35.5z" />
    <glyph glyph-name="ae" unicode="&#xe6;" horiz-adv-x="1914" 
d="M1851 567q0 -59 -4 -96h-772q13 -158 79.5 -229.5t170.5 -71.5q91 0 151.5 48.5t75.5 135.5h281q-39 -186 -177.5 -284.5t-336.5 -98.5q-305 0 -434 238l-101 -141q-125 -97 -315 -97q-180 0 -290.5 84.5t-110.5 239.5q0 182 157 271t451 89h96v33q0 232 -194 232
q-88 0 -139.5 -48.5t-55.5 -138.5h-274q3 180 132 282.5t334 102.5q287 0 377 -190q131 190 400 190q157 0 272 -76.5t171 -200t56 -274.5zM1081 655h480q-14 129 -73 197t-159 68t-165 -67.5t-83 -197.5zM774 434v37q-213 9 -313.5 -25.5t-100.5 -130.5q0 -145 181 -145
q103 0 168 71t65 193z" />
    <glyph glyph-name="ccedilla" unicode="&#xe7;" horiz-adv-x="1148" 
d="M592 170q84 0 142 53t79 154h283q-33 -185 -156.5 -288.5t-312.5 -115.5l-29 -57q182 -21 182 -164q0 -92 -83.5 -137t-221.5 -45q-62 0 -108 14v121q53 -18 112 -18q125 0 125 69q0 43 -45 61t-151 11l75 149q-195 29 -311.5 172.5t-116.5 387.5q0 136 43 247.5
t117.5 183.5t173 111t211.5 39q216 0 349.5 -118t148.5 -304h-279q-38 224 -225 224q-112 0 -179 -92.5t-67 -272.5q0 -194 66 -289.5t178 -95.5z" />
    <glyph glyph-name="egrave" unicode="&#xe8;" horiz-adv-x="1183" 
d="M543 1178l-252 241h254l157 -241h-159zM1118 567q0 -59 -4 -96h-774q24 -301 252 -301q92 0 153 48.5t74 135.5h283q-40 -186 -179 -284.5t-337 -98.5q-114 0 -209.5 36t-168 105t-113 179t-40.5 250q0 253 152.5 415t400.5 162q122 0 220 -44t160.5 -120t96 -175
t33.5 -212zM596 920q-101 0 -165.5 -66.5t-82.5 -198.5h479q-14 130 -72 197.5t-159 67.5z" />
    <glyph glyph-name="eacute" unicode="&#xe9;" horiz-adv-x="1183" 
d="M664 1178h-160l160 241h254zM1118 567q0 -59 -4 -96h-774q24 -301 252 -301q92 0 153 48.5t74 135.5h283q-40 -186 -179 -284.5t-337 -98.5q-114 0 -209.5 36t-168 105t-113 179t-40.5 250q0 253 152.5 415t400.5 162q122 0 220 -44t160.5 -120t96 -175t33.5 -212z
M596 920q-101 0 -165.5 -66.5t-82.5 -198.5h479q-14 130 -72 197.5t-159 67.5z" />
    <glyph glyph-name="ecircumflex" unicode="&#xea;" horiz-adv-x="1183" 
d="M528 1178h-174l131 241h224l131 -241h-176l-68 141zM1118 567q0 -59 -4 -96h-774q24 -301 252 -301q92 0 153 48.5t74 135.5h283q-40 -186 -179 -284.5t-337 -98.5q-114 0 -209.5 36t-168 105t-113 179t-40.5 250q0 253 152.5 415t400.5 162q122 0 220 -44t160.5 -120
t96 -175t33.5 -212zM596 920q-101 0 -165.5 -66.5t-82.5 -198.5h479q-14 130 -72 197.5t-159 67.5z" />
    <glyph glyph-name="edieresis" unicode="&#xeb;" horiz-adv-x="1183" 
d="M416 1178q-56 0 -91.5 35t-35.5 90t35.5 89.5t91.5 34.5t91.5 -34.5t35.5 -89.5t-35.5 -90t-91.5 -35zM776 1178q-56 0 -91.5 35t-35.5 90t35.5 89.5t91.5 34.5t91.5 -34.5t35.5 -89.5t-35.5 -90t-91.5 -35zM1118 567q0 -59 -4 -96h-774q24 -301 252 -301q92 0 153 48.5
t74 135.5h283q-40 -186 -179 -284.5t-337 -98.5q-114 0 -209.5 36t-168 105t-113 179t-40.5 250q0 253 152.5 415t400.5 162q122 0 220 -44t160.5 -120t96 -175t33.5 -212zM596 920q-101 0 -165.5 -66.5t-82.5 -198.5h479q-14 130 -72 197.5t-159 67.5z" />
    <glyph glyph-name="igrave" unicode="&#xec;" horiz-adv-x="544" 
d="M377 1178h-160l-252 241h254zM412 0h-283v1090h283v-1090z" />
    <glyph glyph-name="iacute" unicode="&#xed;" horiz-adv-x="544" 
d="M338 1178h-160l160 241h254zM412 0h-283v1090h283v-1090z" />
    <glyph glyph-name="icircumflex" unicode="&#xee;" horiz-adv-x="544" 
d="M203 1178h-174l131 241h223l131 -241h-176l-68 141zM129 1090h283v-1090h-283v1090z" />
    <glyph glyph-name="idieresis" unicode="&#xef;" horiz-adv-x="544" 
d="M90 1427q56 0 91.5 -34.5t35.5 -89.5t-35.5 -90t-91.5 -35t-91.5 35t-35.5 90t35.5 89.5t91.5 34.5zM451 1427q56 0 91.5 -34.5t35.5 -89.5t-35.5 -90t-91.5 -35t-91.5 35t-35.5 90t35.5 89.5t91.5 34.5zM412 0h-283v1090h283v-1090z" />
    <glyph glyph-name="eth" unicode="&#xf0;" horiz-adv-x="1284" 
d="M1114 1313l-86 -25q166 -219 166 -659q0 -141 -32.5 -254.5t-86.5 -187.5t-128.5 -123.5t-154 -71t-167.5 -21.5q-187 0 -317 74t-191.5 200t-61.5 294q0 135 41.5 246t112.5 183t165 111t201 39q60 0 107.5 -13t103.5 -46l91 -117q-15 160 -113 275l-272 -74l-33 131
l182 49q-66 42 -154 78l226 125q119 -51 211 -127l157 43zM899 532v60q0 151 -77.5 234t-192.5 83q-128 0 -202.5 -98.5t-74.5 -263.5q0 -179 71.5 -273t205.5 -94q127 0 198.5 92.5t71.5 259.5z" />
    <glyph glyph-name="ntilde" unicode="&#xf1;" horiz-adv-x="1271" 
d="M535 1253q-31 0 -31 -53h-144q0 114 37 164.5t113 50.5q68 0 149 -33q64 -26 93 -26q30 0 30 53h144q0 -115 -36.5 -166t-113.5 -51q-61 0 -149 35q-71 26 -92 26zM1145 813q8 -73 8 -199v-614h-283v575q0 97 -4 152q-6 90 -58 141.5t-151 51.5q-110 0 -177.5 -103
t-67.5 -319v-498h-283v1090h283v-177l84 129q108 76 262 76q171 0 270 -80t117 -225z" />
    <glyph glyph-name="ograve" unicode="&#xf2;" horiz-adv-x="1241" 
d="M567 1178l-252 241h254l158 -241h-160zM621 1118q265 0 415 -159t150 -414q0 -254 -150 -414t-415 -160t-415.5 160t-150.5 414q0 167 65 295.5t194.5 203t306.5 74.5zM621 170q127 0 199.5 100t72.5 275q0 177 -72 276t-200 99t-200.5 -99t-72.5 -276q0 -175 73 -275
t200 -100z" />
    <glyph glyph-name="oacute" unicode="&#xf3;" horiz-adv-x="1241" 
d="M688 1178h-160l160 241h254zM621 1118q265 0 415 -159t150 -414q0 -254 -150 -414t-415 -160t-415.5 160t-150.5 414q0 167 65 295.5t194.5 203t306.5 74.5zM621 170q127 0 199.5 100t72.5 275q0 177 -72 276t-200 99t-200.5 -99t-72.5 -276q0 -175 73 -275t200 -100z
" />
    <glyph glyph-name="ocircumflex" unicode="&#xf4;" horiz-adv-x="1241" 
d="M553 1178h-174l131 241h223l131 -241h-176l-67 141zM621 1118q265 0 415 -159t150 -414q0 -254 -150 -414t-415 -160t-415.5 160t-150.5 414q0 167 65 295.5t194.5 203t306.5 74.5zM621 170q127 0 199.5 100t72.5 275q0 177 -72 276t-200 99t-200.5 -99t-72.5 -276
q0 -175 73 -275t200 -100z" />
    <glyph glyph-name="otilde" unicode="&#xf5;" horiz-adv-x="1241" 
d="M512 1253q-31 0 -31 -53h-143q0 114 37 164.5t112 50.5q69 0 150 -33q64 -26 92 -26q31 0 31 53h143q0 -115 -36.5 -166t-112.5 -51q-62 0 -150 35q-71 26 -92 26zM621 1118q265 0 415 -159t150 -414q0 -254 -150 -414t-415 -160t-415.5 160t-150.5 414q0 167 65 295.5
t194.5 203t306.5 74.5zM621 170q127 0 199.5 100t72.5 275q0 177 -72 276t-200 99t-200.5 -99t-72.5 -276q0 -175 73 -275t200 -100z" />
    <glyph glyph-name="odieresis" unicode="&#xf6;" horiz-adv-x="1241" 
d="M440 1178q-56 0 -91.5 35t-35.5 90t35.5 89.5t91.5 34.5t91.5 -34.5t35.5 -89.5t-35.5 -90t-91.5 -35zM801 1178q-56 0 -91.5 35t-35.5 90t35.5 89.5t91.5 34.5t91.5 -34.5t35.5 -89.5t-35.5 -90t-91.5 -35zM621 1118q265 0 415 -159t150 -414q0 -254 -150 -414
t-415 -160t-415.5 160t-150.5 414q0 167 65 295.5t194.5 203t306.5 74.5zM621 170q127 0 199.5 100t72.5 275q0 177 -72 276t-200 99t-200.5 -99t-72.5 -276q0 -175 73 -275t200 -100z" />
    <glyph glyph-name="divide" unicode="&#xf7;" 
d="M641 1151q61 0 102 -40.5t41 -102.5q0 -60 -41 -101t-102 -41q-60 0 -100.5 41t-40.5 101q0 61 40.5 102t100.5 41zM1110 571h-940v160h940v-160zM641 432q61 0 102 -40.5t41 -100.5q0 -62 -41 -103t-102 -41q-60 0 -100.5 41.5t-40.5 102.5q0 60 40.5 100.5t100.5 40.5z
" />
    <glyph glyph-name="oslash" unicode="&#xf8;" horiz-adv-x="1290" 
d="M1243 1026l-137 -137q92 -147 92 -344q0 -254 -150 -414t-415 -160q-200 0 -346 99l-123 -123l-117 116l125 125q-104 143 -104 357q0 255 150 414t415 159q218 0 360 -108l133 133zM360 545q0 -75 17 -152l444 445q-73 82 -188 82q-128 0 -200.5 -99t-72.5 -276z
M905 545q0 73 -12 131l-436 -436q70 -70 176 -70q128 0 200 99.5t72 275.5z" />
    <glyph glyph-name="ugrave" unicode="&#xf9;" horiz-adv-x="1265" 
d="M569 1178l-252 241h254l158 -241h-160zM1135 1090v-1090h-283v184l-84 -139q-112 -74 -262 -74q-162 0 -263.5 79t-121.5 198q-10 69 -10 198v644h282v-584q0 -77 8 -150q23 -184 211 -184q110 0 175 92t65 271v555h283z" />
    <glyph glyph-name="uacute" unicode="&#xfa;" horiz-adv-x="1265" 
d="M690 1178h-160l160 241h254zM1135 1090v-1090h-283v184l-84 -139q-112 -74 -262 -74q-162 0 -263.5 79t-121.5 198q-10 69 -10 198v644h282v-584q0 -77 8 -150q23 -184 211 -184q110 0 175 92t65 271v555h283z" />
    <glyph glyph-name="ucircumflex" unicode="&#xfb;" horiz-adv-x="1265" 
d="M555 1178h-174l131 241h223l131 -241h-176l-67 141zM1135 1090v-1090h-283v184l-84 -139q-112 -74 -262 -74q-162 0 -263.5 79t-121.5 198q-10 69 -10 198v644h282v-584q0 -77 8 -150q23 -184 211 -184q110 0 175 92t65 271v555h283z" />
    <glyph glyph-name="udieresis" unicode="&#xfc;" horiz-adv-x="1265" 
d="M442 1178q-56 0 -91.5 35t-35.5 90t35.5 89.5t91.5 34.5t91.5 -34.5t35.5 -89.5t-35.5 -90t-91.5 -35zM803 1178q-56 0 -91.5 35t-35.5 90t35.5 89.5t91.5 34.5t91.5 -34.5t35.5 -89.5t-35.5 -90t-91.5 -35zM1135 1090v-1090h-283v184l-84 -139q-112 -74 -262 -74
q-162 0 -263.5 79t-121.5 198q-10 69 -10 198v644h282v-584q0 -77 8 -150q23 -184 211 -184q110 0 175 92t65 271v555h283z" />
    <glyph glyph-name="yacute" unicode="&#xfd;" horiz-adv-x="1157" 
d="M641 1178h-160l160 241h254zM1161 1090l-438 -1131q-85 -219 -186 -304t-269 -85q-72 0 -127 8v195q29 -4 84 -4q75 0 123.5 33t81.5 112l14 35l-444 1141h315l271 -875l266 875h309z" />
    <glyph glyph-name="thorn" unicode="&#xfe;" horiz-adv-x="1316" 
d="M776 1118q225 0 355.5 -153.5t130.5 -399.5q0 -143 -42 -258t-114.5 -187t-166 -110.5t-200.5 -38.5q-70 0 -143 17t-113 45l-71 112v-546h-283v1906h283v-581l82 118q45 36 121 56t161 20zM684 170q128 0 206.5 97t78.5 280q0 168 -75 270.5t-200 102.5
q-127 0 -204.5 -87.5t-77.5 -275.5v-51q0 -89 23.5 -156.5t63.5 -105t86.5 -56t98.5 -18.5z" />
    <glyph glyph-name="ydieresis" unicode="&#xff;" horiz-adv-x="1157" 
d="M393 1178q-56 0 -91.5 35t-35.5 90t35.5 89.5t91.5 34.5t91.5 -34.5t35.5 -89.5t-35.5 -90t-91.5 -35zM754 1178q-56 0 -91.5 35t-35.5 90t35.5 89.5t91.5 34.5t91.5 -34.5t35.5 -89.5t-35.5 -90t-91.5 -35zM1161 1090l-438 -1131q-85 -219 -186 -304t-269 -85
q-72 0 -127 8v195q29 -4 84 -4q75 0 123.5 33t81.5 112l14 35l-444 1141h315l271 -875l266 875h309z" />
    <glyph glyph-name="Amacron" unicode="&#x100;" horiz-adv-x="1384" 
d="M997 1554h-559v156h559v-156zM948 426h-475l-141 -426h-301l510 1413h354l500 -1413h-308zM713 1171l-168 -522h332z" />
    <glyph glyph-name="amacron" unicode="&#x101;" horiz-adv-x="1150" 
d="M854 1217h-559v155h559v-155zM762 0l-21 160l-53 -117q-107 -72 -270 -72q-148 0 -249 84.5t-101 233.5q0 181 153 278t447 97h69v22q0 65 -4 102q-6 61 -47.5 96.5t-120.5 35.5q-84 0 -130 -47.5t-52 -137.5l-274 -2q6 180 136 282.5t330 102.5q410 0 437 -321
q6 -77 6 -168v-353q0 -125 20 -276h-276zM526 170q91 0 151 60.5t60 170.5v88q-115 8 -198 -7t-131 -58t-48 -113t44.5 -105.5t121.5 -35.5z" />
    <glyph glyph-name="Abreve" unicode="&#x102;" horiz-adv-x="1384" 
d="M717 1485q-115 0 -180.5 61.5t-65.5 188.5h150q6 -103 96 -103t96 103h150q0 -127 -66 -188.5t-180 -61.5zM948 426h-475l-141 -426h-301l510 1413h354l500 -1413h-308zM713 1171l-168 -522h332z" />
    <glyph glyph-name="abreve" unicode="&#x103;" horiz-adv-x="1150" 
d="M573 1161q-245 0 -245 258h149q6 -110 96 -110q91 0 97 110h149q0 -133 -65.5 -195.5t-180.5 -62.5zM762 0l-21 160l-53 -117q-107 -72 -270 -72q-148 0 -249 84.5t-101 233.5q0 181 153 278t447 97h69v22q0 65 -4 102q-6 61 -47.5 96.5t-120.5 35.5q-84 0 -130 -47.5
t-52 -137.5l-274 -2q6 180 136 282.5t330 102.5q410 0 437 -321q6 -77 6 -168v-353q0 -125 20 -276h-276zM526 170q91 0 151 60.5t60 170.5v88q-115 8 -198 -7t-131 -58t-48 -113t44.5 -105.5t121.5 -35.5z" />
    <glyph glyph-name="Aogonek" unicode="&#x104;" horiz-adv-x="1384" 
d="M1145 -188q0 -105 86 -105q53 0 102 43v-127q-90 -80 -235 -80q-213 0 -213 176q0 96 57.5 176t140.5 119l-135 412h-475l-141 -426h-301l510 1413h354l500 -1413h-113q-58 -6 -97.5 -60t-39.5 -128zM713 1171l-168 -522h332z" />
    <glyph glyph-name="aogonek" unicode="&#x105;" horiz-adv-x="1150" 
d="M821 -188q0 -105 86 -105q54 0 103 43v-127q-90 -80 -236 -80q-213 0 -213 176q0 97 57.5 176.5t141.5 120.5l-19 144l-53 -117q-107 -72 -270 -72q-148 0 -249 84.5t-101 233.5q0 181 153 278t447 97h69v22q0 65 -4 102q-6 61 -47.5 96.5t-120.5 35.5q-84 0 -130 -47.5
t-52 -137.5l-274 -2q6 180 136 282.5t330 102.5q410 0 437 -321q6 -77 6 -168v-353q0 -125 20 -276h-80q-58 -6 -97.5 -60t-39.5 -128zM526 170q91 0 151 60.5t60 170.5v88q-115 8 -198 -7t-131 -58t-48 -113t44.5 -105.5t121.5 -35.5z" />
    <glyph glyph-name="Cacute" unicode="&#x106;" horiz-adv-x="1470" 
d="M838 1505h-160l153 230h254zM788 1442q276 0 432 -134t179 -354l2 -20h-283l-4 20q-27 134 -109.5 205.5t-220.5 71.5q-172 0 -276.5 -138.5t-104.5 -377.5q0 -256 104.5 -394.5t272.5 -138.5q134 0 216.5 75.5t111.5 211.5l4 20h281l-2 -20q-24 -228 -189 -363
t-434 -135q-196 0 -346 87t-234 252.5t-84 387.5q0 170 52 311t143.5 235.5t217 146t271.5 51.5z" />
    <glyph glyph-name="cacute" unicode="&#x107;" horiz-adv-x="1148" 
d="M645 1178h-160l160 241h254zM600 1118q216 0 349.5 -118t148.5 -304h-279q-38 224 -225 224q-112 0 -179 -92.5t-67 -272.5q0 -194 66 -289.5t178 -95.5q84 0 142 53t79 154h283q-35 -197 -173.5 -301.5t-347.5 -104.5q-232 0 -376 146.5t-144 419.5q0 136 43 247.5
t117.5 183.5t173 111t211.5 39z" />
    <glyph glyph-name="Cdotaccent" unicode="&#x10a;" horiz-adv-x="1470" 
d="M770 1780q64 0 106 -40t42 -102q0 -63 -41.5 -103t-106.5 -40t-106 40t-41 103q0 62 41.5 102t105.5 40zM788 1442q276 0 432 -134t179 -354l2 -20h-283l-4 20q-27 134 -109.5 205.5t-220.5 71.5q-172 0 -276.5 -138.5t-104.5 -377.5q0 -256 104.5 -394.5t272.5 -138.5
q134 0 216.5 75.5t111.5 211.5l4 20h281l-2 -20q-24 -228 -189 -363t-434 -135q-196 0 -346 87t-234 252.5t-84 387.5q0 170 52 311t143.5 235.5t217 146t271.5 51.5z" />
    <glyph glyph-name="cdotaccent" unicode="&#x10b;" horiz-adv-x="1148" 
d="M578 1495q69 0 112 -41.5t43 -107.5q0 -67 -43 -108.5t-112 -41.5t-112.5 41.5t-43.5 108.5q0 66 43.5 107.5t112.5 41.5zM600 1118q216 0 349.5 -118t148.5 -304h-279q-38 224 -225 224q-112 0 -179 -92.5t-67 -272.5q0 -194 66 -289.5t178 -95.5q84 0 142 53t79 154
h283q-35 -197 -173.5 -301.5t-347.5 -104.5q-232 0 -376 146.5t-144 419.5q0 136 43 247.5t117.5 183.5t173 111t211.5 39z" />
    <glyph glyph-name="Ccaron" unicode="&#x10c;" horiz-adv-x="1470" 
d="M659 1505l-131 230h179l67 -138l64 138h176l-131 -230h-224zM1112 489h281l-2 -20q-24 -228 -189 -363t-434 -135q-196 0 -346 87t-234 252.5t-84 387.5q0 170 52 311t143.5 235.5t217 146t271.5 51.5q276 0 432 -134t179 -354l2 -20h-283l-4 20q-27 134 -109.5 205.5
t-220.5 71.5q-172 0 -276.5 -138.5t-104.5 -377.5q0 -256 104.5 -394.5t272.5 -138.5q134 0 216.5 75.5t111.5 211.5z" />
    <glyph glyph-name="ccaron" unicode="&#x10d;" horiz-adv-x="1148" 
d="M467 1178l-131 241h176l68 -141l67 141h174l-131 -241h-223zM592 170q84 0 142 53t79 154h283q-35 -197 -173.5 -301.5t-347.5 -104.5q-232 0 -376 146.5t-144 419.5q0 136 43 247.5t117.5 183.5t173 111t211.5 39q216 0 349.5 -118t148.5 -304h-279q-38 224 -225 224
q-112 0 -179 -92.5t-67 -272.5q0 -194 66 -289.5t178 -95.5z" />
    <glyph glyph-name="Dcaron" unicode="&#x10e;" horiz-adv-x="1497" 
d="M664 1505l-132 230h179l67 -138l64 138h176l-131 -230h-223zM850 1405q126 -15 230 -62.5t183.5 -129t124 -206t44.5 -282.5t-45 -288t-125 -218.5t-186 -142t-230 -68.5q-72 -8 -180 -8h-484v1413h488q108 0 180 -8zM782 229q161 21 256 150t95 342q0 205 -92 323.5
t-253 139.5q-63 8 -151 8h-172v-969h168q104 0 149 6z" />
    <glyph glyph-name="dcaron" unicode="&#x10f;" horiz-adv-x="1320" 
d="M905 1505h283v-1505h-283v168l-82 -121q-46 -35 -122 -55.5t-160 -20.5q-225 0 -355.5 153.5t-130.5 399.5q0 144 42 259t114.5 187t166 110t200.5 38q71 0 143.5 -16.5t112.5 -44.5l71 -113v561zM1573 1505v-22l-170 -314h-166l143 336h193zM623 170q127 0 204.5 87
t77.5 275v54q0 88 -23.5 155t-63.5 105t-86.5 56t-98.5 18q-128 0 -206.5 -97t-78.5 -280q0 -168 75 -270.5t200 -102.5z" />
    <glyph glyph-name="Dcroat" unicode="&#x110;" horiz-adv-x="1501" 
d="M854 1405q126 -15 229.5 -62.5t183 -129t123.5 -206t44 -282.5t-45 -288t-124.5 -218.5t-185 -142t-229.5 -68.5q-72 -8 -180 -8h-484v610h-120v160h120v643h488q108 0 180 -8zM786 229q160 21 255.5 150t95.5 342q0 205 -91.5 323.5t-252.5 139.5q-63 8 -152 8h-172
v-422h240v-160h-240v-387h168q104 0 149 6z" />
    <glyph glyph-name="dcroat" unicode="&#x111;" horiz-adv-x="1325" 
d="M1274 1196h-86v-1196h-283v168l-82 -121q-46 -35 -122 -55.5t-160 -20.5q-225 0 -355.5 153.5t-130.5 399.5q0 144 42 259t114.5 187t166 110t200.5 38q71 0 143.5 -16.5t112.5 -44.5l71 -113v252h-241v160h241v149h283v-149h86v-160zM623 170q127 0 204.5 87t77.5 275
v54q0 88 -23.5 155t-63.5 105t-86.5 56t-98.5 18q-128 0 -206.5 -97t-78.5 -280q0 -168 75 -270.5t200 -102.5z" />
    <glyph glyph-name="Emacron" unicode="&#x112;" horiz-adv-x="1261" 
d="M973 1554h-559v156h559v-156zM1202 223v-223h-1020v1413h1000v-221h-717v-373h665v-223h-665v-373h737z" />
    <glyph glyph-name="emacron" unicode="&#x113;" horiz-adv-x="1183" 
d="M877 1217h-560v155h560v-155zM1118 567q0 -59 -4 -96h-774q24 -301 252 -301q92 0 153 48.5t74 135.5h283q-40 -186 -179 -284.5t-337 -98.5q-114 0 -209.5 36t-168 105t-113 179t-40.5 250q0 253 152.5 415t400.5 162q122 0 220 -44t160.5 -120t96 -175t33.5 -212z
M596 920q-101 0 -165.5 -66.5t-82.5 -198.5h479q-14 130 -72 197.5t-159 67.5z" />
    <glyph glyph-name="Edotaccent" unicode="&#x116;" horiz-adv-x="1261" 
d="M692 1495q-65 0 -106 40t-41 103q0 62 41.5 102t105.5 40t106 -40t42 -102q0 -63 -41.5 -103t-106.5 -40zM1202 223v-223h-1020v1413h1000v-221h-717v-373h665v-223h-665v-373h737z" />
    <glyph glyph-name="edotaccent" unicode="&#x117;" horiz-adv-x="1183" 
d="M596 1196q-69 0 -112.5 41.5t-43.5 108.5q0 66 43.5 107.5t112.5 41.5t112.5 -41.5t43.5 -107.5q0 -67 -43.5 -108.5t-112.5 -41.5zM1118 567q0 -59 -4 -96h-774q24 -301 252 -301q92 0 153 48.5t74 135.5h283q-40 -186 -179 -284.5t-337 -98.5q-114 0 -209.5 36
t-168 105t-113 179t-40.5 250q0 253 152.5 415t400.5 162q122 0 220 -44t160.5 -120t96 -175t33.5 -212zM596 920q-101 0 -165.5 -66.5t-82.5 -198.5h479q-14 130 -72 197.5t-159 67.5z" />
    <glyph glyph-name="Eogonek" unicode="&#x118;" horiz-adv-x="1261" 
d="M1202 0h-57q-58 -6 -97.5 -60t-39.5 -128q0 -105 86 -105q53 0 102 43v-127q-90 -80 -235 -80q-213 0 -213 176q0 88 48 162.5t122 118.5h-736v1413h1000v-221h-717v-373h665v-223h-665v-373h737v-223z" />
    <glyph glyph-name="eogonek" unicode="&#x119;" horiz-adv-x="1183" 
d="M1118 567q0 -59 -4 -96h-774q24 -301 252 -301q92 0 153 48.5t74 135.5h283q-30 -135 -114 -225t-208 -129q-18 -7 -35 -10q-44 -21 -72 -69t-28 -109q0 -105 86 -105q54 0 103 43v-127q-90 -80 -236 -80q-213 0 -213 176q0 76 36.5 142.5t96.5 113.5q-209 21 -336 165.5
t-127 400.5q0 253 152.5 415t400.5 162q122 0 220 -44t160.5 -120t96 -175t33.5 -212zM596 920q-101 0 -165.5 -66.5t-82.5 -198.5h479q-14 130 -72 197.5t-159 67.5z" />
    <glyph glyph-name="Ecaron" unicode="&#x11a;" horiz-adv-x="1261" 
d="M582 1505l-131 230h178l67 -138l64 138h176l-131 -230h-223zM1202 223v-223h-1020v1413h1000v-221h-717v-373h665v-223h-665v-373h737z" />
    <glyph glyph-name="ecaron" unicode="&#x11b;" horiz-adv-x="1183" 
d="M485 1178l-131 241h176l68 -141l68 141h174l-131 -241h-224zM1118 567q0 -59 -4 -96h-774q24 -301 252 -301q92 0 153 48.5t74 135.5h283q-40 -186 -179 -284.5t-337 -98.5q-114 0 -209.5 36t-168 105t-113 179t-40.5 250q0 253 152.5 415t400.5 162q122 0 220 -44
t160.5 -120t96 -175t33.5 -212zM596 920q-101 0 -165.5 -66.5t-82.5 -198.5h479q-14 130 -72 197.5t-159 67.5z" />
    <glyph glyph-name="Gbreve" unicode="&#x11e;" horiz-adv-x="1509" 
d="M772 1485q-115 0 -180.5 61.5t-65.5 188.5h150q6 -103 96 -103t96 103h150q0 -127 -66 -188.5t-180 -61.5zM829 721h570v-721h-228l-18 229l-63 -143q-118 -115 -345 -115q-295 0 -468 195.5t-173 531.5q0 170 53.5 311t147 235.5t221 146t275.5 51.5q276 0 431.5 -134
t178.5 -354l2 -20h-283l-4 20q-56 277 -329 277q-175 0 -284.5 -139t-109.5 -377q0 -256 106.5 -394.5t278.5 -138.5q137 0 227.5 84.5t112.5 233.5h-299v221z" />
    <glyph glyph-name="gbreve" unicode="&#x11f;" horiz-adv-x="1320" 
d="M651 1161q-245 0 -245 258h149q6 -110 96 -110q91 0 97 110h149q0 -133 -65.5 -195.5t-180.5 -62.5zM1188 1090v-818q0 -152 -2 -211q-9 -249 -161 -376t-417 -127q-238 0 -370.5 95.5t-151.5 276.5l-2 21h274l2 -19q9 -75 76.5 -119t175.5 -44q132 0 208 66.5t83 195.5
q2 41 2 133v26l-82 -120q-99 -76 -270 -76q-228 0 -363 148t-135 390q0 144 42 257.5t114.5 184.5t166 107.5t200.5 36.5q71 0 143.5 -16.5t112.5 -44.5l71 -113v146h283zM623 193q127 0 204.5 87t77.5 275v31q0 88 -23.5 155t-63.5 105t-86.5 56t-98.5 18
q-129 0 -207 -91.5t-78 -271.5q0 -167 74.5 -265.5t200.5 -98.5z" />
    <glyph glyph-name="Gdotaccent" unicode="&#x120;" horiz-adv-x="1509" 
d="M772 1495q-65 0 -106 40t-41 103q0 62 41.5 102t105.5 40t106 -40t42 -102q0 -63 -41.5 -103t-106.5 -40zM829 721h570v-721h-228l-18 229l-63 -143q-118 -115 -345 -115q-295 0 -468 195.5t-173 531.5q0 170 53.5 311t147 235.5t221 146t275.5 51.5q276 0 431.5 -134
t178.5 -354l2 -20h-283l-4 20q-56 277 -329 277q-175 0 -284.5 -139t-109.5 -377q0 -256 106.5 -394.5t278.5 -138.5q137 0 227.5 84.5t112.5 233.5h-299v221z" />
    <glyph glyph-name="gdotaccent" unicode="&#x121;" horiz-adv-x="1320" 
d="M651 1196q-69 0 -112 41.5t-43 108.5q0 66 43 107.5t112 41.5t112.5 -41.5t43.5 -107.5q0 -67 -43.5 -108.5t-112.5 -41.5zM1188 1090v-818q0 -152 -2 -211q-9 -249 -161 -376t-417 -127q-238 0 -370.5 95.5t-151.5 276.5l-2 21h274l2 -19q9 -75 76.5 -119t175.5 -44
q132 0 208 66.5t83 195.5q2 41 2 133v26l-82 -120q-99 -76 -270 -76q-228 0 -363 148t-135 390q0 144 42 257.5t114.5 184.5t166 107.5t200.5 36.5q71 0 143.5 -16.5t112.5 -44.5l71 -113v146h283zM623 193q127 0 204.5 87t77.5 275v31q0 88 -23.5 155t-63.5 105t-86.5 56
t-98.5 18q-129 0 -207 -91.5t-78 -271.5q0 -167 74.5 -265.5t200.5 -98.5z" />
    <glyph glyph-name="Gcommaaccent" unicode="&#x122;" horiz-adv-x="1509" 
d="M829 721h570v-721h-228l-18 229l-63 -143q-118 -115 -345 -115q-295 0 -468 195.5t-173 531.5q0 170 53.5 311t147 235.5t221 146t275.5 51.5q276 0 431.5 -134t178.5 -354l2 -20h-283l-4 20q-56 277 -329 277q-175 0 -284.5 -139t-109.5 -377q0 -256 106.5 -394.5
t278.5 -138.5q137 0 227.5 84.5t112.5 233.5h-299v221zM713 -88h192v-23l-170 -313h-166z" />
    <glyph glyph-name="gcommaaccent" unicode="&#x123;" horiz-adv-x="1320" 
d="M725 1174h-190v22l167 313h166zM1188 1090v-818q0 -152 -2 -211q-9 -249 -161 -376t-417 -127q-238 0 -370.5 95.5t-151.5 276.5l-2 21h274l2 -19q9 -75 76.5 -119t175.5 -44q132 0 208 66.5t83 195.5q2 41 2 133v26l-82 -120q-99 -76 -270 -76q-228 0 -363 148t-135 390
q0 144 42 257.5t114.5 184.5t166 107.5t200.5 36.5q71 0 143.5 -16.5t112.5 -44.5l71 -113v146h283zM623 193q127 0 204.5 87t77.5 275v31q0 88 -23.5 155t-63.5 105t-86.5 56t-98.5 18q-129 0 -207 -91.5t-78 -271.5q0 -167 74.5 -265.5t200.5 -98.5z" />
    <glyph glyph-name="Hbar" unicode="&#x126;" horiz-adv-x="1540" 
d="M1489 1006h-82v-1006h-281v580h-661v-580h-283v1006h-82v159h82v248h283v-248h661v248h281v-248h82v-159zM1126 1006h-661v-201h661v201z" />
    <glyph glyph-name="hbar" unicode="&#x127;" horiz-adv-x="1300" 
d="M1174 813q8 -73 8 -199v-614h-283v575q0 97 -4 152q-8 91 -59 142t-150 51q-112 -2 -179 -104t-67 -318v-498h-282v1196h-111v160h111v160h282v-160h217v-160h-217v-283l84 129q108 76 262 76q171 0 271 -80.5t117 -224.5z" />
    <glyph glyph-name="Imacron" unicode="&#x12a;" horiz-adv-x="598" 
d="M604 1554h-559v156h559v-156zM465 0h-283v1413h283v-1413z" />
    <glyph glyph-name="imacron" unicode="&#x12b;" horiz-adv-x="544" 
d="M551 1217h-561v155h561v-155zM412 0h-283v1090h283v-1090z" />
    <glyph glyph-name="Iogonek" unicode="&#x12e;" horiz-adv-x="598" 
d="M465 0h-86q-58 -6 -97.5 -60t-39.5 -128q0 -105 86 -105q53 0 102 43v-127q-90 -80 -235 -80q-213 0 -213 176q0 97 58 177t142 120v1397h283v-1413z" />
    <glyph glyph-name="iogonek" unicode="&#x12f;" horiz-adv-x="544" 
d="M270 1196q-69 0 -112 41.5t-43 108.5q0 66 43 107.5t112 41.5t112.5 -41.5t43.5 -107.5q0 -67 -43.5 -108.5t-112.5 -41.5zM129 1090h283v-1090h-86q-58 -6 -98 -60t-40 -128q0 -105 86 -105q54 0 103 43v-127q-90 -80 -236 -80q-213 0 -213 176q0 97 58.5 177t142.5 120
v1074z" />
    <glyph glyph-name="Idotaccent" unicode="&#x130;" horiz-adv-x="598" 
d="M324 1780q64 0 105.5 -40t41.5 -102q0 -63 -41 -103t-106 -40t-106.5 40t-41.5 103q0 62 42 102t106 40zM465 0h-283v1413h283v-1413z" />
    <glyph glyph-name="dotlessi" unicode="&#x131;" horiz-adv-x="544" 
d="M412 0h-283v1090h283v-1090z" />
    <glyph glyph-name="IJ" unicode="&#x132;" horiz-adv-x="1816" 
d="M465 0h-283v1413h283v-1413zM1708 1413v-833q0 -105 -6 -195q-11 -192 -136 -303t-368 -111q-240 0 -363.5 124t-129.5 347l-3 72h283l4 -72q7 -137 64 -198.5t161 -61.5q96 0 148 57.5t61 161.5q2 45 2 150v862h283z" />
    <glyph glyph-name="ij" unicode="&#x133;" horiz-adv-x="1077" 
d="M270 1495q69 0 112.5 -41.5t43.5 -107.5q0 -67 -43.5 -108.5t-112.5 -41.5t-112 41.5t-43 108.5q0 66 43 107.5t112 41.5zM809 1495q75 0 114.5 -38t39.5 -111t-39.5 -111.5t-114.5 -38.5q-76 0 -116 38t-40 112q0 149 156 149zM412 0h-283v1090h283v-1090zM948 1090
v-1115q0 -57 -4 -131q-11 -135 -96 -204.5t-266 -69.5q-58 0 -105 6v201q93 -8 136.5 15t50.5 85q4 58 4 94v1119h280z" />
    <glyph glyph-name="Kcommaaccent" unicode="&#x136;" horiz-adv-x="1398" 
d="M786 737l596 -737h-364l-436 571l-117 -127v-444h-283v1413h283v-682l610 682h336zM651 -88h193v-23l-170 -313h-166z" />
    <glyph glyph-name="kcommaaccent" unicode="&#x137;" horiz-adv-x="1193" 
d="M1196 0h-356l-338 430l-90 -98v-332h-283v1505h283v-913l438 498h340l-483 -506zM541 -88h192v-23l-170 -313h-166z" />
    <glyph glyph-name="Lacute" unicode="&#x139;" horiz-adv-x="1236" 
d="M391 1505h-160l154 230h254zM1202 236v-236h-1020v1413h283v-1177h737z" />
    <glyph glyph-name="lacute" unicode="&#x13a;" horiz-adv-x="571" 
d="M322 1602h-160l160 241h253zM403 1505v-1149q0 -56 3 -100q5 -43 30.5 -57.5t95.5 -10.5v-194q-73 -8 -174 -8q-109 0 -169 45t-64 147q-4 49 -4 172v1155h282z" />
    <glyph glyph-name="Lcommaaccent" unicode="&#x13b;" horiz-adv-x="1236" 
d="M1202 236v-236h-1020v1413h283v-1177h737zM618 -88h193v-23l-170 -313h-166z" />
    <glyph glyph-name="lcommaaccent" unicode="&#x13c;" horiz-adv-x="571" 
d="M403 1505v-1149q0 -56 3 -100q5 -43 30.5 -57.5t95.5 -10.5v-194q-73 -8 -174 -8q-109 0 -169 45t-64 147q-4 49 -4 172v1155h282zM416 -111l-170 -313h-166l143 336h193v-23z" />
    <glyph glyph-name="Lcaron" unicode="&#x13d;" horiz-adv-x="1236" 
d="M1202 236v-236h-1020v1413h283v-1177h737z" />
    <glyph glyph-name="lcaron" unicode="&#x13e;" horiz-adv-x="571" 
d="M403 1505v-1149q0 -56 3 -100q5 -43 30.5 -57.5t95.5 -10.5v-194q-73 -8 -174 -8q-109 0 -169 45t-64 147q-4 49 -4 172v1155h282z" />
    <glyph glyph-name="Ldot" unicode="&#x13f;" horiz-adv-x="1236" 
d="M1202 236v-236h-1020v1413h283v-1177h737zM868 655q-69 0 -116 47.5t-47 116.5t47 116.5t116 47.5t116.5 -47.5t47.5 -116.5t-47.5 -116.5t-116.5 -47.5z" />
    <glyph glyph-name="ldot" unicode="&#x140;" horiz-adv-x="864" 
d="M403 1505v-1149q0 -56 3 -100q5 -43 30.5 -57.5t95.5 -10.5v-194q-73 -8 -174 -8q-109 0 -169 45t-64 147q-4 49 -4 172v1155h282zM686 969q68 0 112 -42t44 -108t-44 -107.5t-112 -41.5q-67 0 -110.5 42t-43.5 107q0 66 44 108t110 42z" />
    <glyph glyph-name="Lslash" unicode="&#x141;" horiz-adv-x="1302" 
d="M1266 236v-236h-1018v586l-205 -115v188l205 115v639h282v-483l213 119v-189l-213 -119v-505h736z" />
    <glyph glyph-name="lslash" unicode="&#x142;" horiz-adv-x="641" 
d="M457 256q3 -42 29 -57t96 -11v-194q-71 -8 -174 -8q-226 0 -234 192q-4 49 -4 172v125l-127 -78v195l127 78v835h283v-659l127 78v-195l-127 -78v-295q0 -71 4 -100z" />
    <glyph glyph-name="Nacute" unicode="&#x143;" horiz-adv-x="1556" 
d="M864 1505h-159l153 230h254zM1423 0h-387l-581 1073q10 -193 10 -434v-639h-283v1413h375l594 -1094q-10 190 -10 445v649h280z" />
    <glyph glyph-name="nacute" unicode="&#x144;" horiz-adv-x="1271" 
d="M965 1419l-254 -241h-160l160 241h254zM1145 813q8 -73 8 -199v-614h-283v575q0 97 -4 152q-6 90 -58 141.5t-151 51.5q-110 0 -177.5 -103t-67.5 -319v-498h-283v1090h283v-177l84 129q108 76 262 76q171 0 270 -80t117 -225z" />
    <glyph glyph-name="Ncommaaccent" unicode="&#x145;" horiz-adv-x="1556" 
d="M1423 0h-387l-581 1073q10 -193 10 -434v-639h-283v1413h375l594 -1094q-10 190 -10 445v649h280zM922 -111l-170 -313h-166l143 336h193v-23z" />
    <glyph glyph-name="ncommaaccent" unicode="&#x146;" horiz-adv-x="1271" 
d="M1145 813q8 -73 8 -199v-614h-283v575q0 97 -4 152q-6 90 -58 141.5t-151 51.5q-110 0 -177.5 -103t-67.5 -319v-498h-283v1090h283v-177l84 129q108 76 262 76q171 0 270 -80t117 -225zM418 -424l143 336h193v-23l-170 -313h-166z" />
    <glyph glyph-name="Ncaron" unicode="&#x147;" horiz-adv-x="1556" 
d="M686 1505l-131 230h178l68 -138l63 138h176l-131 -230h-223zM1036 0l-581 1073q10 -193 10 -434v-639h-283v1413h375l594 -1094q-10 190 -10 445v649h280l2 -1413h-387z" />
    <glyph glyph-name="ncaron" unicode="&#x148;" horiz-adv-x="1271" 
d="M756 1178h-224l-131 241h177l67 -141l68 141h174zM1145 813q8 -73 8 -199v-614h-283v575q0 97 -4 152q-6 90 -58 141.5t-151 51.5q-110 0 -177.5 -103t-67.5 -319v-498h-283v1090h283v-177l84 129q108 76 262 76q171 0 270 -80t117 -225z" />
    <glyph glyph-name="Eng" unicode="&#x14a;" horiz-adv-x="1556" 
d="M1423 1413v-1540q0 -55 -2 -84q-13 -133 -115 -189.5t-315 -56.5v213q84 4 117 35.5t33 93.5v64l-686 1116q10 -192 10 -426v-639h-283v1413h375l594 -1012q-10 190 -10 426v586h282z" />
    <glyph glyph-name="eng" unicode="&#x14b;" horiz-adv-x="1271" 
d="M1145 813q8 -73 8 -199v-702q0 -55 -2 -84q-12 -141 -110 -199.5t-330 -58.5v213q79 0 115 21t42 77q2 16 2 60v634q0 97 -4 152q-6 90 -58 141.5t-151 51.5q-110 0 -177.5 -103t-67.5 -319v-498h-283v1090h283v-177l84 129q108 76 262 76q171 0 270 -80t117 -225z" />
    <glyph glyph-name="Omacron" unicode="&#x14c;" horiz-adv-x="1566" 
d="M1083 1554h-559v156h559v-156zM803 1442q323 0 510.5 -200t187.5 -535q0 -334 -187.5 -535t-510.5 -201q-324 0 -511.5 200.5t-187.5 535.5q0 221 83 387t242 257t374 91zM803 182q188 0 294.5 139t106.5 386q0 248 -106.5 386t-294.5 138q-190 0 -297 -138t-107 -386
q0 -247 107.5 -386t296.5 -139z" />
    <glyph glyph-name="omacron" unicode="&#x14d;" horiz-adv-x="1241" 
d="M901 1217h-559v155h559v-155zM621 1118q265 0 415 -159t150 -414q0 -254 -150 -414t-415 -160t-415.5 160t-150.5 414q0 167 65 295.5t194.5 203t306.5 74.5zM621 170q127 0 199.5 100t72.5 275q0 177 -72 276t-200 99t-200.5 -99t-72.5 -276q0 -175 73 -275t200 -100z
" />
    <glyph glyph-name="Ohungarumlaut" unicode="&#x150;" horiz-adv-x="1566" 
d="M668 1507h-160l151 228h254zM834 1507l153 228h254l-248 -228h-159zM803 1442q323 0 510.5 -200t187.5 -535q0 -334 -187.5 -535t-510.5 -201q-324 0 -511.5 200.5t-187.5 535.5q0 221 83 387t242 257t374 91zM803 182q188 0 294.5 139t106.5 386q0 248 -106.5 386
t-294.5 138q-190 0 -297 -138t-107 -386q0 -247 107.5 -386t296.5 -139z" />
    <glyph glyph-name="ohungarumlaut" unicode="&#x151;" horiz-adv-x="1241" 
d="M504 1178h-160l158 241h254zM672 1178l157 241h254l-252 -241h-159zM621 1118q265 0 415 -159t150 -414q0 -254 -150 -414t-415 -160t-415.5 160t-150.5 414q0 167 65 295.5t194.5 203t306.5 74.5zM621 170q127 0 199.5 100t72.5 275q0 177 -72 276t-200 99t-200.5 -99
t-72.5 -276q0 -175 73 -275t200 -100z" />
    <glyph glyph-name="OE" unicode="&#x152;" horiz-adv-x="2283" 
d="M2224 223v-223h-1020v244l-61 -142q-77 -73 -167 -102t-228 -29q-188 0 -335 93t-228 260.5t-81 382.5t81 382.5t228 260t335 92.5q145 0 231 -29t164 -104l61 -142v246h1000v-221h-717v-373h665v-223h-665v-373h737zM803 182q187 0 294 140.5t107 384.5
q0 245 -107 384.5t-294 139.5q-189 0 -296.5 -139.5t-107.5 -384.5q0 -244 107.5 -384.5t296.5 -140.5z" />
    <glyph glyph-name="oe" unicode="&#x153;" horiz-adv-x="2021" 
d="M1956 567q0 -59 -4 -96h-772q13 -158 79.5 -229.5t170.5 -71.5q92 0 153 48.5t74 135.5h282q-40 -185 -177.5 -284t-331.5 -99q-272 0 -398 219q-128 -219 -411 -219q-265 0 -415.5 160t-150.5 414q0 167 65 295.5t194.5 203t306.5 74.5q289 0 421 -229q132 229 414 229
q118 0 214 -44t158 -120t95 -175.5t33 -211.5zM621 170q127 0 199.5 100t72.5 275q0 177 -72 276t-200 99t-200.5 -99t-72.5 -276q0 -175 73 -275t200 -100zM1188 655h477q-14 129 -72.5 197t-158.5 68t-163.5 -67.5t-82.5 -197.5z" />
    <glyph glyph-name="Racute" unicode="&#x154;" horiz-adv-x="1339" 
d="M770 1505h-160l154 230h254zM1206 356q14 -131 37.5 -214t65.5 -142h-310q-50 138 -69 315q-29 241 -191 252q-39 2 -110 2h-164v-569h-283v1413h516q118 0 205 -10q80 -10 145 -35.5t117 -69.5t80.5 -112.5t28.5 -157.5q0 -133 -73.5 -220.5t-203.5 -123.5
q99 -38 147.5 -120t61.5 -208zM465 780h194q84 0 115 2q92 8 147.5 57t55.5 146t-48 143.5t-138 57.5q-49 6 -119 6h-207v-412z" />
    <glyph glyph-name="racute" unicode="&#x155;" horiz-adv-x="778" 
d="M477 1178h-160l160 241h254zM684 1116q47 0 80 -8v-227q-181 12 -266.5 -76.5t-85.5 -304.5v-500h-283v1090h283v-199l86 151q80 74 186 74z" />
    <glyph glyph-name="Rcommaaccent" unicode="&#x156;" horiz-adv-x="1339" 
d="M1206 356q14 -131 37.5 -214t65.5 -142h-310q-50 138 -69 315q-29 241 -191 252q-39 2 -110 2h-164v-569h-283v1413h516q118 0 205 -10q80 -10 145 -35.5t117 -69.5t80.5 -112.5t28.5 -157.5q0 -133 -73.5 -220.5t-203.5 -123.5q99 -38 147.5 -120t61.5 -208zM465 780
h194q84 0 115 2q92 8 147.5 57t55.5 146t-48 143.5t-138 57.5q-49 6 -119 6h-207v-412zM623 -88h192v-23l-170 -313h-166z" />
    <glyph glyph-name="rcommaaccent" unicode="&#x157;" horiz-adv-x="778" 
d="M684 1116q47 0 80 -8v-227q-181 12 -266.5 -76.5t-85.5 -304.5v-500h-283v1090h283v-199l86 151q80 74 186 74zM197 -88h192v-23l-170 -313h-166z" />
    <glyph glyph-name="Rcaron" unicode="&#x158;" horiz-adv-x="1339" 
d="M592 1505l-131 230h178l68 -138l63 138h176l-131 -230h-223zM1206 356q14 -131 37.5 -214t65.5 -142h-310q-50 138 -69 315q-29 241 -191 252q-39 2 -110 2h-164v-569h-283v1413h516q118 0 205 -10q80 -10 145 -35.5t117 -69.5t80.5 -112.5t28.5 -157.5
q0 -133 -73.5 -220.5t-203.5 -123.5q99 -38 147.5 -120t61.5 -208zM465 780h194q84 0 115 2q92 8 147.5 57t55.5 146t-48 143.5t-138 57.5q-49 6 -119 6h-207v-412z" />
    <glyph glyph-name="rcaron" unicode="&#x159;" horiz-adv-x="778" 
d="M299 1178l-131 241h176l68 -141l67 141h174l-131 -241h-223zM684 1116q47 0 80 -8v-227q-181 12 -266.5 -76.5t-85.5 -304.5v-500h-283v1090h283v-199l86 151q80 74 186 74z" />
    <glyph glyph-name="Sacute" unicode="&#x15a;" horiz-adv-x="1245" 
d="M715 1505h-160l154 230h254zM651 1442q123 0 219 -33.5t158 -95t98 -140.5t48 -176h-289q-12 110 -74 172t-170 62q-89 0 -144 -42.5t-55 -125.5q0 -90 66.5 -141t234.5 -91q232 -54 341.5 -162.5t109.5 -279.5q0 -129 -73 -225.5t-190 -144.5t-259 -48q-258 0 -412 114
t-174 333h289q23 -114 102.5 -175t190.5 -61q99 0 165 49t66 129q0 91 -64.5 146.5t-218.5 91.5q-92 22 -160.5 46.5t-129.5 60t-99 80t-60 105.5t-22 138q0 126 70.5 221.5t184.5 144t251 48.5z" />
    <glyph glyph-name="sacute" unicode="&#x15b;" horiz-adv-x="1017" 
d="M838 1419l-254 -241h-160l160 241h254zM518 1118q189 0 301 -94.5t131 -249.5h-282q-14 76 -56.5 117t-111.5 41q-61 0 -95 -32t-34 -85q0 -61 55.5 -98.5t191.5 -71.5q178 -46 266.5 -125t88.5 -223q0 -106 -61 -181t-160.5 -110t-227.5 -35q-204 0 -331 90.5
t-150 270.5h283q17 -86 71 -130t131 -44q71 0 115.5 30t44.5 88q0 63 -59 103.5t-201 75.5q-165 42 -253.5 118t-88.5 209q0 156 117.5 246t314.5 90z" />
    <glyph glyph-name="Scedilla" unicode="&#x15e;" horiz-adv-x="1245" 
d="M1194 389q0 -126 -70.5 -221.5t-184 -144.5t-251.5 -52l-29 -55q183 -22 183 -164q0 -92 -83.5 -137t-221.5 -45q-63 0 -109 14v121q53 -18 113 -18q125 0 125 69q0 43 -45 61t-152 11l76 152q-203 25 -322.5 136.5t-136.5 301.5h289q23 -114 102.5 -175t190.5 -61
q99 0 165 49t66 129q0 91 -64.5 146.5t-218.5 91.5q-92 22 -160.5 46.5t-129.5 60t-99 80t-60 105.5t-22 138q0 126 70.5 221.5t184.5 144t251 48.5q123 0 219 -33.5t158 -95t98 -140.5t48 -176h-289q-12 110 -74 172t-170 62q-89 0 -144 -42.5t-55 -125.5q0 -90 66.5 -141
t234.5 -91q232 -54 341.5 -162.5t109.5 -279.5z" />
    <glyph glyph-name="scedilla" unicode="&#x15f;" horiz-adv-x="1017" 
d="M973 297q0 -146 -107.5 -228.5t-283.5 -95.5l-29 -57q182 -21 182 -164q0 -92 -83.5 -137t-221.5 -45q-62 0 -108 14v121q53 -18 112 -18q125 0 125 69q0 43 -45 61t-152 11l74 147q-168 19 -270.5 108.5t-122.5 248.5h283q17 -86 71 -130t131 -44q71 0 115.5 30t44.5 88
q0 63 -59 103.5t-201 75.5q-165 42 -253.5 118t-88.5 209q0 156 117.5 246t314.5 90q189 0 301 -94.5t131 -249.5h-282q-14 76 -56.5 117t-111.5 41q-61 0 -95 -32t-34 -85q0 -61 55.5 -98.5t191.5 -71.5q178 -46 266.5 -125t88.5 -223z" />
    <glyph glyph-name="Scaron" unicode="&#x160;" horiz-adv-x="1245" 
d="M537 1505l-131 230h178l67 -138l64 138h176l-131 -230h-223zM743 831q232 -54 341.5 -162.5t109.5 -279.5q0 -129 -73 -225.5t-190 -144.5t-259 -48q-258 0 -412 114t-174 333h289q23 -114 102.5 -175t190.5 -61q99 0 165 49t66 129q0 91 -64.5 146.5t-218.5 91.5
q-92 22 -160.5 46.5t-129.5 60t-99 80t-60 105.5t-22 138q0 126 70.5 221.5t184.5 144t251 48.5q123 0 219 -33.5t158 -95t98 -140.5t48 -176h-289q-12 110 -74 172t-170 62q-89 0 -144 -42.5t-55 -125.5q0 -90 66.5 -141t234.5 -91z" />
    <glyph glyph-name="scaron" unicode="&#x161;" horiz-adv-x="1017" 
d="M629 1178h-223l-132 241h177l67 -141l68 141h174zM618 645q178 -46 266.5 -125t88.5 -223q0 -106 -61 -181t-160.5 -110t-227.5 -35q-204 0 -331 90.5t-150 270.5h283q17 -86 71 -130t131 -44q71 0 115.5 30t44.5 88q0 63 -59 103.5t-201 75.5q-165 42 -253.5 118
t-88.5 209q0 156 117.5 246t314.5 90q189 0 301 -94.5t131 -249.5h-282q-14 76 -56.5 117t-111.5 41q-61 0 -95 -32t-34 -85q0 -61 55.5 -98.5t191.5 -71.5z" />
    <glyph glyph-name="Tcedilla" unicode="&#x162;" horiz-adv-x="1275" 
d="M739 0l-43 -84q183 -22 183 -164q0 -92 -84 -137t-222 -45q-62 0 -108 14v121q53 -18 113 -18q124 0 124 69q0 43 -45 61t-151 11l86 172h-66v1192h-479v221h1241v-221h-479v-1192h-70z" />
    <glyph glyph-name="tcedilla" unicode="&#x163;" horiz-adv-x="739" 
d="M467 895v-504q0 -67 2 -96q6 -80 46.5 -104t158.5 -15v-184q-94 -15 -187 -15h-10l-33 -61q183 -22 183 -164q0 -92 -83.5 -137t-221.5 -45q-63 0 -109 14v121q53 -18 113 -18q125 0 125 69q0 43 -45 61t-152 11l84 166q-74 23 -109 72.5t-41 134.5q-4 49 -4 157v537
h-159v186h159v269h283v-269h225v-186h-225z" />
    <glyph glyph-name="Tcaron" unicode="&#x164;" horiz-adv-x="1275" 
d="M557 1505l-131 230h178l68 -138l63 138h176l-131 -230h-223zM1288 1192h-479v-1192h-283v1192h-479v221h1241v-221z" />
    <glyph glyph-name="tcaron" unicode="&#x165;" horiz-adv-x="724" 
d="M864 1505v-22l-170 -312h-166l144 334h192zM467 1081h225v-186h-225v-504q0 -67 2 -96q6 -80 46.5 -104t158.5 -15v-184q-94 -15 -187 -15q-155 0 -222.5 53t-76.5 171q-4 49 -4 157v537h-159v186h159v269h283v-269z" />
    <glyph glyph-name="Tbar" unicode="&#x166;" horiz-adv-x="1275" 
d="M809 1192v-422h205v-160h-205v-610h-283v610h-204v160h204v422h-479v221h1241v-221h-479z" />
    <glyph glyph-name="tbar" unicode="&#x167;" horiz-adv-x="739" 
d="M467 895v-188h151v-156h-151v-160q0 -67 2 -96q6 -80 46.5 -104t158.5 -15v-184q-94 -15 -187 -15q-155 0 -222.5 53t-76.5 171q-4 49 -4 157v193h-125v156h125v188h-159v186h159v269h283v-269h225v-186h-225z" />
    <glyph glyph-name="Umacron" unicode="&#x16a;" horiz-adv-x="1437" 
d="M1028 1554h-559v156h559v-156zM1329 1413v-838q0 -99 -4 -165q-7 -92 -43 -169t-103 -138.5t-177.5 -96.5t-253.5 -35q-144 0 -254.5 35t-178.5 96.5t-104 138.5t-43 169q-4 66 -4 165v838h280v-866q0 -64 5 -103q9 -124 85 -193t214 -69q137 0 212 69t84 193q5 39 5 103
v866h280z" />
    <glyph glyph-name="umacron" unicode="&#x16b;" horiz-adv-x="1265" 
d="M903 1217h-559v155h559v-155zM1135 1090v-1090h-283v184l-84 -139q-112 -74 -262 -74q-162 0 -263.5 79t-121.5 198q-10 69 -10 198v644h282v-584q0 -77 8 -150q23 -184 211 -184q110 0 175 92t65 271v555h283z" />
    <glyph glyph-name="Uring" unicode="&#x16e;" horiz-adv-x="1437" 
d="M748 1855q95 0 156 -53.5t61 -136.5q0 -85 -61 -138.5t-156 -53.5t-156.5 53.5t-61.5 138.5q0 83 61.5 136.5t156.5 53.5zM748 1747q-34 0 -56 -23t-22 -59q0 -37 22 -60.5t56 -23.5t55.5 23.5t21.5 60.5t-21.5 59.5t-55.5 22.5zM1329 1413v-838q0 -99 -4 -165
q-7 -92 -43 -169t-103 -138.5t-177.5 -96.5t-253.5 -35q-144 0 -254.5 35t-178.5 96.5t-104 138.5t-43 169q-4 66 -4 165v838h280v-866q0 -64 5 -103q9 -124 85 -193t214 -69q137 0 212 69t84 193q5 39 5 103v866h280z" />
    <glyph glyph-name="uring" unicode="&#x16f;" horiz-adv-x="1265" 
d="M623 1159q-95 0 -156 55.5t-61 143.5q0 87 60.5 141.5t156.5 54.5t156.5 -54.5t60.5 -141.5q0 -88 -61 -143.5t-156 -55.5zM623 1448q-35 0 -56.5 -24t-21.5 -66t21.5 -66t56.5 -24q34 0 55.5 24t21.5 66t-21.5 66t-55.5 24zM1135 1090v-1090h-283v184l-84 -139
q-112 -74 -262 -74q-162 0 -263.5 79t-121.5 198q-10 69 -10 198v644h282v-584q0 -77 8 -150q23 -184 211 -184q110 0 175 92t65 271v555h283z" />
    <glyph glyph-name="Uhungarumlaut" unicode="&#x170;" horiz-adv-x="1437" 
d="M612 1507h-159l151 228h254zM938 1507h-160l154 228h254zM1329 1413v-838q0 -99 -4 -165q-7 -92 -43 -169t-103 -138.5t-177.5 -96.5t-253.5 -35q-144 0 -254.5 35t-178.5 96.5t-104 138.5t-43 169q-4 66 -4 165v838h280v-866q0 -64 5 -103q9 -124 85 -193t214 -69
q137 0 212 69t84 193q5 39 5 103v866h280z" />
    <glyph glyph-name="uhungarumlaut" unicode="&#x171;" horiz-adv-x="1265" 
d="M506 1178h-160l158 241h254zM674 1178l157 241h254l-251 -241h-160zM1135 1090v-1090h-283v184l-84 -139q-112 -74 -262 -74q-162 0 -263.5 79t-121.5 198q-10 69 -10 198v644h282v-584q0 -77 8 -150q23 -184 211 -184q110 0 175 92t65 271v555h283z" />
    <glyph glyph-name="Uogonek" unicode="&#x172;" horiz-adv-x="1437" 
d="M1329 1413v-838q0 -99 -4 -165q-11 -152 -105 -264.5t-274 -153.5q-45 -19 -74.5 -68t-29.5 -112q0 -105 86 -105q53 0 102 43v-127q-90 -80 -235 -80q-213 0 -213 176q0 75 35.5 141t93.5 111q-135 4 -238 41t-166.5 98.5t-97.5 136.5t-41 163q-4 66 -4 165v838h280
v-866q0 -64 5 -103q9 -124 85 -193t214 -69q137 0 212 69t84 193q5 39 5 103v866h280z" />
    <glyph glyph-name="uogonek" unicode="&#x173;" horiz-adv-x="1265" 
d="M1135 0h-86q-58 -6 -98 -60t-40 -128q0 -105 86 -105q54 0 103 43v-127q-90 -80 -236 -80q-213 0 -213 176q0 97 58.5 177t142.5 120v168l-84 -139q-112 -74 -262 -74q-162 0 -263.5 79t-121.5 198q-10 69 -10 198v644h282v-584q0 -77 8 -150q23 -184 211 -184
q110 0 175 92t65 271v555h283v-1090z" />
    <glyph glyph-name="Wcircumflex" unicode="&#x174;" horiz-adv-x="2021" 
d="M979 1505h-176l131 230h223l131 -230h-178l-68 137zM2030 1413l-375 -1413h-375l-242 1176l-254 -1176h-376l-355 1413h305l238 -1196l250 1176h397l242 -1180l254 1200h291z" />
    <glyph glyph-name="wcircumflex" unicode="&#x175;" horiz-adv-x="1701" 
d="M786 1178h-174l131 241h224l131 -241h-176l-68 141zM1704 1090l-346 -1090h-320l-184 829l-186 -829h-322l-346 1090h315l193 -854l178 849h340l184 -847l191 852h303z" />
    <glyph glyph-name="Ycircumflex" unicode="&#x176;" horiz-adv-x="1282" 
d="M608 1505h-176l131 230h223l132 -230h-179l-67 137zM813 547v-547h-281v547l-499 866h319l330 -616l319 616h312z" />
    <glyph glyph-name="ycircumflex" unicode="&#x177;" horiz-adv-x="1157" 
d="M506 1178h-174l131 241h223l131 -241h-176l-68 141zM1161 1090l-438 -1131q-85 -219 -186 -304t-269 -85q-72 0 -127 8v195q29 -4 84 -4q75 0 123.5 33t81.5 112l14 35l-444 1141h315l271 -875l266 875h309z" />
    <glyph glyph-name="Ydieresis" unicode="&#x178;" horiz-adv-x="1282" 
d="M498 1493q-56 0 -91.5 35t-35.5 90t35.5 89t91.5 34t90.5 -34t34.5 -89q0 -56 -34.5 -90.5t-90.5 -34.5zM852 1493q-56 0 -91.5 35t-35.5 90t35.5 89t91.5 34t90.5 -34t34.5 -89q0 -56 -34.5 -90.5t-90.5 -34.5zM813 547v-547h-281v547l-499 866h319l330 -616l319 616
h312z" />
    <glyph glyph-name="Zacute" unicode="&#x179;" horiz-adv-x="1273" 
d="M733 1505h-160l154 230h254zM1221 223v-223h-1119v215l772 977h-714v221h1050v-219l-766 -971h777z" />
    <glyph glyph-name="zacute" unicode="&#x17a;" horiz-adv-x="1017" 
d="M590 1178h-160l160 241h254zM958 188v-188h-901v178l590 715h-553v188h856v-186l-585 -707h593z" />
    <glyph glyph-name="Zdotaccent" unicode="&#x17b;" horiz-adv-x="1273" 
d="M666 1495q-65 0 -106.5 40t-41.5 103q0 62 42 102t106 40t105.5 -40t41.5 -102q0 -63 -41 -103t-106 -40zM1221 223v-223h-1119v215l772 977h-714v221h1050v-219l-766 -971h777z" />
    <glyph glyph-name="zdotaccent" unicode="&#x17c;" horiz-adv-x="1017" 
d="M522 1196q-69 0 -112 41.5t-43 108.5q0 66 43 107.5t112 41.5t112.5 -41.5t43.5 -107.5q0 -67 -43.5 -108.5t-112.5 -41.5zM958 188v-188h-901v178l590 715h-553v188h856v-186l-585 -707h593z" />
    <glyph glyph-name="Zcaron" unicode="&#x17d;" horiz-adv-x="1273" 
d="M555 1505l-131 230h178l68 -138l63 138h176l-131 -230h-223zM1221 223v-223h-1119v215l772 977h-714v221h1050v-219l-766 -971h777z" />
    <glyph glyph-name="zcaron" unicode="&#x17e;" horiz-adv-x="1017" 
d="M412 1178l-131 241h176l67 -141l68 141h174l-131 -241h-223zM958 188v-188h-901v178l590 715h-553v188h856v-186l-585 -707h593z" />
    <glyph glyph-name="Scommaaccent" unicode="&#x218;" horiz-adv-x="1245" 
d="M651 1442q123 0 219 -33.5t158 -95t98 -140.5t48 -176h-289q-12 110 -74 172t-170 62q-89 0 -144 -42.5t-55 -125.5q0 -90 66.5 -141t234.5 -91q232 -54 341.5 -162.5t109.5 -279.5q0 -129 -73 -225.5t-190 -144.5t-259 -48q-258 0 -412 114t-174 333h289
q23 -114 102.5 -175t190.5 -61q99 0 165 49t66 129q0 91 -64.5 146.5t-218.5 91.5q-92 22 -160.5 46.5t-129.5 60t-99 80t-60 105.5t-22 138q0 126 70.5 221.5t184.5 144t251 48.5zM756 -111l-170 -313h-166l143 336h193v-23z" />
    <glyph glyph-name="scommaaccent" unicode="&#x219;" horiz-adv-x="1017" 
d="M518 1118q189 0 301 -94.5t131 -249.5h-282q-14 76 -56.5 117t-111.5 41q-61 0 -95 -32t-34 -85q0 -61 55.5 -98.5t191.5 -71.5q178 -46 266.5 -125t88.5 -223q0 -106 -61 -181t-160.5 -110t-227.5 -35q-204 0 -331 90.5t-150 270.5h283q17 -86 71 -130t131 -44
q71 0 115.5 30t44.5 88q0 63 -59 103.5t-201 75.5q-165 42 -253.5 118t-88.5 209q0 156 117.5 246t314.5 90zM643 -88v-23l-170 -313h-166l144 336h192z" />
    <glyph glyph-name="uni021A" unicode="&#x21a;" horiz-adv-x="1275" 
d="M1288 1192h-479v-1192h-283v1192h-479v221h1241v-221zM600 -88h193v-23l-170 -313h-166z" />
    <glyph glyph-name="uni021B" unicode="&#x21b;" horiz-adv-x="739" 
d="M467 895v-504q0 -67 2 -96q6 -80 46.5 -104t158.5 -15v-184q-94 -15 -187 -15q-155 0 -222.5 53t-76.5 171q-4 49 -4 157v537h-159v186h159v269h283v-269h225v-186h-225zM342 -88h193v-23l-170 -313h-166z" />
    <glyph glyph-name="circumflex" unicode="&#x2c6;" horiz-adv-x="614" 
d="M375 1178l-68 141l-67 -141h-174l131 241h223l131 -241h-176z" />
    <glyph glyph-name="caron" unicode="&#x2c7;" horiz-adv-x="614" 
d="M551 1419l-131 -241h-223l-131 241h176l67 -141l68 141h174z" />
    <glyph glyph-name="breve" unicode="&#x2d8;" horiz-adv-x="614" 
d="M403 1419h150q0 -133 -65.5 -195.5t-180.5 -62.5q-246 0 -246 258h150q6 -110 96 -110t96 110z" />
    <glyph glyph-name="dotaccent" unicode="&#x2d9;" horiz-adv-x="614" 
d="M307 1495q69 0 112.5 -41.5t43.5 -107.5q0 -67 -43.5 -108.5t-112.5 -41.5t-112 41.5t-43 108.5q0 66 43 107.5t112 41.5z" />
    <glyph glyph-name="ring" unicode="&#x2da;" horiz-adv-x="614" 
d="M307 1554q96 0 156.5 -54.5t60.5 -141.5q0 -88 -61 -143.5t-156 -55.5t-156 55.5t-61 143.5q0 87 60.5 141.5t156.5 54.5zM307 1448q-35 0 -56.5 -24t-21.5 -66t21.5 -66t56.5 -24t56.5 24t21.5 66t-21.5 66t-56.5 24z" />
    <glyph glyph-name="ogonek" unicode="&#x2db;" horiz-adv-x="614" 
d="M307 16l197 -16q-58 -6 -97.5 -60t-39.5 -128q0 -105 86 -105q53 0 102 43v-127q-90 -80 -236 -80q-213 0 -213 176q0 97 58.5 177t142.5 120z" />
    <glyph glyph-name="tilde" unicode="&#x2dc;" horiz-adv-x="614" 
d="M174 1415q69 0 150 -33q64 -26 92 -26q30 0 30 53h144q0 -115 -36.5 -166t-113.5 -51q-61 0 -149 35q-71 26 -92 26q-31 0 -31 -53h-143q0 114 37 164.5t112 50.5z" />
    <glyph glyph-name="hungarumlaut" unicode="&#x2dd;" horiz-adv-x="614" 
d="M190 1178h-159l157 241h254zM518 1178h-160l158 241h254z" />
    <glyph glyph-name="uni0326" unicode="&#x326;" horiz-adv-x="0" 
d="M432 -111l-170 -313h-166l144 336h192v-23z" />
    <glyph glyph-name="Wgrave" unicode="&#x1e80;" horiz-adv-x="2021" 
d="M983 1505l-246 230h254l152 -230h-160zM2030 1413l-375 -1413h-375l-242 1176l-254 -1176h-376l-355 1413h305l238 -1196l250 1176h397l242 -1180l254 1200h291z" />
    <glyph glyph-name="wgrave" unicode="&#x1e81;" horiz-adv-x="1701" 
d="M801 1178l-252 241h254l158 -241h-160zM1704 1090l-346 -1090h-320l-184 829l-186 -829h-322l-346 1090h315l193 -854l178 849h340l184 -847l191 852h303z" />
    <glyph glyph-name="Wacute" unicode="&#x1e82;" horiz-adv-x="2021" 
d="M1112 1505h-160l154 230h254zM2030 1413l-375 -1413h-375l-242 1176l-254 -1176h-376l-355 1413h305l238 -1196l250 1176h397l242 -1180l254 1200h291z" />
    <glyph glyph-name="wacute" unicode="&#x1e83;" horiz-adv-x="1701" 
d="M922 1178h-160l160 241h254zM1704 1090l-346 -1090h-320l-184 829l-186 -829h-322l-346 1090h315l193 -854l178 849h340l184 -847l191 852h303z" />
    <glyph glyph-name="Wdieresis" unicode="&#x1e84;" horiz-adv-x="2021" 
d="M868 1493q-56 0 -91.5 35t-35.5 90t35.5 89t91.5 34t90.5 -34t34.5 -89q0 -56 -34.5 -90.5t-90.5 -34.5zM1223 1493q-56 0 -91.5 35t-35.5 90t35.5 89t91.5 34t90.5 -34t34.5 -89q0 -56 -35 -90.5t-90 -34.5zM2030 1413l-375 -1413h-375l-242 1176l-254 -1176h-376
l-355 1413h305l238 -1196l250 1176h397l242 -1180l254 1200h291z" />
    <glyph glyph-name="wdieresis" unicode="&#x1e85;" horiz-adv-x="1701" 
d="M674 1178q-56 0 -91.5 35t-35.5 90t35.5 89.5t91.5 34.5t91.5 -34.5t35.5 -89.5t-35.5 -90t-91.5 -35zM1034 1178q-56 0 -91.5 35t-35.5 90t35.5 89.5t91.5 34.5t91.5 -34.5t35.5 -89.5t-35.5 -90t-91.5 -35zM1704 1090l-346 -1090h-320l-184 829l-186 -829h-322
l-346 1090h315l193 -854l178 849h340l184 -847l191 852h303z" />
    <glyph glyph-name="Ygrave" unicode="&#x1ef2;" horiz-adv-x="1282" 
d="M612 1505l-245 230h254l151 -230h-160zM813 547v-547h-281v547l-499 866h319l330 -616l319 616h312z" />
    <glyph glyph-name="ygrave" unicode="&#x1ef3;" horiz-adv-x="1157" 
d="M520 1178l-252 241h254l158 -241h-160zM1161 1090l-438 -1131q-85 -219 -186 -304t-269 -85q-72 0 -127 8v195q29 -4 84 -4q75 0 123.5 33t81.5 112l14 35l-444 1141h315l271 -875l266 875h309z" />
    <glyph glyph-name="endash" unicode="&#x2013;" horiz-adv-x="1024" 
d="M858 516h-692v160h692v-160z" />
    <glyph glyph-name="emdash" unicode="&#x2014;" horiz-adv-x="2048" 
d="M1882 516h-1716v160h1716v-160z" />
    <glyph glyph-name="quoteleft" unicode="&#x2018;" horiz-adv-x="589" 
d="M115 963l209 542h227l-162 -563h-274v21z" />
    <glyph glyph-name="quoteright" unicode="&#x2019;" horiz-adv-x="589" 
d="M475 1485l-209 -543h-227l162 563h274v-20z" />
    <glyph glyph-name="quotesinglbase" unicode="&#x201a;" horiz-adv-x="501" 
d="M379 266l-207 -516h-229l161 537h275v-21z" />
    <glyph glyph-name="quotedblleft" unicode="&#x201c;" horiz-adv-x="1017" 
d="M115 963l209 542h227l-162 -563h-274v21zM543 963l209 542h227l-162 -563h-274v21z" />
    <glyph glyph-name="quotedblright" unicode="&#x201d;" horiz-adv-x="1017" 
d="M475 1485l-209 -543h-227l162 563h274v-20zM903 1485l-211 -543h-225l162 563h274v-20z" />
    <glyph glyph-name="quotedblbase" unicode="&#x201e;" horiz-adv-x="929" 
d="M379 266l-207 -516h-229l161 537h275v-21zM805 266l-205 -516h-231l161 537h275v-21z" />
    <glyph glyph-name="dagger" unicode="&#x2020;" horiz-adv-x="1148" 
d="M1057 725l-367 12l23 -1065h-277l23 1065l-367 -12v242l367 -13l-23 459h277l-23 -459l367 13v-242z" />
    <glyph glyph-name="daggerdbl" unicode="&#x2021;" horiz-adv-x="1148" 
d="M688 737v-389l369 12v-241l-367 12l23 -459h-277l23 459l-367 -12v241l369 -12v389l-369 -12v242l367 -13l-23 459h277l-23 -459l367 13v-242z" />
    <glyph glyph-name="bullet" unicode="&#x2022;" horiz-adv-x="776" 
d="M389 866q106 0 174 -67.5t68 -173.5t-68 -174t-174 -68q-107 0 -175.5 68t-68.5 174t68.5 173.5t175.5 67.5z" />
    <glyph glyph-name="ellipsis" unicode="&#x2026;" horiz-adv-x="1501" 
d="M250 315q76 0 124 -48.5t48 -123.5t-48 -123.5t-124 -48.5q-75 0 -122.5 48.5t-47.5 123.5t47.5 123.5t122.5 48.5zM750 315q76 0 124 -48.5t48 -123.5t-48 -123.5t-124 -48.5q-75 0 -122.5 48.5t-47.5 123.5t47.5 123.5t122.5 48.5zM1249 315q76 0 124 -48.5t48 -123.5
t-48 -123.5t-124 -48.5q-75 0 -122.5 48.5t-47.5 123.5t47.5 123.5t122.5 48.5z" />
    <glyph glyph-name="perthousand" unicode="&#x2030;" horiz-adv-x="2267" 
d="M707 1102q0 -158 -85 -248t-233 -90q-147 0 -231 90t-84 248t84 247t231 89q148 0 233 -89t85 -247zM1356 1413l-918 -1413h-219l918 1413h219zM272 1102q0 -91 30 -140t87 -49t88 49t31 140q0 90 -31 138t-88 48t-87 -47.5t-30 -138.5zM1174 645q148 0 232.5 -89
t84.5 -247t-84.5 -248t-232.5 -90q-147 0 -232.5 90t-85.5 248q0 157 85.5 246.5t232.5 89.5zM1878 645q148 0 232.5 -89t84.5 -247t-84.5 -248t-232.5 -90q-147 0 -231 90t-84 248t84 247t231 89zM1174 121q57 0 86.5 48.5t29.5 139.5t-29.5 139t-86.5 48t-87 -48t-30 -139
t30 -139.5t87 -48.5zM1878 121q57 0 88 48.5t31 139.5q0 90 -31 138.5t-88 48.5t-87 -48t-30 -139t30 -139.5t87 -48.5z" />
    <glyph glyph-name="guilsinglleft" unicode="&#x2039;" horiz-adv-x="872" 
d="M770 848l-281 -340l281 -340h-213l-281 340l281 340h213z" />
    <glyph glyph-name="guilsinglright" unicode="&#x203a;" horiz-adv-x="833" 
d="M596 508l-281 -340h-213l281 340l-281 340h213z" />
    <glyph glyph-name="fraction" unicode="&#x2044;" horiz-adv-x="632" 
d="M-33 0h-219l918 1413h219z" />
    <glyph glyph-name="Euro" unicode="&#x20ac;" 
d="M983 492h-451q30 -166 113 -238t219 -72q167 0 301 82v-211q-77 -44 -157.5 -63t-198.5 -19q-246 0 -394 123t-186 398h-159l30 159h115v49q0 40 2 58h-96l33 160h79q33 176 122 295t213.5 174t281.5 55q258 0 379 -127l-109 -178q-108 94 -262 94q-262 0 -323 -313h532
l-35 -160h-516v-49v-58h496z" />
    <glyph glyph-name="trademark" unicode="&#x2122;" horiz-adv-x="1101" 
d="M455 1352v-88h-148v-330h-114v330h-150v88h412zM995 1350v-416h-114l4 291l-76 -283h-117l-76 281l2 -289h-114v416h172l78 -301l75 301h166z" />
    <glyph glyph-name="partialdiff" unicode="&#x2202;" 
d="M592 1552q154 0 269 -61.5t184 -174.5t102 -260.5t33 -332.5q0 -195 -40 -340.5t-116 -235t-178.5 -133t-233.5 -43.5q-109 0 -203 33t-166.5 96.5t-113.5 165t-41 230.5q0 246 139.5 392t374.5 146q193 0 275 -114q-9 99 -30 174t-58.5 132.5t-95.5 87t-136 29.5
q-82 0 -146.5 -22.5t-131.5 -71.5l-97 178q98 67 192 96t218 29zM629 180q132 0 194.5 124t65.5 380q-72 139 -242 139q-126 0 -193 -85t-67 -234q0 -155 66.5 -239.5t175.5 -84.5z" />
    <glyph glyph-name="emptyset" unicode="&#x2205;" horiz-adv-x="1716" 
d="M1663 1393l-164 -164q170 -220 170 -502q0 -169 -64.5 -321t-173.5 -260.5t-258.5 -172t-314.5 -63.5q-282 0 -504 174l-184 -184l-117 116l183 183q-189 228 -189 528q0 169 64.5 321t173.5 260.5t258.5 172t314.5 63.5q148 0 283.5 -50.5t244.5 -143.5l160 159z
M227 727q0 -228 131 -405l908 907q-174 153 -408 153q-129 0 -246 -51t-201.5 -138t-134 -208.5t-49.5 -257.5zM858 72q173 0 317.5 85.5t229 236.5t84.5 333q0 213 -113 379l-901 -901q168 -133 383 -133z" />
    <glyph glyph-name="product" unicode="&#x220f;" 
d="M1210 1192h-120v-1417h-283v1417h-334v-1417h-283v1417h-120v221h1140v-221z" />
    <glyph glyph-name="summation" unicode="&#x2211;" 
d="M1182 -4v-221h-1080v188l529 653l-467 609v188h1005v-221h-661l450 -578l-509 -618h733z" />
    <glyph glyph-name="minus" unicode="&#x2212;" 
d="M1087 571h-894v160h894v-160z" />
    <glyph glyph-name="radical" unicode="&#x221a;" 
d="M1200 1597l-452 -1925h-218l-260 811h-153v152h286l232 -768l389 1730h176z" />
    <glyph glyph-name="infinity" unicode="&#x221e;" horiz-adv-x="2060" 
d="M1491 1114q237 0 375.5 -158.5t138.5 -412.5q0 -255 -140 -413.5t-384 -158.5q-157 0 -272 65.5t-191 209.5q-75 -146 -183.5 -210.5t-267.5 -64.5q-235 0 -373.5 159.5t-138.5 412.5q0 254 140.5 412.5t384.5 158.5q321 0 467 -272q74 146 179.5 209t264.5 63zM592 170
q103 0 172.5 90t91.5 283q-33 198 -98.5 285t-165.5 87q-109 0 -176.5 -102t-67.5 -270q0 -167 67.5 -270t176.5 -103zM1468 170q109 0 176.5 103t67.5 270q0 168 -67.5 270t-176.5 102q-217 0 -260 -372q33 -199 96.5 -286t163.5 -87z" />
    <glyph glyph-name="integral" unicode="&#x222b;" 
d="M737 1544q110 0 178 -45l-30 -151q-53 36 -127 36q-67 0 -109.5 -50.5t-42.5 -145.5q0 -98 22.5 -211t98.5 -354q71 -224 98 -349.5t27 -232.5q0 -167 -85.5 -268t-225.5 -101q-111 0 -179 45l31 152q55 -37 129 -37q65 0 108.5 51t43.5 148q0 98 -22.5 209.5
t-100.5 353.5q-71 224 -98 350t-27 234q0 165 85.5 265.5t225.5 100.5z" />
    <glyph glyph-name="approxequal" unicode="&#x2248;" 
d="M422 963q57 0 103.5 -17.5t142.5 -66.5q77 -42 115 -57t75 -15q50 0 88.5 23t75.5 73l104 -100q-55 -91 -120.5 -130.5t-149.5 -39.5q-58 0 -106 17.5t-138 66.5q-78 41 -116 56t-76 15q-49 0 -88 -23.5t-76 -74.5l-104 107q55 89 120 127.5t150 38.5zM422 590
q57 0 103.5 -17.5t142.5 -66.5q77 -42 115 -57t75 -15q50 0 88.5 23t75.5 73l104 -100q-55 -91 -120.5 -130.5t-149.5 -39.5q-58 0 -106 17.5t-138 66.5q-79 42 -117 57t-75 15q-93 0 -164 -99l-104 107q55 89 120 127.5t150 38.5z" />
    <glyph glyph-name="notequal" unicode="&#x2260;" 
d="M799 776l-137 -258h448v-151h-528l-109 -205h-178l108 205h-233v151h313l138 258h-451v152h530l109 205h178l-108 -205h231v-152h-311z" />
    <glyph glyph-name="lessequal" unicode="&#x2264;" 
d="M1102 872l-713 -229l713 -231v-183l-883 308v215l883 307v-187zM219 160h883v-160h-883v160z" />
    <glyph glyph-name="greaterequal" unicode="&#x2265;" 
d="M1051 752v-215l-871 -308v187l699 229l-699 232v182zM180 160h871v-160h-871v160z" />
    <glyph glyph-name="lozenge" unicode="&#x25ca;" horiz-adv-x="1095" 
d="M995 707l-331 -707h-232l-332 707l332 706h232zM784 707l-235 524l-238 -524l238 -525z" />
    </font>
</defs>
</svg>
