<?xml version="1.0" standalone="no"?>
<!DOCTYPE svg PUBLIC "-//W3C//DTD SVG 1.1//EN" "http://www.w3.org/Graphics/SVG/1.1/DTD/svg11.dtd" >
<svg xmlns="http://www.w3.org/2000/svg" xmlns:xlink="http://www.w3.org/1999/xlink" version="1.1">
<metadata>
Created by FontForge 20170731 at Wed Dec 14 12:20:12 2022
 By Aleksey,,,
No Rights Reserved.
</metadata>
<defs>
<font id="Aileron-BoldItalic" horiz-adv-x="1280" >
  <font-face 
    font-family="Aileron Bold"
    font-weight="700"
    font-style="italic"
    font-stretch="normal"
    units-per-em="2048"
    panose-1="0 0 8 0 0 0 0 0 0 0"
    ascent="1577"
    descent="-471"
    x-height="1081"
    cap-height="1413"
    bbox="-414 -457 2376 1855"
    underline-thickness="102"
    underline-position="-307"
    slope="-10"
    unicode-range="U+0020-FB02"
  />
<missing-glyph horiz-adv-x="1167" 
d="M143 0v1434h1024v-1434h-1024zM655 809l349 522h-697zM717 717l348 -522v1044zM307 102h697l-349 523zM246 1239v-1044l348 522z" />
    <glyph glyph-name="fi" unicode="fi" horiz-adv-x="1189" 
d="M1155 1081l-190 -1081h-281l156 895h-353l-157 -895h-283l156 895h-94l30 186h97l4 19q11 67 26 123q42 155 175.5 238t355.5 83q73 0 155 -14l-34 -197q-117 16 -195 3.5t-119.5 -45t-58.5 -89.5q-13 -38 -21 -96l-4 -25h635z" />
    <glyph glyph-name="fl" unicode="fl" horiz-adv-x="1234" 
d="M1018 248q0 -41 26 -57t86 -13l-32 -182q-61 -10 -164 -10q-108 0 -160.5 34.5t-52.5 116.5q0 59 29 213l174 981q-59 15 -131 15q-103 0 -166 -38t-84 -106q-12 -42 -19 -96l-4 -25h221l-32 -186h-222l-159 -895h-283l158 895h-97l33 186h97l4 19q8 48 24 123
q43 158 181 239.5t397 81.5q219 0 383 -45h10l-203 -1143q-14 -86 -14 -108z" />
    <glyph glyph-name=".notdef" horiz-adv-x="1167" 
d="M143 0v1434h1024v-1434h-1024zM655 809l349 522h-697zM717 717l348 -522v1044zM307 102h697l-349 523zM246 1239v-1044l348 522z" />
    <glyph glyph-name=".null" horiz-adv-x="0" 
 />
    <glyph glyph-name="nonmarkingreturn" horiz-adv-x="682" 
 />
    <glyph glyph-name="space" unicode=" " horiz-adv-x="325" 
 />
    <glyph glyph-name="exclam" unicode="!" horiz-adv-x="589" 
d="M381 403h-227l182 1010h276zM244 291q65 0 103 -36t38 -97q0 -75 -51 -131t-135 -56q-66 0 -104 35.5t-38 97.5q0 76 51.5 131.5t135.5 55.5z" />
    <glyph glyph-name="quotedbl" unicode="&#x22;" horiz-adv-x="727" 
d="M287 942h-199l94 563h242zM629 942h-197l94 563h240z" />
    <glyph glyph-name="numbersign" unicode="#" 
d="M977 825l-92 -237h200l-28 -160h-236l-166 -428h-170l166 428h-180l-166 -428h-170l166 428h-174l29 160h209l92 237h-201l29 160h235l166 428h170l-166 -428h180l166 428h170l-166 -428h174l-28 -160h-209zM807 825h-180l-92 -237h180z" />
    <glyph glyph-name="dollar" unicode="$" 
d="M827 1219l-69 -402q200 -80 290.5 -176.5t90.5 -251.5q0 -187 -146.5 -298.5t-386.5 -119.5l-26 -155h-166l28 164q-195 28 -288 136t-107 281h277q12 -167 155 -211l74 418q-182 66 -270 157t-88 245q0 83 33.5 157.5t95.5 134t159 97.5t217 45l29 157h166l-29 -163
q168 -29 261.5 -140.5t99.5 -275.5h-277q0 69 -33 121.5t-90 79.5zM469 1028q0 -60 32.5 -99t96.5 -67l68 375q-94 -13 -145.5 -69.5t-51.5 -139.5zM711 553l-68 -379q213 22 213 195q0 65 -34.5 108t-110.5 76z" />
    <glyph glyph-name="percent" unicode="%" horiz-adv-x="1585" 
d="M440 768q-129 0 -205.5 75.5t-76.5 205.5q0 103 39.5 190.5t124.5 145t202 57.5q128 0 205.5 -75.5t77.5 -205.5q0 -76 -23.5 -145.5t-68 -125.5t-116 -89t-159.5 -33zM1526 1413l-1161 -1413h-248l1163 1413h246zM506 1292q-65 0 -106.5 -70t-41.5 -175q0 -63 25.5 -96
t73.5 -33q65 0 107 70t42 175q0 129 -100 129zM1204 645q128 0 204.5 -75t76.5 -205q0 -76 -23.5 -145.5t-68 -125.5t-116 -89.5t-159.5 -33.5q-128 0 -204 75.5t-76 205.5q0 76 23 145.5t67 125.5t115.5 89t160.5 33zM1137 121q65 0 107 70.5t42 175.5q0 63 -26 96t-74 33
q-65 0 -107.5 -70.5t-42.5 -175.5q0 -129 101 -129z" />
    <glyph glyph-name="ampersand" unicode="&#x26;" horiz-adv-x="1380" 
d="M1366 827l-39 -221h-192l-103 -586q-242 -49 -491 -49q-510 0 -510 328q0 169 111.5 281.5t295.5 142.5q-98 30 -154.5 102.5t-56.5 175.5q0 202 164.5 321.5t439.5 119.5q123 0 222 -21l-37 -211q-108 21 -217 21q-133 0 -203 -61.5t-70 -180.5q0 -149 172 -160
q37 -2 119 -2h76l33 191h282l-34 -191h192zM854 606h-94q-74 0 -115 -4q-152 -10 -228.5 -75t-76.5 -175q0 -92 61 -131t185 -39q102 0 194 17z" />
    <glyph glyph-name="quotesingle" unicode="'" horiz-adv-x="385" 
d="M287 942h-199l94 563h242z" />
    <glyph glyph-name="parenleft" unicode="(" horiz-adv-x="743" 
d="M545 -164h-154q-158 239 -158 610q0 188 46.5 383.5t155 401.5t267.5 366h154q-227 -274 -334.5 -570t-107.5 -576q0 -353 131 -615z" />
    <glyph glyph-name="parenright" unicode=")" horiz-adv-x="743" 
d="M260 1597h154q159 -240 159 -610q0 -189 -46.5 -383.5t-155.5 -401t-269 -366.5h-153q228 273 336 570t108 577q0 354 -133 614z" />
    <glyph glyph-name="asterisk" unicode="*" horiz-adv-x="1120" 
d="M645 647l301 117l25 -180l-307 -70l170 -254l-172 -110l-123 276l-228 -276l-131 110l258 254l-282 70l90 180l260 -117l33 326h188z" />
    <glyph glyph-name="plus" unicode="+" 
d="M1077 571h-364l-72 -407h-166l72 407h-365l29 152h362l72 412h166l-72 -412h365z" />
    <glyph glyph-name="comma" unicode="," horiz-adv-x="534" 
d="M336 264l-299 -514h-232l258 537h275z" />
    <glyph glyph-name="hyphen" unicode="-" horiz-adv-x="606" 
d="M526 500h-475l29 159h475z" />
    <glyph glyph-name="period" unicode="." horiz-adv-x="534" 
d="M193 315q63 0 103 -37t40 -100q0 -93 -57.5 -150t-147.5 -57q-63 0 -103 36.5t-40 98.5q0 93 57.5 151t147.5 58z" />
    <glyph glyph-name="slash" unicode="/" horiz-adv-x="669" 
d="M43 -61h-176l784 1536h176z" />
    <glyph glyph-name="zero" unicode="0" 
d="M729 1442q252 0 380 -146t128 -395q0 -85 -9.5 -171.5t-32.5 -179t-57.5 -175.5t-87 -157.5t-118 -129t-155 -86t-193.5 -31.5q-253 0 -380.5 146.5t-127.5 394.5q0 103 14 205.5t44 209t82 197.5t121.5 163t170.5 113.5t221 41.5zM586 182q78 0 141 56.5t100.5 140
t62.5 188.5t34.5 193.5t9.5 163.5q0 146 -52 226.5t-155 80.5q-78 0 -141 -55.5t-100.5 -138.5t-62.5 -187.5t-34.5 -193t-9.5 -164.5q0 -147 51.5 -228.5t155.5 -81.5z" />
    <glyph glyph-name="one" unicode="1" 
d="M1071 1413l-250 -1413h-280l196 1116l-452 -227l47 266l360 195q123 63 240 63h139z" />
    <glyph glyph-name="two" unicode="2" 
d="M492 223h598l-39 -223h-1031l25 133l557 465q195 163 269.5 261.5t74.5 207.5q0 79 -43 122.5t-127 43.5q-105 0 -170.5 -62.5t-99.5 -195.5l-6 -21h-283l6 21q62 236 214 352.5t403 116.5q200 0 306.5 -91.5t106.5 -246.5q0 -140 -96.5 -275t-357.5 -352z" />
    <glyph glyph-name="three" unicode="3" 
d="M928 748q239 -63 239 -279q0 -147 -82 -261t-225 -175.5t-323 -61.5q-241 0 -363.5 113t-105.5 330l2 20h282l-2 -20q-5 -108 56.5 -170t177.5 -62q119 0 198.5 70t79.5 184q0 176 -244 182h-47l35 197l45 2q130 5 211.5 75.5t81.5 180.5q0 71 -45.5 114.5t-124.5 43.5
q-100 0 -168 -60t-92 -163l-4 -21h-283l4 21q49 198 200.5 316t410.5 118q198 0 303.5 -88t105.5 -228q0 -143 -84 -242t-239 -136z" />
    <glyph glyph-name="four" unicode="4" 
d="M1176 334h-177l-59 -334h-281l60 334h-682l26 151l842 928h299l-164 -856h172zM760 557l104 530q-71 -92 -119 -143l-354 -387h369z" />
    <glyph glyph-name="five" unicode="5" 
d="M584 1192l-125 -395l88 96q104 55 229 55q190 0 292.5 -103.5t102.5 -283.5q0 -112 -34 -208t-93.5 -165.5t-139.5 -119t-173.5 -73.5t-193.5 -24q-225 0 -345.5 104.5t-103.5 311.5v21h283v-21q-6 -205 188 -205q139 0 223 94.5t84 239.5q0 102 -52 161.5t-150 59.5
q-84 0 -145.5 -37.5t-112.5 -121.5h-265l254 835h875l-39 -221h-647z" />
    <glyph glyph-name="six" unicode="6" 
d="M842 1442q209 0 315 -106t94 -292l-2 -20h-286v20q-6 95 -49 141t-128 46q-131 0 -228 -126t-142 -374l104 137q116 82 268 82q192 0 292 -105t100 -274q0 -135 -53.5 -250t-142 -190.5t-201 -117.5t-232.5 -42q-217 0 -335 125t-118 361q0 226 59.5 414t161.5 311.5
t237 191.5t286 68zM672 739q-115 0 -202 -91.5t-87 -241.5q0 -101 52 -162.5t145 -61.5q125 0 208.5 97t83.5 239q0 100 -50.5 160.5t-149.5 60.5z" />
    <glyph glyph-name="seven" unicode="7" 
d="M1339 1413l-26 -149l-901 -1264h-314l858 1192h-739l41 221h1081z" />
    <glyph glyph-name="eight" unicode="8" 
d="M946 748q96 -34 155.5 -110.5t59.5 -184.5q0 -99 -33.5 -180t-92 -136.5t-138.5 -94t-171 -56t-191 -17.5q-220 0 -346 86.5t-126 266.5q0 84 29 157t78.5 125t109.5 88t128 56q-74 31 -118 93.5t-44 153.5q0 197 155.5 322t413.5 125q203 0 314.5 -90t111.5 -242
q0 -73 -24 -135t-67 -105.5t-93.5 -73t-110.5 -48.5zM774 1231q-106 0 -171.5 -65t-65.5 -165q0 -75 42.5 -117t122.5 -42q109 0 176.5 64t67.5 167q0 71 -45 114.5t-127 43.5zM578 180q141 0 212.5 73.5t71.5 190.5q0 86 -52 137.5t-155 51.5q-132 0 -210 -76t-78 -192
q0 -85 54.5 -135t156.5 -50z" />
    <glyph glyph-name="nine" unicode="9" 
d="M774 1442q217 0 334 -125t117 -361q0 -181 -38.5 -339t-107.5 -275t-161.5 -201.5t-203.5 -127t-231 -42.5q-209 0 -315.5 106t-95.5 292l2 20h288v-20q6 -95 49 -141t126 -46q131 0 228 125.5t142 372.5l-102 -135q-118 -82 -268 -82q-192 0 -292 105t-100 274
q0 135 53.5 250t141.5 190.5t201 117.5t233 42zM651 674q117 0 203 92t86 244q0 99 -52 160t-145 61q-125 0 -207.5 -97t-82.5 -239q0 -100 49.5 -160.5t148.5 -60.5z" />
    <glyph glyph-name="colon" unicode=":" horiz-adv-x="534" 
d="M348 1118q63 0 103.5 -36t40.5 -99q0 -93 -57.5 -150t-147.5 -57q-62 0 -103 36t-41 99q0 93 57.5 150t147.5 57zM207 315q63 0 103 -37t40 -100q0 -93 -57.5 -150t-147.5 -57q-62 0 -102.5 36.5t-40.5 98.5q0 93 57.5 151t147.5 58z" />
    <glyph glyph-name="semicolon" unicode=";" horiz-adv-x="534" 
d="M348 1118q63 0 103.5 -36t40.5 -99q0 -93 -57.5 -150t-147.5 -57q-62 0 -103 36t-41 99q0 93 57.5 150t147.5 57zM332 252l-295 -502h-230l256 537h275z" />
    <glyph glyph-name="less" unicode="&#x3c;" 
d="M1165 836l-774 -295l672 -297l-35 -193l-833 383l38 217l967 385z" />
    <glyph glyph-name="equal" unicode="=" 
d="M1137 776h-940l26 152h938zM1063 367h-938l27 151h938z" />
    <glyph glyph-name="greater" unicode="&#x3e;" 
d="M1065 651l-37 -217l-969 -383l35 199l774 295l-671 297l34 194z" />
    <glyph glyph-name="question" unicode="?" horiz-adv-x="1263" 
d="M815 1442q196 0 305 -86t109 -234q0 -132 -64 -230.5t-229 -229.5q-94 -75 -136.5 -128.5t-66.5 -130.5h-244q21 103 64 171t143 163q136 127 183 198t47 148q0 71 -42.5 109.5t-119.5 38.5q-92 0 -155 -60.5t-87 -181.5h-284q36 211 192.5 332t384.5 121zM592 291
q65 0 103 -36t38 -97q0 -75 -51 -131t-135 -56q-66 0 -103.5 35.5t-37.5 97.5q0 76 51 131.5t135 55.5z" />
    <glyph glyph-name="at" unicode="@" horiz-adv-x="1832" 
d="M1364 961l-94 -394q-25 -102 -25 -153q0 -107 80 -107q91 0 154 100t63 281q0 262 -154 407.5t-407 145.5q-107 0 -209.5 -29.5t-194 -90.5t-161 -146t-110 -203.5t-40.5 -255.5q0 -283 161 -442.5t439 -159.5t484 147l63 -139q-131 -87 -278.5 -128.5t-286.5 -41.5
q-113 0 -219.5 26.5t-205.5 86t-173 145.5t-118 214t-44 282q0 158 48 299.5t133 249.5t197.5 187t246.5 120t276 41q169 0 308 -55.5t231 -151.5t142 -223t50 -271q0 -117 -25 -211.5t-67.5 -158t-101 -106.5t-124 -62t-138.5 -19q-104 0 -172 45.5t-91 135.5l-55 -111
q-86 -70 -192 -70q-55 0 -102.5 17t-89 54.5t-65.5 105.5t-24 161q0 141 52 258t147 186.5t213 69.5q119 0 168 -59l26 -107l39 130h246zM846 344q56 0 96.5 47.5t56.5 118.5l27 117q19 87 -5.5 129.5t-82.5 42.5q-86 0 -140.5 -86t-54.5 -209q0 -160 103 -160z" />
    <glyph glyph-name="A" unicode="A" horiz-adv-x="1392" 
d="M936 426h-481l-213 -426h-305l749 1413h375l244 -1413h-306zM903 649l-78 514l-258 -514h336z" />
    <glyph glyph-name="B" unicode="B" horiz-adv-x="1353" 
d="M1026 758q225 -70 225 -312q0 -100 -42 -181t-112 -132.5t-148.5 -82t-164.5 -42.5q-74 -8 -198 -8h-514l250 1413h505q113 0 181 -8q145 -18 223 -97t78 -200q0 -264 -283 -350zM565 1192l-63 -358h213q49 0 102 6q187 29 187 209q0 61 -35.5 95t-98.5 42q-46 6 -100 6
h-205zM729 225q91 6 157 69t66 165q0 72 -41.5 110.5t-111.5 46.5q-61 7 -101 7h-235l-70 -400h242q67 0 94 2z" />
    <glyph glyph-name="C" unicode="C" horiz-adv-x="1525" 
d="M934 1442q278 0 419.5 -135.5t125.5 -352.5l-2 -20h-283v20q-1 142 -74.5 209.5t-216.5 67.5q-207 0 -342 -180.5t-135 -470.5q0 -201 81.5 -299.5t221.5 -98.5q262 0 373 287l8 20h281l-7 -20q-65 -236 -244 -367t-448 -131q-266 0 -417.5 154t-151.5 430
q0 194 64 360.5t173 281.5t258 180t316 65z" />
    <glyph glyph-name="D" unicode="D" horiz-adv-x="1490" 
d="M956 1405q108 -11 197.5 -52.5t158.5 -113t107.5 -181.5t38.5 -249q0 -149 -46.5 -284.5t-136 -245.5t-233 -183t-323.5 -90q-74 -6 -182 -6h-465l250 1413h446q118 0 188 -8zM705 227q92 11 167 47.5t127 90.5t87.5 124t52 148t16.5 164q0 180 -77.5 274.5t-211.5 110.5
q-67 6 -141 6h-160l-172 -969h166q99 0 146 4z" />
    <glyph glyph-name="E" unicode="E" horiz-adv-x="1253" 
d="M565 1192l-65 -373h665l-39 -223h-667l-66 -373h737l-40 -223h-1018l250 1413h997l-39 -221h-715z" />
    <glyph glyph-name="F" unicode="F" horiz-adv-x="1210" 
d="M565 1192l-65 -373h645l-39 -223h-647l-105 -596h-282l250 1413h997l-39 -221h-715z" />
    <glyph glyph-name="G" unicode="G" horiz-adv-x="1574" 
d="M967 1442q140 0 245.5 -36.5t168 -103t90.5 -154.5t20 -194l-2 -20h-283v20q-1 145 -70 211t-210 66q-102 0 -193 -46.5t-159 -130t-108 -206t-40 -266.5q0 -193 83 -296.5t224 -103.5q137 0 242 84.5t151 233.5h-299l41 221h570l-127 -721h-228l21 227l-88 -141
q-136 -115 -365 -115q-249 0 -389.5 154.5t-140.5 421.5q0 200 69 370.5t185 284t269.5 177t322.5 63.5z" />
    <glyph glyph-name="H" unicode="H" horiz-adv-x="1529" 
d="M1546 1413l-250 -1413h-282l102 580h-659l-103 -580h-282l250 1413h282l-108 -608h659l109 608h282z" />
    <glyph glyph-name="I" unicode="I" horiz-adv-x="587" 
d="M354 0h-282l250 1413h282z" />
    <glyph glyph-name="J" unicode="J" horiz-adv-x="1200" 
d="M1214 1413l-145 -833q-17 -103 -41 -195q-93 -414 -567 -414q-228 0 -339.5 126.5t-80.5 344.5l10 72h283l-8 -72q-17 -136 29.5 -198t150.5 -62q189 0 246 219q11 40 30 150l152 862h280z" />
    <glyph glyph-name="K" unicode="K" horiz-adv-x="1384" 
d="M766 721l510 -721h-348l-377 578l-113 -105l-84 -473h-282l250 1413h282l-117 -655l723 655h338z" />
    <glyph glyph-name="L" unicode="L" horiz-adv-x="1226" 
d="M1133 236l-43 -236h-1018l250 1413h282l-209 -1177h738z" />
    <glyph glyph-name="M" unicode="M" horiz-adv-x="1828" 
d="M1845 1413l-250 -1413h-282l205 1137l-517 -1137h-335l-113 1141l-199 -1141h-282l250 1413h460l107 -1116l487 1116h469z" />
    <glyph glyph-name="N" unicode="N" horiz-adv-x="1546" 
d="M1563 1413l-250 -1413h-387l-385 1073l-187 -1073h-282l250 1413h374l394 -1100l190 1100h283z" />
    <glyph glyph-name="O" unicode="O" horiz-adv-x="1599" 
d="M938 1442q149 0 269 -47.5t198 -131t120 -194.5t42 -240q0 -181 -57 -338t-160 -272.5t-256.5 -181.5t-337.5 -66q-149 0 -269 47.5t-198 131t-120 194.5t-42 240q0 181 57 338t160 272.5t256.5 181.5t337.5 66zM778 182q96 0 178 39t138 103.5t95.5 148t58 172.5
t18.5 178q0 185 -93 296.5t-258 111.5q-119 0 -215 -59t-153.5 -154t-88 -205.5t-30.5 -222.5q0 -185 92 -296.5t258 -111.5z" />
    <glyph glyph-name="P" unicode="P" horiz-adv-x="1288" 
d="M1004 1403q143 -16 233 -107.5t90 -244.5q0 -111 -39 -204.5t-104.5 -155.5t-148 -100t-173.5 -48q-99 -11 -207 -11h-206l-95 -532h-282l250 1413h479q115 0 203 -10zM817 762q95 14 153 78.5t58 177.5q0 74 -36 115.5t-99 50.5q-46 6 -125 6h-205l-76 -434h205
q72 0 125 6z" />
    <glyph glyph-name="Q" unicode="Q" horiz-adv-x="1595" 
d="M1552 842q0 -202 -75 -373.5t-209 -265.5q96 -31 202 -123l-151 -182q-105 66 -162 89t-119 23q-70 0 -151 -20q-74 -19 -142 -19q-152 0 -271 45.5t-195 127t-115 190.5t-39 239q0 181 56 339.5t158.5 276t255.5 185.5t337 68q152 0 271 -45.5t194.5 -126.5t115 -189.5
t39.5 -238.5zM426 578q0 -182 88 -289t246 -107q99 0 182.5 40t139.5 106t95 152t56.5 176t17.5 180q0 182 -87.5 288.5t-245.5 106.5q-99 0 -182 -40t-139 -106t-95.5 -151.5t-57.5 -175.5t-18 -180z" />
    <glyph glyph-name="R" unicode="R" horiz-adv-x="1320" 
d="M1354 1096q0 -165 -96.5 -271t-262.5 -147q90 -30 125 -125t35 -301q0 -169 41 -252h-305q-17 94 -19 346q0 210 -143 221q-37 2 -108 2h-166l-101 -569h-282l250 1413h516q117 0 204 -10q141 -16 226.5 -92t85.5 -215zM805 782q105 10 172 70.5t67 175.5q0 141 -155 158
q-50 6 -117 6h-207l-73 -412h196q82 0 117 2z" />
    <glyph glyph-name="S" unicode="S" horiz-adv-x="1226" 
d="M760 1442q123 0 215.5 -34t147 -94.5t79 -140.5t19.5 -176h-287q6 109 -48.5 171.5t-162.5 62.5q-100 0 -162.5 -53.5t-62.5 -147.5q0 -72 61 -118t203 -81q195 -47 289 -141t94 -241q0 -111 -48.5 -202.5t-132 -151t-193 -92t-232.5 -32.5q-247 0 -385.5 115t-120.5 332
h286q3 -114 72.5 -175t181.5 -61q114 0 189.5 58t75.5 155q0 73 -58.5 123.5t-187.5 83.5q-197 49 -298 132.5t-101 228.5q0 147 80 258t207.5 166t279.5 55z" />
    <glyph glyph-name="T" unicode="T" horiz-adv-x="1275" 
d="M1401 1192h-477l-211 -1192h-283l211 1192h-481l41 221h1241z" />
    <glyph glyph-name="U" unicode="U" horiz-adv-x="1439" 
d="M1485 1413l-144 -815q-18 -105 -36 -176q-52 -218 -203.5 -334.5t-433.5 -116.5q-256 0 -387 108.5t-131 297.5q0 79 26 239l141 797h283l-151 -860q-17 -96 -17 -145q0 -107 69.5 -166.5t190.5 -59.5q138 0 219 60.5t117 201.5q12 46 23 103l151 866h283z" />
    <glyph glyph-name="V" unicode="V" horiz-adv-x="1437" 
d="M838 0h-375l-244 1413h307l164 -1196l592 1196h307z" />
    <glyph glyph-name="W" unicode="W" horiz-adv-x="2023" 
d="M2183 1413l-620 -1413h-375l-43 1137l-449 -1137h-377l-112 1413h297l49 -1165l436 1145h404l26 -1157l453 1177h311z" />
    <glyph glyph-name="X" unicode="X" horiz-adv-x="1370" 
d="M868 711l400 -711h-328l-276 530l-426 -530h-336l641 721l-357 692h318l239 -512l422 512h328z" />
    <glyph glyph-name="Y" unicode="Y" horiz-adv-x="1304" 
d="M825 541l-96 -541h-283l99 551l-346 862h299l231 -625l430 625h318z" />
    <glyph glyph-name="Z" unicode="Z" horiz-adv-x="1273" 
d="M1325 1194l-926 -971h766l-41 -223h-1118l37 215l934 977h-705l41 221h1051z" />
    <glyph glyph-name="bracketleft" unicode="[" horiz-adv-x="745" 
d="M375 1597h456l-28 -159h-291l-254 -1442h291l-29 -160h-457z" />
    <glyph glyph-name="backslash" unicode="\" horiz-adv-x="669" 
d="M557 -61h-176l-244 1536h176z" />
    <glyph glyph-name="bracketright" unicode="]" horiz-adv-x="745" 
d="M408 -164h-459l28 160h291l256 1442h-293l29 159h459z" />
    <glyph glyph-name="asciicircum" unicode="^" 
d="M850 440l-148 662l-374 -662h-191l494 822h194l211 -822h-186z" />
    <glyph glyph-name="underscore" unicode="_" horiz-adv-x="1024" 
d="M907 -178h-819l29 160h819z" />
    <glyph glyph-name="grave" unicode="`" horiz-adv-x="614" 
d="M393 1176h-160l-210 241h253z" />
    <glyph glyph-name="a" unicode="a" horiz-adv-x="1130" 
d="M666 1118q205 0 301 -77.5t96 -211.5q0 -52 -27 -204l-61 -349q-22 -126 -29 -276h-276l6 160l-72 -109q-105 -80 -276 -80q-131 0 -217 74t-86 213q0 208 199.5 317t539.5 89l2 16q12 74 12 117q0 55 -33 89t-104 34q-182 0 -227 -185l-275 -2q35 181 179 283t348 102z
M465 170q82 0 157 64.5t93 166.5l16 93q-116 13 -207.5 -5t-146.5 -68t-55 -126q0 -61 38.5 -93t104.5 -32z" />
    <glyph glyph-name="b" unicode="b" horiz-adv-x="1331" 
d="M868 1118q200 0 309 -116t109 -320q0 -108 -25 -210.5t-77.5 -193.5t-127.5 -159t-182 -108t-233 -40q-69 0 -139 20t-105 50l-53 115l-27 -156h-282l266 1505h283l-103 -581l103 118q109 76 284 76zM633 170q105 0 186.5 68.5t123.5 175.5t42 231q0 132 -57.5 203.5
t-163.5 71.5q-61 0 -114 -20t-100 -62t-82 -113.5t-52 -167.5l-10 -51l-5 -21l7 21q-7 -52 -7 -101t15.5 -91.5t41.5 -74.5t71 -50.5t104 -18.5z" />
    <glyph glyph-name="c" unicode="c" horiz-adv-x="1171" 
d="M698 1114q222 0 333.5 -114t111.5 -308h-279q-6 223 -196 223q-142 0 -231 -141t-89 -352q0 -123 53 -187.5t138 -64.5q95 0 164.5 52.5t105.5 154.5h283q-151 -406 -580 -406q-211 0 -338 114t-127 337q0 141 45.5 266.5t128 220t206.5 150t271 55.5z" />
    <glyph glyph-name="d" unicode="d" horiz-adv-x="1329" 
d="M1370 1505l-266 -1505h-283l29 166l-102 -119q-110 -76 -283 -76q-201 0 -310.5 116.5t-109.5 320.5q0 108 25 210.5t77.5 193.5t127.5 159t182 107.5t233 39.5q70 0 140 -19t106 -50l51 -115l100 571h283zM915 532l11 54q7 52 7 100t-16 91t-42.5 74.5t-71 50
t-103.5 18.5q-106 0 -188 -68.5t-124 -176t-42 -231.5q0 -132 58 -203t165 -71q61 0 114 20t99.5 61.5t81 113t51.5 167.5z" />
    <glyph glyph-name="e" unicode="e" horiz-adv-x="1187" 
d="M338 471l-2 -55q0 -126 54 -186t147 -60q92 0 161.5 48.5t98.5 135.5h282q-65 -187 -215.5 -285t-353.5 -98q-100 0 -182.5 26.5t-146 79.5t-99 139t-35.5 198q0 113 27 217.5t81.5 192.5t130 154t178 103t220.5 37q148 0 253.5 -57.5t155.5 -153.5t50 -219
q0 -102 -35 -217h-770zM655 920q-105 0 -176.5 -71.5t-109.5 -193.5h485q2 18 2 47q0 102 -52.5 160t-148.5 58z" />
    <glyph glyph-name="f" unicode="f" horiz-adv-x="645" 
d="M551 1229q-20 -76 -23 -94l-10 -54h223l-32 -186h-222l-157 -895h-283l158 895h-96l30 186h99l8 45q18 89 28 125q39 145 133.5 219t233.5 74q119 0 201 -14l-37 -197q-36 8 -72 8q-144 0 -182 -112z" />
    <glyph glyph-name="g" unicode="g" horiz-adv-x="1329" 
d="M1296 1090l-143 -818q-13 -71 -41 -211q-53 -256 -215 -379.5t-451 -123.5q-228 0 -348.5 97t-107.5 275l2 21h276l-2 -19q-5 -76 54.5 -119.5t168.5 -43.5q131 0 218.5 66.5t117.5 195.5q2 12 12 59t15 74l2 12l-106 -123q-110 -76 -283 -76q-200 0 -310 117.5
t-110 313.5q0 108 25 210.5t77.5 193.5t127.5 159t182 107.5t233 39.5q70 0 140 -19t106 -50l51 -117l29 158h280zM569 176q128 0 220.5 85t125.5 271l-2 -18l15 82l-2 -10q7 52 7 100t-16 91t-42.5 74.5t-71 50t-103.5 18.5q-106 0 -188 -68.5t-124 -176t-42 -231.5
q0 -131 57.5 -199.5t165.5 -68.5z" />
    <glyph glyph-name="h" unicode="h" horiz-adv-x="1271" 
d="M862 1118q162 0 247 -75.5t85 -202.5q0 -70 -27 -217l-110 -623h-283l103 571q22 126 22 179q0 170 -176 170q-113 -2 -197.5 -105.5t-122.5 -320.5l-86 -494h-282l266 1516h283l-105 -592l107 118q122 76 276 76z" />
    <glyph glyph-name="i" unicode="i" horiz-adv-x="542" 
d="M440 1495q62 0 98.5 -34.5t36.5 -92.5q0 -70 -47.5 -121t-128.5 -51q-63 0 -99 34t-36 93q0 70 47.5 121t128.5 51zM317 0h-282l194 1090h281z" />
    <glyph glyph-name="j" unicode="j" horiz-adv-x="491" 
d="M395 1495q67 0 105.5 -34.5t38.5 -90.5q0 -83 -46 -128.5t-128 -45.5q-67 0 -105.5 33.5t-38.5 89.5q0 84 46 130t128 46zM477 1090l-194 -1115q-17 -85 -29 -131q-35 -135 -132.5 -204.5t-279.5 -69.5q-54 0 -104 6l37 201q87 -9 134 14t66 84q10 30 25 105l195 1110
h282z" />
    <glyph glyph-name="k" unicode="k" horiz-adv-x="1198" 
d="M717 580l405 -580h-342l-284 440l-119 -104l-60 -336h-282l266 1505h283l-160 -907l524 492h340z" />
    <glyph glyph-name="l" unicode="l" horiz-adv-x="573" 
d="M575 1505l-204 -1149q-15 -92 -15 -108q0 -46 25.5 -60.5t87.5 -9.5l-33 -182q-61 -10 -164 -10q-108 0 -160.5 34.5t-52.5 116.5q0 59 29 213l205 1155h282z" />
    <glyph glyph-name="m" unicode="m" horiz-adv-x="1875" 
d="M1489 1118q155 0 234 -74.5t79 -191.5q0 -68 -24 -203l-115 -649h-283l101 567q22 139 22 197q0 75 -37.5 115.5t-109.5 40.5q-88 0 -162.5 -98t-103.5 -257l-3 -6l-98 -559h-280l98 567q24 137 24 197q0 75 -39 115.5t-114 40.5q-89 0 -161 -98t-101 -263l-99 -559h-282
l192 1090h281l-27 -156l101 121q105 63 245 63q124 0 198.5 -54t94.5 -144l113 127q98 71 256 71z" />
    <glyph glyph-name="n" unicode="n" horiz-adv-x="1271" 
d="M862 1118q162 0 247 -75.5t85 -202.5q0 -70 -27 -217l-110 -623h-283l103 571q22 126 22 179q0 170 -176 170q-113 -2 -197.5 -105.5t-122.5 -320.5l-86 -494h-282l192 1090h281l-29 -166l107 118q122 76 276 76z" />
    <glyph glyph-name="o" unicode="o" horiz-adv-x="1261" 
d="M707 1118q126 0 224 -37t158 -103.5t90.5 -153t30.5 -189.5q0 -126 -40.5 -242t-118.5 -211.5t-206 -153t-288 -57.5q-126 0 -224.5 37.5t-159 103.5t-91.5 153t-31 190q0 100 25 194.5t78 180t129 149.5t185 101.5t239 37.5zM582 170q104 0 180.5 69t112.5 171t36 219
q0 130 -58 210.5t-171 80.5q-79 0 -143.5 -40t-104 -105.5t-61 -146.5t-21.5 -167q0 -130 58 -210.5t172 -80.5z" />
    <glyph glyph-name="p" unicode="p" horiz-adv-x="1331" 
d="M868 1118q200 0 309 -116t109 -320q0 -108 -25 -210.5t-77.5 -193.5t-127.5 -159t-182 -108t-233 -40q-69 0 -139 20t-105 50l-53 115l-98 -557h-283l266 1491h281l-29 -166l103 118q109 76 284 76zM633 170q105 0 186.5 68.5t123.5 175.5t42 231q0 132 -57.5 203.5
t-163.5 71.5q-61 0 -114 -20t-100 -62t-82 -113.5t-52 -167.5l-8 -51q-7 -52 -7 -101t15.5 -91.5t41.5 -74.5t71 -50.5t104 -18.5z" />
    <glyph glyph-name="q" unicode="q" horiz-adv-x="1329" 
d="M1296 1090l-264 -1491h-282l100 565l-102 -117q-110 -76 -283 -76q-201 0 -310.5 116.5t-109.5 320.5q0 108 25 210.5t77.5 193.5t127.5 159t182 107.5t233 39.5q70 0 140 -19t106 -50l51 -117l29 158h280zM915 532l11 54q7 52 7 100t-16 91t-42.5 74.5t-71 50
t-103.5 18.5q-106 0 -188 -68.5t-124 -176t-42 -231.5q0 -132 58 -203t165 -71q61 0 114 20t99.5 61.5t81 113t51.5 167.5z" />
    <glyph glyph-name="r" unicode="r" horiz-adv-x="765" 
d="M788 1116q45 0 78 -8l-41 -227q-75 7 -137.5 -6.5t-119.5 -53.5t-99 -121t-63 -200l-89 -500h-282l190 1085h283l-35 -198l117 155q43 35 96.5 54.5t101.5 19.5z" />
    <glyph glyph-name="s" unicode="s" horiz-adv-x="995" 
d="M551 1114q206 0 308 -93t108 -251h-281q-16 158 -145 158q-71 0 -108.5 -34t-37.5 -87q0 -61 45.5 -96.5t163.5 -73.5q163 -52 237 -128.5t74 -201.5q0 -159 -129.5 -253.5t-345.5 -94.5q-220 0 -337.5 97.5t-125.5 262.5h283q9 -90 61 -132t134 -42q72 0 117.5 36.5
t45.5 99.5q0 59 -49.5 98.5t-179.5 83.5q-71 23 -119.5 47t-90 60t-61.5 86t-20 116q0 146 119 244t334 98z" />
    <glyph glyph-name="t" unicode="t" horiz-adv-x="724" 
d="M514 895l-90 -504q-14 -85 -14 -119q0 -63 46 -82.5t148 -5.5l-33 -186q-95 -21 -200 -21q-134 0 -196 45.5t-62 141.5q0 66 24 194l96 537h-155l33 186h155l47 269h281l-47 -269h215l-33 -186h-215z" />
    <glyph glyph-name="u" unicode="u" horiz-adv-x="1263" 
d="M1229 1090l-191 -1090h-282l30 168l-108 -121q-122 -76 -277 -76q-161 0 -245 76t-84 205q0 84 24 217l113 621h283l-105 -572q-20 -114 -20 -178q0 -171 174 -168q113 2 197.5 104.5t123.5 319.5l86 494h281z" />
    <glyph glyph-name="v" unicode="v" horiz-adv-x="1114" 
d="M1233 1090l-612 -1090h-326l-227 1090h315l117 -861l420 861h313z" />
    <glyph glyph-name="w" unicode="w" horiz-adv-x="1650" 
d="M1772 1090l-539 -1090h-322l-37 831l-331 -831h-322l-153 1090h313l45 -838l322 833h342l38 -837l338 842h306z" />
    <glyph glyph-name="x" unicode="x" horiz-adv-x="1087" 
d="M690 543l301 -543h-329l-168 352l-283 -352h-326l484 545l-275 545h330l145 -357l287 357h326z" />
    <glyph glyph-name="y" unicode="y" horiz-adv-x="1114" 
d="M1233 1090l-612 -1090q-138 -245 -255 -337.5t-288 -92.5q-58 0 -123 10l33 193q43 -6 86 -6q71 0 123.5 35t95.5 118l12 25l-237 1145h315l117 -863l420 863h313z" />
    <glyph glyph-name="z" unicode="z" horiz-adv-x="1048" 
d="M1038 895l-708 -707h598l-33 -188h-936l31 178l715 715h-541l31 188h876z" />
    <glyph glyph-name="braceleft" unicode="{" horiz-adv-x="763" 
d="M809 1597l-29 -159h-37q-41 0 -67 -6t-48.5 -22.5t-34 -48t-17.5 -81.5t-5 -125q3 -201 -46 -307t-183 -131q145 -27 145 -158q0 -103 -69 -280q-41 -107 -52.5 -145t-11.5 -68q0 -38 32 -54t103 -16h35l-26 -160h-68q-122 0 -184 51.5t-62 147.5q0 48 13 93t61 171
q57 148 57 233q0 95 -145 105l29 160q65 5 102 19t62.5 51.5t34.5 100t8 167.5q-1 186 29 283.5t100.5 138t205.5 40.5h68z" />
    <glyph glyph-name="bar" unicode="|" horiz-adv-x="606" 
d="M211 -410h-184l360 2048h184z" />
    <glyph glyph-name="braceright" unicode="}" horiz-adv-x="763" 
d="M475 901q0 -94 148 -104l-29 -160q-65 -5 -102 -19t-62.5 -51.5t-34.5 -100t-8 -167.5q1 -140 -14 -227t-55.5 -141t-103 -74.5t-163.5 -20.5h-67l28 160h37q52 0 81.5 9.5t52 39t30.5 85.5t6 149q-1 99 9 170t35.5 129t72 92t115.5 47q-146 27 -146 157q0 102 70 281
q40 105 51.5 143.5t11.5 69.5q0 39 -31.5 54.5t-103.5 15.5h-35l27 159h67q122 0 184 -51t62 -147q0 -48 -13 -94.5t-60 -169.5q-60 -149 -60 -234z" />
    <glyph glyph-name="asciitilde" unicode="~" 
d="M971 786h159q-58 -329 -307 -329q-58 0 -104 18t-129 66q-70 40 -106 55.5t-70 15.5q-53 0 -81 -38t-42 -117h-160q58 329 307 329q60 0 106 -18.5t128 -65.5q64 -39 102 -55t74 -16q52 0 80.5 36.5t42.5 118.5z" />
    <glyph glyph-name="exclamdown" unicode="&#xa1;" horiz-adv-x="555" 
d="M311 801q-66 0 -103.5 35.5t-37.5 95.5q0 76 51 131t135 55q66 0 104 -35.5t38 -97.5q0 -74 -51.5 -129t-135.5 -55zM174 688h227l-182 -1012h-276z" />
    <glyph glyph-name="cent" unicode="&#xa2;" 
d="M780 901l-127 -719q126 39 185 195h282q-70 -185 -194 -285t-310 -117l-28 -159h-166l29 161q-173 23 -274 135t-101 310q0 131 39.5 250t112.5 211.5t182 152.5t241 74l29 160h166l-29 -162q177 -23 267 -133.5t90 -282.5h-279q-3 167 -115 209zM375 422
q0 -182 112 -236l127 715q-110 -40 -174.5 -170.5t-64.5 -308.5z" />
    <glyph glyph-name="sterling" unicode="&#xa3;" horiz-adv-x="1245" 
d="M575 559q0 -108 -55.5 -196.5t-173.5 -139.5h727l-39 -223h-1052l34 197q62 12 110.5 38.5t78.5 59t49.5 72.5t27 78t7.5 77t-13 96h-165l24 150h98q-28 107 -28 207q0 94 35 178t100 148.5t167 102.5t226 38q414 0 441 -418h-287q-10 207 -176 207q-94 0 -151.5 -69.5
t-57.5 -172.5q0 -62 9.5 -108.5t31.5 -112.5h418l-27 -150h-363q4 -40 4 -59z" />
    <glyph glyph-name="currency" unicode="&#xa4;" 
d="M1102 930l-137 -119q36 -71 36 -164q0 -135 -92 -250l88 -108l-110 -94l-90 106q-92 -53 -209 -53q-116 0 -201 69l-131 -108l-84 98l135 117q-37 70 -37 162q0 131 88 248l-86 108l115 98l90 -104q92 52 203 49q116 -3 201 -72l139 115zM440 596q0 -86 45.5 -137
t122.5 -51q103 0 162 69.5t59 159.5q0 86 -46.5 137t-123.5 51q-102 0 -160.5 -69.5t-58.5 -159.5z" />
    <glyph glyph-name="yen" unicode="&#xa5;" 
d="M877 758h227l-29 -160h-315l-4 -6l-21 -117h318l-27 -160h-319l-56 -315h-282l55 315h-318l29 160h318l20 123h-317l28 160h234l-246 655h305l178 -643l404 643h297z" />
    <glyph glyph-name="brokenbar" unicode="&#xa6;" horiz-adv-x="587" 
d="M391 717h-166l123 696h166zM207 -328h-166l123 697h166z" />
    <glyph glyph-name="section" unicode="&#xa7;" horiz-adv-x="1261" 
d="M1186 506q0 -102 -66 -191.5t-188 -138.5q47 -74 47 -164q0 -168 -137.5 -268t-360.5 -100q-186 0 -305.5 92t-136.5 270h280q7 -84 58 -130t123 -46q84 0 134 38t50 118q0 74 -59.5 124t-216.5 107q-166 58 -250 140t-84 214q0 107 63 200.5t185 146.5q-37 67 -37 159
q0 51 18 102.5t56 98.5t91 83.5t128.5 58.5t162.5 22q187 0 290.5 -94.5t121.5 -260.5h-283q-6 82 -43 125t-100 43q-68 0 -107.5 -48t-39.5 -120q0 -71 52.5 -115t178.5 -81q193 -58 284 -150t91 -235zM575 410q120 -42 191 -86q58 18 91.5 59.5t33.5 103.5
q0 66 -52.5 110.5t-176.5 88.5q-111 39 -175 74q-59 -19 -87.5 -63.5t-28.5 -96.5q0 -65 50.5 -110t153.5 -80z" />
    <glyph glyph-name="dieresis" unicode="&#xa8;" horiz-adv-x="614" 
d="M133 1427q53 0 83 -27.5t30 -76.5q0 -63 -45 -104t-99 -41q-53 0 -82.5 28t-29.5 76q0 63 44.5 104t98.5 41zM494 1427q51 0 80.5 -27.5t29.5 -76.5q0 -63 -43.5 -104t-99.5 -41q-52 0 -81.5 28t-29.5 76q0 63 44 104t100 41z" />
    <glyph glyph-name="copyright" unicode="&#xa9;" horiz-adv-x="1740" 
d="M870 1540q174 0 326.5 -61.5t260.5 -168.5t170.5 -258.5t62.5 -324.5t-62.5 -324.5t-170.5 -258.5t-260.5 -168.5t-326.5 -61.5t-326 61.5t-260.5 168.5t-170.5 258.5t-62 324.5t62 324.5t170.5 258.5t260.5 168.5t326 61.5zM870 1378q-182 0 -328.5 -84t-229.5 -233
t-83 -334t83 -333.5t229.5 -232t328.5 -83.5t328.5 83.5t229.5 232t83 333.5t-83 334t-229.5 233t-328.5 84zM887 1196q180 0 289 -97t131 -263h-250q-23 182 -178 182q-94 0 -141.5 -76t-47.5 -213q0 -143 51.5 -219t143.5 -76q69 0 115 47.5t55 134.5h250
q-30 -168 -139.5 -264t-295.5 -96q-198 0 -320 127t-122 342t125.5 343t333.5 128z" />
    <glyph glyph-name="guillemotleft" unicode="&#xab;" horiz-adv-x="1259" 
d="M446 492l209 -324h-204l-222 340l340 340h236zM864 492l209 -324h-205l-221 340l340 340h236z" />
    <glyph glyph-name="logicalnot" unicode="&#xac;" 
d="M979 387h-166l43 256h-637l29 160h803z" />
    <glyph glyph-name="registered" unicode="&#xae;" horiz-adv-x="1015" 
d="M561 1565q179 0 285 -109.5t106 -271.5q0 -129 -60 -237.5t-174.5 -175t-260.5 -66.5q-179 0 -285 109t-106 271q0 129 60 237.5t174.5 175.5t260.5 67zM475 811q168 0 266.5 105.5t98.5 263.5q0 125 -80 202.5t-217 77.5q-168 0 -266.5 -106t-98.5 -264q0 -125 80 -202
t217 -77zM582 1356q60 -6 92.5 -36t32.5 -77q0 -42 -27 -73t-78 -44q51 -14 51 -86q-3 -58 19 -110h-127q-10 39 -10 96q3 45 -48 45h-36l-25 -141h-115l76 428h141q38 0 54 -2zM535 1163q53 10 53 60q0 38 -37 45q-14 2 -37 2h-29l-18 -109h31q25 0 37 2z" />
    <glyph glyph-name="macron" unicode="&#xaf;" horiz-adv-x="614" 
d="M573 1212h-559l27 158h559z" />
    <glyph glyph-name="degree" unicode="&#xb0;" horiz-adv-x="643" 
d="M479 1534q112 0 178 -64.5t66 -166.5q0 -128 -84.5 -210.5t-214.5 -82.5q-113 0 -179.5 65t-66.5 166q0 128 84.5 210.5t216.5 82.5zM465 1382q-54 0 -88.5 -34t-34.5 -91q0 -46 26.5 -71t67.5 -25q54 0 88.5 34.5t34.5 92.5q0 46 -26 70t-68 24z" />
    <glyph glyph-name="plusminus" unicode="&#xb1;" 
d="M1081 731l-28 -160h-336l-58 -327h-165l57 327h-336l29 160h336l57 324h166l-58 -324h336zM141 152h838l-27 -152h-837z" />
    <glyph glyph-name="acute" unicode="&#xb4;" horiz-adv-x="614" 
d="M352 1176h-159l202 241h254z" />
    <glyph glyph-name="paragraph" unicode="&#xb6;" horiz-adv-x="1212" 
d="M1237 1413l-291 -1638h-166l262 1478h-211l-264 -1478h-166l156 880h-20q-80 0 -115 2q-83 5 -144 54t-89.5 119.5t-28.5 152.5q0 54 14 110t45 111.5t76 99.5t112.5 73t147.5 34q37 2 117 2h565z" />
    <glyph glyph-name="periodcentered" unicode="&#xb7;" horiz-adv-x="501" 
d="M299 801q65 0 106 -37t41 -100q0 -95 -59.5 -155t-150.5 -60q-64 0 -106 37.5t-42 101.5q0 93 60 153t151 60z" />
    <glyph glyph-name="cedilla" unicode="&#xb8;" horiz-adv-x="614" 
d="M418 18l-72 -102q76 -12 117 -50t41 -97q0 -98 -85.5 -148.5t-215.5 -50.5q-101 0 -148 16l23 115q43 -14 110 -14t103.5 20t36.5 55q0 41 -50.5 58t-136.5 8l129 190h148z" />
    <glyph glyph-name="guillemotright" unicode="&#xbb;" horiz-adv-x="1273" 
d="M600 508l-340 -340h-235l358 358l-209 322h205zM1018 508l-340 -340h-236l359 358l-209 322h205z" />
    <glyph glyph-name="questiondown" unicode="&#xbf;" horiz-adv-x="1083" 
d="M582 801q-66 0 -105 35.5t-39 95.5q0 76 51.5 131t137.5 55q66 0 103.5 -35.5t37.5 -97.5q0 -74 -51 -129t-135 -55zM356 -352q-195 0 -303 85.5t-108 233.5q0 134 63.5 232t229.5 229q93 74 135 128.5t65 131.5h244q-21 -105 -64 -173.5t-143 -160.5
q-135 -126 -182 -198.5t-47 -149.5q0 -71 43.5 -109t120.5 -38q92 0 154.5 60t86.5 181h285q-38 -211 -194.5 -331.5t-385.5 -120.5z" />
    <glyph glyph-name="Agrave" unicode="&#xc0;" horiz-adv-x="1392" 
d="M834 1505l-207 230h254l112 -230h-159zM936 426h-481l-213 -426h-305l749 1413h375l244 -1413h-306zM903 649l-78 514l-258 -514h336z" />
    <glyph glyph-name="Aacute" unicode="&#xc1;" horiz-adv-x="1392" 
d="M965 1505h-160l190 230h254zM936 426h-481l-213 -426h-305l749 1413h375l244 -1413h-306zM903 649l-78 514l-258 -514h336z" />
    <glyph glyph-name="Acircumflex" unicode="&#xc2;" horiz-adv-x="1392" 
d="M831 1505h-178l172 230h222l92 -230h-178l-41 131zM936 426h-481l-213 -426h-305l749 1413h375l244 -1413h-306zM903 649l-78 514l-258 -514h336z" />
    <glyph glyph-name="Atilde" unicode="&#xc3;" horiz-adv-x="1392" 
d="M803 1581q-34 0 -43 -53h-144q22 117 62.5 166t114.5 49q65 0 149 -35q65 -25 92 -25q33 0 41 54h144q-22 -118 -62.5 -167.5t-114.5 -49.5q-65 0 -149 36q-70 25 -90 25zM936 426h-481l-213 -426h-305l749 1413h375l244 -1413h-306zM903 649l-78 514l-258 -514h336z" />
    <glyph glyph-name="Adieresis" unicode="&#xc4;" horiz-adv-x="1392" 
d="M723 1493q-53 0 -83 28t-30 76q0 63 44 103.5t100 40.5q51 0 80.5 -28t29.5 -77q0 -62 -43.5 -102.5t-97.5 -40.5zM1077 1493q-53 0 -82.5 28t-29.5 76q0 63 43.5 103.5t99.5 40.5q51 0 81 -28t30 -77q0 -62 -44 -102.5t-98 -40.5zM936 426h-481l-213 -426h-305l749 1413
h375l244 -1413h-306zM903 649l-78 514l-258 -514h336z" />
    <glyph glyph-name="Aring" unicode="&#xc5;" horiz-adv-x="1392" 
d="M895 1473q-87 0 -140 46.5t-53 118.5q0 98 70 157.5t178 59.5q88 0 141.5 -46.5t53.5 -118.5q0 -97 -70.5 -157t-179.5 -60zM938 1747q-38 0 -66 -28t-28 -72q0 -30 17.5 -48t47.5 -18q38 0 66.5 28t28.5 72q0 30 -18 48t-48 18zM936 426h-481l-213 -426h-305l749 1413
h375l244 -1413h-306zM903 649l-78 514l-258 -514h336z" />
    <glyph glyph-name="AE" unicode="&#xc6;" horiz-adv-x="1978" 
d="M1239 1192l-31 -373h682l-39 -223h-663l-31 -373h698l-38 -223h-961l41 461h-432l-324 -461h-315l1030 1413h1190l-41 -221h-766zM915 682l43 485l-340 -485h297z" />
    <glyph glyph-name="Ccedilla" unicode="&#xc7;" horiz-adv-x="1525" 
d="M934 1442q278 0 419.5 -135.5t125.5 -352.5l-2 -20h-283v20q-1 142 -74.5 209.5t-216.5 67.5q-207 0 -342 -180.5t-135 -470.5q0 -201 81.5 -299.5t221.5 -98.5q262 0 373 287l8 20h281l-7 -20q-65 -236 -244 -367t-448 -131q-266 0 -417.5 154t-151.5 430
q0 194 64 360.5t173 281.5t258 180t316 65zM326 18l-72 -102q76 -12 116 -50t40 -97q0 -98 -85 -148.5t-216 -50.5q-102 0 -146 16l21 115q43 -14 112 -14q66 0 101.5 20t35.5 55q0 41 -50 58t-136 8l129 190h150z" />
    <glyph glyph-name="Egrave" unicode="&#xc8;" horiz-adv-x="1253" 
d="M786 1505l-206 230h254l112 -230h-160zM565 1192l-65 -373h665l-39 -223h-667l-66 -373h737l-40 -223h-1018l250 1413h997l-39 -221h-715z" />
    <glyph glyph-name="Eacute" unicode="&#xc9;" horiz-adv-x="1253" 
d="M918 1505h-160l190 230h254zM565 1192l-65 -373h665l-39 -223h-667l-66 -373h737l-40 -223h-1018l250 1413h997l-39 -221h-715z" />
    <glyph glyph-name="Ecircumflex" unicode="&#xca;" horiz-adv-x="1253" 
d="M784 1505h-178l172 230h221l93 -230h-179l-41 131zM565 1192l-65 -373h665l-39 -223h-667l-66 -373h737l-40 -223h-1018l250 1413h997l-39 -221h-715z" />
    <glyph glyph-name="Edieresis" unicode="&#xcb;" horiz-adv-x="1253" 
d="M674 1493q-53 0 -83 28t-30 76q0 63 44 103.5t100 40.5q51 0 80.5 -28t29.5 -77q0 -62 -43.5 -102.5t-97.5 -40.5zM1028 1493q-53 0 -83 28t-30 76q0 63 44 103.5t100 40.5q51 0 80.5 -28t29.5 -77q0 -62 -43.5 -102.5t-97.5 -40.5zM565 1192l-65 -373h665l-39 -223h-667
l-66 -373h737l-40 -223h-1018l250 1413h997l-39 -221h-715z" />
    <glyph glyph-name="Igrave" unicode="&#xcc;" horiz-adv-x="587" 
d="M575 1505h-159l-207 230h254zM354 0h-282l250 1413h282z" />
    <glyph glyph-name="Iacute" unicode="&#xcd;" horiz-adv-x="587" 
d="M547 1505h-160l191 230h253zM354 0h-282l250 1413h282z" />
    <glyph glyph-name="Icircumflex" unicode="&#xce;" horiz-adv-x="587" 
d="M416 1505h-178l172 230h221l92 -230h-178l-41 131zM322 1413h282l-250 -1413h-282z" />
    <glyph glyph-name="Idieresis" unicode="&#xcf;" horiz-adv-x="587" 
d="M336 1741q51 0 80.5 -28t29.5 -77q0 -62 -43.5 -102.5t-97.5 -40.5q-53 0 -82.5 28t-29.5 76q0 63 43.5 103.5t99.5 40.5zM690 1741q51 0 81 -28t30 -77q0 -62 -44 -102.5t-98 -40.5q-53 0 -82.5 28t-29.5 76q0 63 43.5 103.5t99.5 40.5zM354 0h-282l250 1413h282z" />
    <glyph glyph-name="Eth" unicode="&#xd0;" horiz-adv-x="1490" 
d="M956 1405q108 -11 197.5 -52.5t158.5 -113t107.5 -181.5t38.5 -249q0 -149 -46.5 -284.5t-136 -245.5t-233 -183t-323.5 -90q-74 -6 -182 -6h-465l108 610h-155l28 160h154l115 643h446q118 0 188 -8zM705 227q92 11 167 47.5t127 90.5t87.5 124t52 148t16.5 164
q0 180 -77.5 274.5t-211.5 110.5q-67 6 -141 6h-160l-76 -422h228l-29 -160h-227l-68 -387h166q99 0 146 4z" />
    <glyph glyph-name="Ntilde" unicode="&#xd1;" horiz-adv-x="1546" 
d="M870 1581q-34 0 -43 -53h-143q22 117 62 166t114 49q66 0 150 -35q65 -25 92 -25q33 0 41 54h143q-22 -118 -62 -167.5t-114 -49.5q-65 0 -149 36q-70 25 -91 25zM1563 1413l-250 -1413h-387l-385 1073l-187 -1073h-282l250 1413h374l394 -1100l190 1100h283z" />
    <glyph glyph-name="Ograve" unicode="&#xd2;" horiz-adv-x="1599" 
d="M926 1505l-207 230h254l112 -230h-159zM938 1442q149 0 269 -47.5t198 -131t120 -194.5t42 -240q0 -181 -57 -338t-160 -272.5t-256.5 -181.5t-337.5 -66q-149 0 -269 47.5t-198 131t-120 194.5t-42 240q0 181 57 338t160 272.5t256.5 181.5t337.5 66zM778 182
q96 0 178 39t138 103.5t95.5 148t58 172.5t18.5 178q0 185 -93 296.5t-258 111.5q-119 0 -215 -59t-153.5 -154t-88 -205.5t-30.5 -222.5q0 -185 92 -296.5t258 -111.5z" />
    <glyph glyph-name="Oacute" unicode="&#xd3;" horiz-adv-x="1599" 
d="M1057 1505h-160l190 230h254zM938 1442q149 0 269 -47.5t198 -131t120 -194.5t42 -240q0 -181 -57 -338t-160 -272.5t-256.5 -181.5t-337.5 -66q-149 0 -269 47.5t-198 131t-120 194.5t-42 240q0 181 57 338t160 272.5t256.5 181.5t337.5 66zM778 182q96 0 178 39
t138 103.5t95.5 148t58 172.5t18.5 178q0 185 -93 296.5t-258 111.5q-119 0 -215 -59t-153.5 -154t-88 -205.5t-30.5 -222.5q0 -185 92 -296.5t258 -111.5z" />
    <glyph glyph-name="Ocircumflex" unicode="&#xd4;" horiz-adv-x="1599" 
d="M924 1505h-179l173 230h221l92 -230h-178l-41 131zM938 1442q149 0 269 -47.5t198 -131t120 -194.5t42 -240q0 -181 -57 -338t-160 -272.5t-256.5 -181.5t-337.5 -66q-149 0 -269 47.5t-198 131t-120 194.5t-42 240q0 181 57 338t160 272.5t256.5 181.5t337.5 66z
M778 182q96 0 178 39t138 103.5t95.5 148t58 172.5t18.5 178q0 185 -93 296.5t-258 111.5q-119 0 -215 -59t-153.5 -154t-88 -205.5t-30.5 -222.5q0 -185 92 -296.5t258 -111.5z" />
    <glyph glyph-name="Otilde" unicode="&#xd5;" horiz-adv-x="1599" 
d="M895 1581q-34 0 -43 -53h-143q22 117 62 166t114 49q65 0 149 -35q65 -25 92 -25q33 0 41 54h144q-22 -118 -62 -167.5t-114 -49.5q-66 0 -150 36q-70 25 -90 25zM938 1442q149 0 269 -47.5t198 -131t120 -194.5t42 -240q0 -181 -57 -338t-160 -272.5t-256.5 -181.5
t-337.5 -66q-149 0 -269 47.5t-198 131t-120 194.5t-42 240q0 181 57 338t160 272.5t256.5 181.5t337.5 66zM778 182q96 0 178 39t138 103.5t95.5 148t58 172.5t18.5 178q0 185 -93 296.5t-258 111.5q-119 0 -215 -59t-153.5 -154t-88 -205.5t-30.5 -222.5q0 -185 92 -296.5
t258 -111.5z" />
    <glyph glyph-name="Odieresis" unicode="&#xd6;" horiz-adv-x="1599" 
d="M815 1493q-53 0 -83 28t-30 76q0 63 44 103.5t100 40.5q51 0 80.5 -28t29.5 -77q0 -62 -43.5 -102.5t-97.5 -40.5zM1169 1493q-53 0 -82.5 28t-29.5 76q0 63 43.5 103.5t99.5 40.5q51 0 81 -28t30 -77q0 -62 -44 -102.5t-98 -40.5zM938 1442q149 0 269 -47.5t198 -131
t120 -194.5t42 -240q0 -181 -57 -338t-160 -272.5t-256.5 -181.5t-337.5 -66q-149 0 -269 47.5t-198 131t-120 194.5t-42 240q0 181 57 338t160 272.5t256.5 181.5t337.5 66zM778 182q96 0 178 39t138 103.5t95.5 148t58 172.5t18.5 178q0 185 -93 296.5t-258 111.5
q-119 0 -215 -59t-153.5 -154t-88 -205.5t-30.5 -222.5q0 -185 92 -296.5t258 -111.5z" />
    <glyph glyph-name="multiply" unicode="&#xd7;" 
d="M768 649l229 -278l-139 -117l-229 278l-340 -288l-113 137l340 289l-231 280l139 117l231 -281l338 289l113 -137z" />
    <glyph glyph-name="Oslash" unicode="&#xd8;" horiz-adv-x="1593" 
d="M1653 1300l-166 -141q82 -145 82 -330q0 -144 -35.5 -274.5t-105.5 -236.5t-167 -184t-225.5 -120.5t-275.5 -42.5q-294 0 -465 176l-178 -151l-97 117l185 157q-74 136 -74 314q0 181 57 338t160 272.5t256.5 181.5t337.5 66q284 0 451 -164l163 139zM432 590
q0 -57 10 -119l746 633q-94 127 -270 127q-96 0 -177.5 -39t-137.5 -103.5t-95.5 -148t-57.5 -172.5t-18 -178zM1270 823q0 67 -17 140l-751 -639q95 -142 280 -142q96 0 178 39t138 103.5t95.5 148t58 172.5t18.5 178z" />
    <glyph glyph-name="Ugrave" unicode="&#xd9;" horiz-adv-x="1439" 
d="M1016 1505h-160l-207 230h254zM1485 1413l-144 -815q-18 -105 -36 -176q-52 -218 -203.5 -334.5t-433.5 -116.5q-256 0 -387 108.5t-131 297.5q0 79 26 239l141 797h283l-151 -860q-17 -96 -17 -145q0 -107 69.5 -166.5t190.5 -59.5q138 0 219 60.5t117 201.5
q12 46 23 103l151 866h283z" />
    <glyph glyph-name="Uacute" unicode="&#xda;" horiz-adv-x="1439" 
d="M987 1505h-160l191 230h254zM1485 1413l-144 -815q-18 -105 -36 -176q-52 -218 -203.5 -334.5t-433.5 -116.5q-256 0 -387 108.5t-131 297.5q0 79 26 239l141 797h283l-151 -860q-17 -96 -17 -145q0 -107 69.5 -166.5t190.5 -59.5q138 0 219 60.5t117 201.5q12 46 23 103
l151 866h283z" />
    <glyph glyph-name="Ucircumflex" unicode="&#xdb;" horiz-adv-x="1439" 
d="M854 1505h-178l172 230h221l92 -230h-178l-41 131zM1485 1413l-144 -815q-18 -105 -36 -176q-52 -218 -203.5 -334.5t-433.5 -116.5q-256 0 -387 108.5t-131 297.5q0 79 26 239l141 797h283l-151 -860q-17 -96 -17 -145q0 -107 69.5 -166.5t190.5 -59.5q138 0 219 60.5
t117 201.5q12 46 23 103l151 866h283z" />
    <glyph glyph-name="Udieresis" unicode="&#xdc;" horiz-adv-x="1439" 
d="M774 1741q51 0 81 -28t30 -77q0 -62 -44 -102.5t-98 -40.5q-53 0 -82.5 28t-29.5 76q0 63 43.5 103.5t99.5 40.5zM1128 1741q51 0 81 -28t30 -77q0 -62 -43.5 -102.5t-97.5 -40.5q-53 0 -83 28t-30 76q0 63 43.5 103.5t99.5 40.5zM1485 1413l-144 -815q-18 -105 -36 -176
q-52 -218 -203.5 -334.5t-433.5 -116.5q-256 0 -387 108.5t-131 297.5q0 79 26 239l141 797h283l-151 -860q-17 -96 -17 -145q0 -107 69.5 -166.5t190.5 -59.5q138 0 219 60.5t117 201.5q12 46 23 103l151 866h283z" />
    <glyph glyph-name="Yacute" unicode="&#xdd;" horiz-adv-x="1304" 
d="M924 1505h-160l190 230h254zM825 541l-96 -541h-283l99 551l-346 862h299l231 -625l430 625h318z" />
    <glyph glyph-name="Thorn" unicode="&#xde;" horiz-adv-x="1290" 
d="M997 1223q137 -16 219 -97t82 -223q0 -46 -8 -90q-32 -182 -152 -287.5t-286 -126.5q-72 -8 -207 -8h-221l-70 -391h-282l250 1413h282l-33 -180h222q117 0 204 -10zM993 811q4 16 4 45q0 128 -141 148q-46 6 -123 6h-201l-69 -396h201q69 0 127 7q171 24 202 190z" />
    <glyph glyph-name="germandbls" unicode="&#xdf;" horiz-adv-x="1267" 
d="M823 1544q213 0 328 -93t115 -241q0 -130 -95 -252q-87 -39 -122 -78t-35 -92q0 -78 80 -161q64 -66 92 -132.5t28 -144.5q0 -152 -120.5 -255t-343.5 -103q-135 0 -242 22l39 213q97 -26 180 -26q95 0 141.5 45t46.5 112q0 85 -79 172q-64 74 -90.5 127.5t-26.5 126.5
q0 83 48.5 147.5t154.5 121.5q43 65 43 135q0 68 -45 106.5t-136 38.5q-129 0 -198 -96.5t-103 -292.5l-166 -944h-282l164 928q21 121 49 210t76 169t113.5 129.5t162.5 78.5t223 29z" />
    <glyph glyph-name="agrave" unicode="&#xe0;" horiz-adv-x="1130" 
d="M637 1176l-211 241h254l117 -241h-160zM666 1118q205 0 301 -77.5t96 -211.5q0 -52 -27 -204l-61 -349q-22 -126 -29 -276h-276l6 160l-72 -109q-105 -80 -276 -80q-131 0 -217 74t-86 213q0 208 199.5 317t539.5 89l2 16q12 74 12 117q0 55 -33 89t-104 34
q-182 0 -227 -185l-275 -2q35 181 179 283t348 102zM465 170q82 0 157 64.5t93 166.5l16 93q-116 13 -207.5 -5t-146.5 -68t-55 -126q0 -61 38.5 -93t104.5 -32z" />
    <glyph glyph-name="aacute" unicode="&#xe1;" horiz-adv-x="1130" 
d="M756 1176h-160l203 241h254zM666 1118q205 0 301 -77.5t96 -211.5q0 -52 -27 -204l-61 -349q-22 -126 -29 -276h-276l6 160l-72 -109q-105 -80 -276 -80q-131 0 -217 74t-86 213q0 208 199.5 317t539.5 89l2 16q12 74 12 117q0 55 -33 89t-104 34q-182 0 -227 -185
l-275 -2q35 181 179 283t348 102zM465 170q82 0 157 64.5t93 166.5l16 93q-116 13 -207.5 -5t-146.5 -68t-55 -126q0 -61 38.5 -93t104.5 -32z" />
    <glyph glyph-name="acircumflex" unicode="&#xe2;" horiz-adv-x="1130" 
d="M627 1176h-174l174 241h221l90 -241h-176l-43 141zM666 1118q205 0 301 -77.5t96 -211.5q0 -52 -27 -204l-61 -349q-22 -126 -29 -276h-276l6 160l-72 -109q-105 -80 -276 -80q-131 0 -217 74t-86 213q0 208 199.5 317t539.5 89l2 16q12 74 12 117q0 55 -33 89t-104 34
q-182 0 -227 -185l-275 -2q35 181 179 283t348 102zM465 170q82 0 157 64.5t93 166.5l16 93q-116 13 -207.5 -5t-146.5 -68t-55 -126q0 -61 38.5 -93t104.5 -32z" />
    <glyph glyph-name="atilde" unicode="&#xe3;" horiz-adv-x="1130" 
d="M596 1251q-34 0 -43 -53h-143q22 117 62 166t114 49q65 0 149 -35q63 -24 92 -24q33 0 41 53h144q-22 -118 -62 -167.5t-114 -49.5q-64 0 -150 37q-68 24 -90 24zM666 1118q205 0 301 -77.5t96 -211.5q0 -52 -27 -204l-61 -349q-22 -126 -29 -276h-276l6 160l-72 -109
q-105 -80 -276 -80q-131 0 -217 74t-86 213q0 208 199.5 317t539.5 89l2 16q12 74 12 117q0 55 -33 89t-104 34q-182 0 -227 -185l-275 -2q35 181 179 283t348 102zM465 170q82 0 157 64.5t93 166.5l16 93q-116 13 -207.5 -5t-146.5 -68t-55 -126q0 -61 38.5 -93t104.5 -32z
" />
    <glyph glyph-name="adieresis" unicode="&#xe4;" horiz-adv-x="1130" 
d="M508 1178q-53 0 -83 28t-30 76q0 63 45 104t99 41q53 0 82.5 -27.5t29.5 -76.5q0 -63 -44.5 -104t-98.5 -41zM866 1178q-52 0 -81 28t-29 76q0 63 43.5 104t99.5 41q51 0 81 -27.5t30 -76.5q0 -63 -44 -104t-100 -41zM666 1118q205 0 301 -77.5t96 -211.5q0 -52 -27 -204
l-61 -349q-22 -126 -29 -276h-276l6 160l-72 -109q-105 -80 -276 -80q-131 0 -217 74t-86 213q0 208 199.5 317t539.5 89l2 16q12 74 12 117q0 55 -33 89t-104 34q-182 0 -227 -185l-275 -2q35 181 179 283t348 102zM465 170q82 0 157 64.5t93 166.5l16 93
q-116 13 -207.5 -5t-146.5 -68t-55 -126q0 -61 38.5 -93t104.5 -32z" />
    <glyph glyph-name="aring" unicode="&#xe5;" horiz-adv-x="1130" 
d="M688 1159q-88 0 -139 44.5t-51 121.5q0 99 71 164t183 65q86 0 137 -44.5t51 -120.5q0 -99 -71 -164.5t-181 -65.5zM733 1448q-43 0 -68.5 -35t-25.5 -80q0 -31 17.5 -48t48.5 -17q43 0 68.5 34.5t25.5 77.5q0 32 -17.5 50t-48.5 18zM666 1118q205 0 301 -77.5t96 -211.5
q0 -52 -27 -204l-61 -349q-22 -126 -29 -276h-276l6 160l-72 -109q-105 -80 -276 -80q-131 0 -217 74t-86 213q0 208 199.5 317t539.5 89l2 16q12 74 12 117q0 55 -33 89t-104 34q-182 0 -227 -185l-275 -2q35 181 179 283t348 102zM465 170q82 0 157 64.5t93 166.5l16 93
q-116 13 -207.5 -5t-146.5 -68t-55 -126q0 -61 38.5 -93t104.5 -32z" />
    <glyph glyph-name="ae" unicode="&#xe6;" horiz-adv-x="1916" 
d="M1839 471h-772q-4 -46 -4 -61q0 -240 201 -240q92 0 161.5 48.5t98.5 135.5h282q-71 -185 -227.5 -284t-353.5 -99q-145 0 -246.5 57t-147.5 175l-108 -133q-140 -99 -338 -99q-164 0 -262 76t-98 205q0 67 22 125.5t73 110t128 88t193 58t261 21.5h93q12 71 12 109
q0 151 -158 151q-88 0 -147.5 -48t-79.5 -138h-275q34 180 181 282.5t352 102.5q286 0 346 -184q163 184 432 184q202 0 309 -118t107 -306q0 -104 -35 -219zM1401 915q-101 0 -177 -65.5t-116 -194.5h477q15 260 -184 260zM758 424l8 47q-33 2 -94 2q-176 0 -262 -44
t-86 -142q0 -57 40.5 -87t114.5 -30q102 0 180.5 69.5t98.5 184.5z" />
    <glyph glyph-name="ccedilla" unicode="&#xe7;" horiz-adv-x="1171" 
d="M539 170q95 0 164.5 52.5t105.5 154.5h283q-146 -388 -541 -406l-39 -55q76 -12 117 -50t41 -97q0 -98 -85.5 -148.5t-215.5 -50.5q-101 0 -148 16l23 115q43 -14 110 -14t103.5 20t36.5 55q0 41 -50.5 58t-136.5 8l103 152q-168 26 -265.5 137t-97.5 305
q0 141 45.5 266.5t128 220t206.5 150t271 55.5q222 0 333.5 -114t111.5 -308h-279q-6 223 -196 223q-142 0 -231 -141t-89 -352q0 -123 53 -187.5t138 -64.5z" />
    <glyph glyph-name="egrave" unicode="&#xe8;" horiz-adv-x="1187" 
d="M666 1176l-211 241h254l116 -241h-159zM338 471l-2 -55q0 -126 54 -186t147 -60q92 0 161.5 48.5t98.5 135.5h282q-65 -187 -215.5 -285t-353.5 -98q-100 0 -182.5 26.5t-146 79.5t-99 139t-35.5 198q0 113 27 217.5t81.5 192.5t130 154t178 103t220.5 37
q148 0 253.5 -57.5t155.5 -153.5t50 -219q0 -102 -35 -217h-770zM655 920q-105 0 -176.5 -71.5t-109.5 -193.5h485q2 18 2 47q0 102 -52.5 160t-148.5 58z" />
    <glyph glyph-name="eacute" unicode="&#xe9;" horiz-adv-x="1187" 
d="M784 1176h-159l202 241h254zM338 471l-2 -55q0 -126 54 -186t147 -60q92 0 161.5 48.5t98.5 135.5h282q-65 -187 -215.5 -285t-353.5 -98q-100 0 -182.5 26.5t-146 79.5t-99 139t-35.5 198q0 113 27 217.5t81.5 192.5t130 154t178 103t220.5 37q148 0 253.5 -57.5
t155.5 -153.5t50 -219q0 -102 -35 -217h-770zM655 920q-105 0 -176.5 -71.5t-109.5 -193.5h485q2 18 2 47q0 102 -52.5 160t-148.5 58z" />
    <glyph glyph-name="ecircumflex" unicode="&#xea;" horiz-adv-x="1187" 
d="M655 1176h-174l174 241h222l90 -241h-176l-43 141zM338 471l-2 -55q0 -126 54 -186t147 -60q92 0 161.5 48.5t98.5 135.5h282q-65 -187 -215.5 -285t-353.5 -98q-100 0 -182.5 26.5t-146 79.5t-99 139t-35.5 198q0 113 27 217.5t81.5 192.5t130 154t178 103t220.5 37
q148 0 253.5 -57.5t155.5 -153.5t50 -219q0 -102 -35 -217h-770zM655 920q-105 0 -176.5 -71.5t-109.5 -193.5h485q2 18 2 47q0 102 -52.5 160t-148.5 58z" />
    <glyph glyph-name="edieresis" unicode="&#xeb;" horiz-adv-x="1187" 
d="M539 1178q-53 0 -83 28t-30 76q0 63 44.5 104t98.5 41q53 0 83 -27.5t30 -76.5q0 -63 -44.5 -104t-98.5 -41zM897 1178q-52 0 -81.5 28t-29.5 76q0 63 44 104t100 41q51 0 80.5 -27.5t29.5 -76.5q0 -63 -43.5 -104t-99.5 -41zM338 471l-2 -55q0 -126 54 -186t147 -60
q92 0 161.5 48.5t98.5 135.5h282q-65 -187 -215.5 -285t-353.5 -98q-100 0 -182.5 26.5t-146 79.5t-99 139t-35.5 198q0 113 27 217.5t81.5 192.5t130 154t178 103t220.5 37q148 0 253.5 -57.5t155.5 -153.5t50 -219q0 -102 -35 -217h-770zM655 920q-105 0 -176.5 -71.5
t-109.5 -193.5h485q2 18 2 47q0 102 -52.5 160t-148.5 58z" />
    <glyph glyph-name="igrave" unicode="&#xec;" horiz-adv-x="542" 
d="M494 1176h-160l-211 241h254zM317 0h-282l194 1090h281z" />
    <glyph glyph-name="iacute" unicode="&#xed;" horiz-adv-x="542" 
d="M453 1176h-160l203 241h254zM317 0h-282l194 1090h281z" />
    <glyph glyph-name="icircumflex" unicode="&#xee;" horiz-adv-x="542" 
d="M326 1176h-174l174 241h221l90 -241h-176l-43 141zM229 1090h281l-193 -1090h-282z" />
    <glyph glyph-name="idieresis" unicode="&#xef;" horiz-adv-x="542" 
d="M238 1427q53 0 82.5 -27.5t29.5 -76.5q0 -63 -44.5 -104t-98.5 -41q-53 0 -83 28t-30 76q0 63 45 104t99 41zM598 1427q51 0 81 -27.5t30 -76.5q0 -63 -44 -104t-100 -41q-52 0 -81 28t-29 76q0 63 43.5 104t99.5 41zM317 0h-282l194 1090h281z" />
    <glyph glyph-name="eth" unicode="&#xf0;" horiz-adv-x="1304" 
d="M1262 1319l-146 -39q90 -193 90 -510q0 -118 -22 -229t-72.5 -216t-125.5 -182.5t-189.5 -124.5t-255.5 -47q-235 0 -364.5 127t-129.5 328q0 98 23 194.5t72 187t119 159t172.5 110t223.5 41.5q68 0 115.5 -13t97.5 -46l70 -117q-7 171 -68 275l-262 -68l-28 125l204 53
q-46 44 -139 96l232 103q102 -50 168 -133l186 49zM561 180q76 0 137.5 31.5t99.5 81t64 114.5t36.5 128.5t10.5 126.5q0 115 -62.5 181t-158.5 66q-73 0 -133.5 -31t-98.5 -80t-64 -112t-37 -123.5t-11 -118.5q0 -134 57 -199t160 -65z" />
    <glyph glyph-name="ntilde" unicode="&#xf1;" horiz-adv-x="1271" 
d="M662 1251q-35 0 -44 -53h-143q22 117 62 166t114 49q66 0 150 -35q63 -24 92 -24q33 0 41 53h143q-22 -118 -62 -167.5t-114 -49.5q-63 0 -149 37q-68 24 -90 24zM862 1118q162 0 247 -75.5t85 -202.5q0 -70 -27 -217l-110 -623h-283l103 571q22 126 22 179
q0 170 -176 170q-113 -2 -197.5 -105.5t-122.5 -320.5l-86 -494h-282l192 1090h281l-29 -166l107 118q122 76 276 76z" />
    <glyph glyph-name="ograve" unicode="&#xf2;" horiz-adv-x="1261" 
d="M690 1176l-211 241h254l117 -241h-160zM707 1118q126 0 224 -37t158 -103.5t90.5 -153t30.5 -189.5q0 -126 -40.5 -242t-118.5 -211.5t-206 -153t-288 -57.5q-126 0 -224.5 37.5t-159 103.5t-91.5 153t-31 190q0 100 25 194.5t78 180t129 149.5t185 101.5t239 37.5z
M582 170q104 0 180.5 69t112.5 171t36 219q0 130 -58 210.5t-171 80.5q-79 0 -143.5 -40t-104 -105.5t-61 -146.5t-21.5 -167q0 -130 58 -210.5t172 -80.5z" />
    <glyph glyph-name="oacute" unicode="&#xf3;" horiz-adv-x="1261" 
d="M809 1176h-160l203 241h254zM707 1118q126 0 224 -37t158 -103.5t90.5 -153t30.5 -189.5q0 -126 -40.5 -242t-118.5 -211.5t-206 -153t-288 -57.5q-126 0 -224.5 37.5t-159 103.5t-91.5 153t-31 190q0 100 25 194.5t78 180t129 149.5t185 101.5t239 37.5zM582 170
q104 0 180.5 69t112.5 171t36 219q0 130 -58 210.5t-171 80.5q-79 0 -143.5 -40t-104 -105.5t-61 -146.5t-21.5 -167q0 -130 58 -210.5t172 -80.5z" />
    <glyph glyph-name="ocircumflex" unicode="&#xf4;" horiz-adv-x="1261" 
d="M680 1176h-174l174 241h221l90 -241h-176l-43 141zM707 1118q126 0 224 -37t158 -103.5t90.5 -153t30.5 -189.5q0 -126 -40.5 -242t-118.5 -211.5t-206 -153t-288 -57.5q-126 0 -224.5 37.5t-159 103.5t-91.5 153t-31 190q0 100 25 194.5t78 180t129 149.5t185 101.5
t239 37.5zM582 170q104 0 180.5 69t112.5 171t36 219q0 130 -58 210.5t-171 80.5q-79 0 -143.5 -40t-104 -105.5t-61 -146.5t-21.5 -167q0 -130 58 -210.5t172 -80.5z" />
    <glyph glyph-name="otilde" unicode="&#xf5;" horiz-adv-x="1261" 
d="M649 1251q-34 0 -43 -53h-143q22 117 62 166t114 49q65 0 149 -35q63 -24 93 -24q33 0 41 53h143q-22 -118 -62 -167.5t-114 -49.5q-64 0 -150 37q-68 24 -90 24zM707 1118q126 0 224 -37t158 -103.5t90.5 -153t30.5 -189.5q0 -126 -40.5 -242t-118.5 -211.5t-206 -153
t-288 -57.5q-126 0 -224.5 37.5t-159 103.5t-91.5 153t-31 190q0 100 25 194.5t78 180t129 149.5t185 101.5t239 37.5zM582 170q104 0 180.5 69t112.5 171t36 219q0 130 -58 210.5t-171 80.5q-79 0 -143.5 -40t-104 -105.5t-61 -146.5t-21.5 -167q0 -130 58 -210.5
t172 -80.5z" />
    <glyph glyph-name="odieresis" unicode="&#xf6;" horiz-adv-x="1261" 
d="M563 1178q-53 0 -82.5 28t-29.5 76q0 63 44.5 104t98.5 41q53 0 83 -27.5t30 -76.5q0 -63 -45 -104t-99 -41zM922 1178q-52 0 -81.5 28t-29.5 76q0 63 43.5 104t99.5 41q51 0 81 -27.5t30 -76.5q0 -63 -43.5 -104t-99.5 -41zM707 1118q126 0 224 -37t158 -103.5
t90.5 -153t30.5 -189.5q0 -126 -40.5 -242t-118.5 -211.5t-206 -153t-288 -57.5q-126 0 -224.5 37.5t-159 103.5t-91.5 153t-31 190q0 100 25 194.5t78 180t129 149.5t185 101.5t239 37.5zM582 170q104 0 180.5 69t112.5 171t36 219q0 130 -58 210.5t-171 80.5
q-79 0 -143.5 -40t-104 -105.5t-61 -146.5t-21.5 -167q0 -130 58 -210.5t172 -80.5z" />
    <glyph glyph-name="divide" unicode="&#xf7;" 
d="M733 1151q53 0 86 -32.5t33 -82.5q0 -70 -50.5 -120t-117.5 -50q-54 0 -86.5 33t-32.5 84q0 68 50.5 118t117.5 50zM1100 571h-940l28 160h938zM606 432q55 0 87 -32.5t32 -84.5q0 -68 -50.5 -118t-117.5 -50q-53 0 -86 32.5t-33 82.5q0 70 50.5 120t117.5 50z" />
    <glyph glyph-name="oslash" unicode="&#xf8;" horiz-adv-x="1304" 
d="M1329 1024l-162 -137q58 -110 58 -252q0 -100 -25 -194.5t-78 -180t-129 -149.5t-185 -102t-239 -38q-220 0 -350 111l-160 -137l-96 116l162 138q-59 106 -59 256q0 100 25 194.5t78 180t128.5 149.5t184.5 101.5t239 37.5q221 0 352 -112l160 135zM367 461q0 -37 2 -53
l501 426q-60 86 -174 86q-79 0 -143.5 -40t-104 -105.5t-60.5 -146.5t-21 -167zM924 629q0 33 -2 49l-500 -426q59 -82 172 -82q79 0 143.5 40t104 105.5t61 146.5t21.5 167z" />
    <glyph glyph-name="ugrave" unicode="&#xf9;" horiz-adv-x="1263" 
d="M709 1176l-211 241h254l116 -241h-159zM1229 1090l-191 -1090h-282l30 168l-108 -121q-122 -76 -277 -76q-161 0 -245 76t-84 205q0 84 24 217l113 621h283l-105 -572q-20 -114 -20 -178q0 -171 174 -168q113 2 197.5 104.5t123.5 319.5l86 494h281z" />
    <glyph glyph-name="uacute" unicode="&#xfa;" horiz-adv-x="1263" 
d="M827 1176h-159l202 241h254zM1229 1090l-191 -1090h-282l30 168l-108 -121q-122 -76 -277 -76q-161 0 -245 76t-84 205q0 84 24 217l113 621h283l-105 -572q-20 -114 -20 -178q0 -171 174 -168q113 2 197.5 104.5t123.5 319.5l86 494h281z" />
    <glyph glyph-name="ucircumflex" unicode="&#xfb;" horiz-adv-x="1263" 
d="M698 1176h-174l174 241h222l90 -241h-176l-43 141zM1229 1090l-191 -1090h-282l30 168l-108 -121q-122 -76 -277 -76q-161 0 -245 76t-84 205q0 84 24 217l113 621h283l-105 -572q-20 -114 -20 -178q0 -171 174 -168q113 2 197.5 104.5t123.5 319.5l86 494h281z" />
    <glyph glyph-name="udieresis" unicode="&#xfc;" horiz-adv-x="1263" 
d="M582 1178q-53 0 -83 28t-30 76q0 63 44.5 104t98.5 41q53 0 83 -27.5t30 -76.5q0 -63 -44.5 -104t-98.5 -41zM940 1178q-52 0 -81.5 28t-29.5 76q0 63 44 104t100 41q51 0 80.5 -27.5t29.5 -76.5q0 -63 -43.5 -104t-99.5 -41zM1229 1090l-191 -1090h-282l30 168
l-108 -121q-122 -76 -277 -76q-161 0 -245 76t-84 205q0 84 24 217l113 621h283l-105 -572q-20 -114 -20 -178q0 -171 174 -168q113 2 197.5 104.5t123.5 319.5l86 494h281z" />
    <glyph glyph-name="yacute" unicode="&#xfd;" horiz-adv-x="1114" 
d="M721 1176h-160l203 241h254zM1233 1090l-612 -1090q-138 -245 -255 -337.5t-288 -92.5q-58 0 -123 10l33 193q43 -6 86 -6q71 0 123.5 35t95.5 118l12 25l-237 1145h315l117 -863l420 863h313z" />
    <glyph glyph-name="thorn" unicode="&#xfe;" horiz-adv-x="1333" 
d="M868 1118q199 0 308.5 -121t109.5 -327q0 -108 -25 -209t-77.5 -190t-127.5 -156t-182 -105.5t-233 -38.5q-69 0 -139 20t-105 50l-53 115l-98 -557h-283l340 1906h283l-105 -579l103 116q109 76 284 76zM633 170q105 0 188 66t126.5 173.5t43.5 235.5q0 132 -58.5 203.5
t-168.5 71.5q-61 0 -114 -20t-100 -62t-82 -113.5t-52 -167.5l-8 -51q-7 -52 -7 -101t15.5 -91.5t41.5 -74.5t71 -50.5t104 -18.5z" />
    <glyph glyph-name="ydieresis" unicode="&#xff;" horiz-adv-x="1114" 
d="M475 1178q-53 0 -83 28t-30 76q0 63 45 104t99 41q53 0 82.5 -27.5t29.5 -76.5q0 -63 -44.5 -104t-98.5 -41zM834 1178q-52 0 -81.5 28t-29.5 76q0 63 43.5 104t99.5 41q51 0 81 -27.5t30 -76.5q0 -63 -43.5 -104t-99.5 -41zM1233 1090l-612 -1090q-138 -245 -255 -337.5
t-288 -92.5q-58 0 -123 10l33 193q43 -6 86 -6q71 0 123.5 35t95.5 118l12 25l-237 1145h315l117 -863l420 863h313z" />
    <glyph glyph-name="Amacron" unicode="&#x100;" horiz-adv-x="1392" 
d="M1184 1554h-559l26 156h559zM936 426h-481l-213 -426h-305l749 1413h375l244 -1413h-306zM903 649l-78 514l-258 -514h336z" />
    <glyph glyph-name="amacron" unicode="&#x101;" horiz-adv-x="1130" 
d="M975 1212h-559l26 158h559zM666 1118q205 0 301 -77.5t96 -211.5q0 -52 -27 -204l-61 -349q-22 -126 -29 -276h-276l6 160l-72 -109q-105 -80 -276 -80q-131 0 -217 74t-86 213q0 208 199.5 317t539.5 89l2 16q12 74 12 117q0 55 -33 89t-104 34q-182 0 -227 -185
l-275 -2q35 181 179 283t348 102zM465 170q82 0 157 64.5t93 166.5l16 93q-116 13 -207.5 -5t-146.5 -68t-55 -126q0 -61 38.5 -93t104.5 -32z" />
    <glyph glyph-name="Abreve" unicode="&#x102;" horiz-adv-x="1392" 
d="M893 1485q-65 0 -110.5 21.5t-66 56.5t-28 80t3.5 92h150q-13 -103 76 -103q92 0 116 103h150q-21 -122 -99 -186t-192 -64zM936 426h-481l-213 -426h-305l749 1413h375l244 -1413h-306zM903 649l-78 514l-258 -514h336z" />
    <glyph glyph-name="abreve" unicode="&#x103;" horiz-adv-x="1130" 
d="M684 1161q-55 0 -96 14.5t-63 39t-34.5 57.5t-11.5 70.5t6 76.5h152q-7 -53 8 -82.5t66 -29.5q90 0 116 112h152q-24 -129 -102.5 -193.5t-192.5 -64.5zM666 1118q205 0 301 -77.5t96 -211.5q0 -52 -27 -204l-61 -349q-22 -126 -29 -276h-276l6 160l-72 -109
q-105 -80 -276 -80q-131 0 -217 74t-86 213q0 208 199.5 317t539.5 89l2 16q12 74 12 117q0 55 -33 89t-104 34q-182 0 -227 -185l-275 -2q35 181 179 283t348 102zM465 170q82 0 157 64.5t93 166.5l16 93q-116 13 -207.5 -5t-146.5 -68t-55 -126q0 -61 38.5 -93t104.5 -32z
" />
    <glyph glyph-name="Aogonek" unicode="&#x104;" horiz-adv-x="1392" 
d="M1020 -209q0 -84 74 -84q55 0 106 37l-22 -119q-99 -82 -248 -82q-84 0 -136.5 38t-52.5 118q0 97 66 178.5t190 138.5l-61 410h-481l-213 -426h-305l749 1413h375l244 -1413h-111q-73 -7 -123.5 -75t-50.5 -134zM903 649l-78 514l-258 -514h336z" />
    <glyph glyph-name="aogonek" unicode="&#x105;" horiz-adv-x="1130" 
d="M666 1118q205 0 301 -77.5t96 -211.5q0 -52 -27 -204l-61 -349q-22 -126 -29 -276h-80q-73 -7 -123.5 -75t-50.5 -134q0 -84 74 -84q55 0 106 37l-22 -119q-99 -82 -248 -82q-84 0 -136 38t-52 118q0 97 66 179.5t190 137.5l6 144l-72 -109q-105 -80 -276 -80
q-131 0 -217 74t-86 213q0 208 199.5 317t539.5 89l2 16q12 74 12 117q0 55 -33 89t-104 34q-182 0 -227 -185l-275 -2q35 181 179 283t348 102zM465 170q82 0 157 64.5t93 166.5l16 93q-116 13 -207.5 -5t-146.5 -68t-55 -126q0 -61 38.5 -93t104.5 -32z" />
    <glyph glyph-name="Cacute" unicode="&#x106;" horiz-adv-x="1525" 
d="M934 1442q278 0 419.5 -135.5t125.5 -352.5l-2 -20h-283v20q-1 142 -74.5 209.5t-216.5 67.5q-139 0 -250 -86.5t-170 -237.5l41 49h254l-284 -229h-58q-10 -78 -10 -147q0 -201 81.5 -299.5t221.5 -98.5q262 0 373 287l8 20h281l-7 -20q-65 -236 -244 -367t-448 -131
q-266 0 -417.5 154t-151.5 430q0 194 64 360.5t173 281.5t258 180t316 65z" />
    <glyph glyph-name="cacute" unicode="&#x107;" horiz-adv-x="1171" 
d="M776 1176h-160l203 241h254zM698 1114q222 0 333.5 -114t111.5 -308h-279q-6 223 -196 223q-142 0 -231 -141t-89 -352q0 -123 53 -187.5t138 -64.5q95 0 164.5 52.5t105.5 154.5h283q-151 -406 -580 -406q-211 0 -338 114t-127 337q0 141 45.5 266.5t128 220t206.5 150
t271 55.5z" />
    <glyph glyph-name="Cdotaccent" unicode="&#x10a;" horiz-adv-x="1525" 
d="M934 1442q278 0 419.5 -135.5t125.5 -352.5l-2 -20h-283v20q-1 142 -74.5 209.5t-216.5 67.5q-119 0 -218.5 -63.5t-162.5 -178.5q72 -29 72 -112q0 -62 -43.5 -110.5t-116.5 -51.5q-8 -57 -8 -135q0 -201 81.5 -299.5t221.5 -98.5q262 0 373 287l8 20h281l-7 -20
q-65 -236 -244 -367t-448 -131q-266 0 -417.5 154t-151.5 430q0 194 64 360.5t173 281.5t258 180t316 65z" />
    <glyph glyph-name="cdotaccent" unicode="&#x10b;" horiz-adv-x="1171" 
d="M762 1495q62 0 98.5 -34.5t36.5 -92.5q0 -70 -47.5 -121t-128.5 -51q-63 0 -99 34t-36 93q0 70 47.5 121t128.5 51zM698 1114q222 0 333.5 -114t111.5 -308h-279q-6 223 -196 223q-142 0 -231 -141t-89 -352q0 -123 53 -187.5t138 -64.5q95 0 164.5 52.5t105.5 154.5h283
q-151 -406 -580 -406q-211 0 -338 114t-127 337q0 141 45.5 266.5t128 220t206.5 150t271 55.5z" />
    <glyph glyph-name="Ccaron" unicode="&#x10c;" horiz-adv-x="1525" 
d="M934 1442q278 0 419.5 -135.5t125.5 -352.5l-2 -20h-283v20q-1 142 -74.5 209.5t-216.5 67.5q-150 0 -266 -100t-172 -275l67 100h179l-172 -229h-103q-10 -78 -10 -147q0 -201 81.5 -299.5t221.5 -98.5q262 0 373 287l8 20h281l-7 -20q-65 -236 -244 -367t-448 -131
q-266 0 -417.5 154t-151.5 430q0 194 64 360.5t173 281.5t258 180t316 65z" />
    <glyph glyph-name="ccaron" unicode="&#x10d;" horiz-adv-x="1171" 
d="M600 1176l-88 241h176l41 -137l94 137h174l-176 -241h-221zM539 170q95 0 164.5 52.5t105.5 154.5h283q-151 -406 -580 -406q-211 0 -338 114t-127 337q0 141 45.5 266.5t128 220t206.5 150t271 55.5q222 0 333.5 -114t111.5 -308h-279q-6 223 -196 223q-142 0 -231 -141
t-89 -352q0 -123 53 -187.5t138 -64.5z" />
    <glyph glyph-name="Dcaron" unicode="&#x10e;" horiz-adv-x="1490" 
d="M750 1505l-93 230h179l41 -133l90 133h178l-172 -230h-223zM956 1405q108 -11 197.5 -52.5t158.5 -113t107.5 -181.5t38.5 -249q0 -149 -46.5 -284.5t-136 -245.5t-233 -183t-323.5 -90q-74 -6 -182 -6h-465l250 1413h446q118 0 188 -8zM705 227q92 11 167 47.5t127 90.5
t87.5 124t52 148t16.5 164q0 180 -77.5 274.5t-211.5 110.5q-67 6 -141 6h-160l-172 -969h166q99 0 146 4z" />
    <glyph glyph-name="dcaron" unicode="&#x10f;" horiz-adv-x="1329" 
d="M1370 1505l-266 -1505h-283l29 166l-102 -119q-110 -76 -283 -76q-201 0 -310.5 116.5t-109.5 320.5q0 108 25 210.5t77.5 193.5t127.5 159t182 107.5t233 39.5q70 0 140 -19t106 -50l51 -115l100 571h283zM1737 1505v-18l-213 -318h-154l164 336h203zM915 532l11 54
q7 52 7 100t-16 91t-42.5 74.5t-71 50t-103.5 18.5q-106 0 -188 -68.5t-124 -176t-42 -231.5q0 -132 58 -203t165 -71q61 0 114 20t99.5 61.5t81 113t51.5 167.5z" />
    <glyph glyph-name="Dcroat" unicode="&#x110;" horiz-adv-x="1490" 
d="M956 1405q108 -11 197.5 -52.5t158.5 -113t107.5 -181.5t38.5 -249q0 -149 -46.5 -284.5t-136 -245.5t-233 -183t-323.5 -90q-74 -6 -182 -6h-465l108 610h-155l28 160h154l115 643h446q118 0 188 -8zM705 227q92 11 167 47.5t127 90.5t87.5 124t52 148t16.5 164
q0 180 -77.5 274.5t-211.5 110.5q-67 6 -141 6h-160l-76 -422h228l-29 -160h-227l-68 -387h166q99 0 146 4z" />
    <glyph glyph-name="dcroat" unicode="&#x111;" horiz-adv-x="1331" 
d="M1399 1196h-84l-211 -1196h-283l29 166l-102 -119q-110 -76 -283 -76q-201 0 -310.5 116.5t-109.5 320.5q0 108 25 210.5t77.5 193.5t127.5 159t182 107.5t233 39.5q70 0 140 -19t106 -50l51 -115l45 262h-244l29 160h244l26 149h283l-27 -149h84zM915 532l11 54
q7 52 7 100t-16 91t-42.5 74.5t-71 50t-103.5 18.5q-106 0 -188 -68.5t-124 -176t-42 -231.5q0 -132 58 -203t165 -71q61 0 114 20t99.5 61.5t81 113t51.5 167.5z" />
    <glyph glyph-name="Emacron" unicode="&#x112;" horiz-adv-x="1253" 
d="M1137 1554h-559l26 156h559zM565 1192l-65 -373h665l-39 -223h-667l-66 -373h737l-40 -223h-1018l250 1413h997l-39 -221h-715z" />
    <glyph glyph-name="emacron" unicode="&#x113;" horiz-adv-x="1187" 
d="M1006 1212h-560l27 158h559zM338 471l-2 -55q0 -126 54 -186t147 -60q92 0 161.5 48.5t98.5 135.5h282q-65 -187 -215.5 -285t-353.5 -98q-100 0 -182.5 26.5t-146 79.5t-99 139t-35.5 198q0 113 27 217.5t81.5 192.5t130 154t178 103t220.5 37q148 0 253.5 -57.5
t155.5 -153.5t50 -219q0 -102 -35 -217h-770zM655 920q-105 0 -176.5 -71.5t-109.5 -193.5h485q2 18 2 47q0 102 -52.5 160t-148.5 58z" />
    <glyph glyph-name="Edotaccent" unicode="&#x116;" horiz-adv-x="1253" 
d="M850 1493q-58 0 -92.5 32.5t-34.5 88.5q0 64 46.5 113t121.5 49q58 0 92.5 -32.5t34.5 -88.5q0 -64 -46 -113t-122 -49zM565 1192l-65 -373h665l-39 -223h-667l-66 -373h737l-40 -223h-1018l250 1413h997l-39 -221h-715z" />
    <glyph glyph-name="edotaccent" unicode="&#x117;" horiz-adv-x="1187" 
d="M729 1196q-63 0 -99 34t-36 93q0 70 47.5 121t128.5 51q62 0 98.5 -34.5t36.5 -92.5q0 -70 -47.5 -121t-128.5 -51zM338 471l-2 -55q0 -126 54 -186t147 -60q92 0 161.5 48.5t98.5 135.5h282q-65 -187 -215.5 -285t-353.5 -98q-100 0 -182.5 26.5t-146 79.5t-99 139
t-35.5 198q0 113 27 217.5t81.5 192.5t130 154t178 103t220.5 37q148 0 253.5 -57.5t155.5 -153.5t50 -219q0 -102 -35 -217h-770zM655 920q-105 0 -176.5 -71.5t-109.5 -193.5h485q2 18 2 47q0 102 -52.5 160t-148.5 58z" />
    <glyph glyph-name="Eogonek" unicode="&#x118;" horiz-adv-x="1253" 
d="M565 1192l-65 -373h665l-39 -223h-667l-66 -373h737l-40 -223h-56q-73 -7 -123.5 -75t-50.5 -134q0 -84 74 -84q55 0 106 37l-22 -119q-99 -82 -248 -82q-84 0 -136 38t-52 118q0 91 57 168.5t166 132.5h-733l250 1413h997l-39 -221h-715z" />
    <glyph glyph-name="eogonek" unicode="&#x119;" horiz-adv-x="1187" 
d="M338 471l-2 -55q0 -126 54 -186t147 -60q92 0 161.5 48.5t98.5 135.5h282q-56 -161 -178 -257t-289 -120q-49 -28 -78.5 -82.5t-29.5 -103.5q0 -84 74 -84q55 0 106 37l-22 -119q-99 -82 -248 -82q-84 0 -136.5 38t-52.5 118q0 168 185 281q-166 24 -264.5 133t-98.5 301
q0 113 27 217.5t81.5 192.5t130 154t178 103t220.5 37q148 0 253.5 -57.5t155.5 -153.5t50 -219q0 -102 -35 -217h-770zM655 920q-105 0 -176.5 -71.5t-109.5 -193.5h485q2 18 2 47q0 102 -52.5 160t-148.5 58z" />
    <glyph glyph-name="Ecaron" unicode="&#x11a;" horiz-adv-x="1253" 
d="M739 1505l-92 230h178l41 -133l90 133h179l-172 -230h-224zM565 1192l-65 -373h665l-39 -223h-667l-66 -373h737l-40 -223h-1018l250 1413h997l-39 -221h-715z" />
    <glyph glyph-name="ecaron" unicode="&#x11b;" horiz-adv-x="1187" 
d="M608 1176l-88 241h176l41 -137l94 137h175l-177 -241h-221zM338 471l-2 -55q0 -126 54 -186t147 -60q92 0 161.5 48.5t98.5 135.5h282q-65 -187 -215.5 -285t-353.5 -98q-100 0 -182.5 26.5t-146 79.5t-99 139t-35.5 198q0 113 27 217.5t81.5 192.5t130 154t178 103
t220.5 37q148 0 253.5 -57.5t155.5 -153.5t50 -219q0 -102 -35 -217h-770zM655 920q-105 0 -176.5 -71.5t-109.5 -193.5h485q2 18 2 47q0 102 -52.5 160t-148.5 58z" />
    <glyph glyph-name="Gbreve" unicode="&#x11e;" horiz-adv-x="1574" 
d="M1051 1485q-65 0 -110.5 21.5t-66 56.5t-28 80t3.5 92h149q-13 -103 76 -103q93 0 117 103h149q-21 -123 -98.5 -186.5t-191.5 -63.5zM967 1442q140 0 245.5 -36.5t168 -103t90.5 -154.5t20 -194l-2 -20h-283v20q-1 145 -70 211t-210 66q-102 0 -193 -46.5t-159 -130
t-108 -206t-40 -266.5q0 -193 83 -296.5t224 -103.5q137 0 242 84.5t151 233.5h-299l41 221h570l-127 -721h-228l21 227l-88 -141q-136 -115 -365 -115q-249 0 -389.5 154.5t-140.5 421.5q0 200 69 370.5t185 284t269.5 177t322.5 63.5z" />
    <glyph glyph-name="gbreve" unicode="&#x11f;" horiz-adv-x="1329" 
d="M788 1161q-55 0 -95.5 14.5t-62.5 39t-35 57.5t-11.5 70.5t6.5 76.5h151q-7 -53 8 -82.5t66 -29.5q91 0 117 112h151q-24 -129 -102.5 -193.5t-192.5 -64.5zM1296 1090l-143 -818q-13 -71 -41 -211q-53 -256 -215 -379.5t-451 -123.5q-228 0 -348.5 97t-107.5 275l2 21
h276l-2 -19q-5 -76 54.5 -119.5t168.5 -43.5q131 0 218.5 66.5t117.5 195.5q2 12 12 59t15 74l2 12l-106 -123q-110 -76 -283 -76q-200 0 -310 117.5t-110 313.5q0 108 25 210.5t77.5 193.5t127.5 159t182 107.5t233 39.5q70 0 140 -19t106 -50l51 -117l29 158h280zM569 176
q128 0 220.5 85t125.5 271l-2 -18l15 82l-2 -10q7 52 7 100t-16 91t-42.5 74.5t-71 50t-103.5 18.5q-106 0 -188 -68.5t-124 -176t-42 -231.5q0 -131 57.5 -199.5t165.5 -68.5z" />
    <glyph glyph-name="Gdotaccent" unicode="&#x120;" horiz-adv-x="1574" 
d="M1057 1493q-58 0 -92.5 32.5t-34.5 88.5q0 64 46.5 113t121.5 49q58 0 92.5 -32.5t34.5 -88.5q0 -64 -46 -113t-122 -49zM967 1442q140 0 245.5 -36.5t168 -103t90.5 -154.5t20 -194l-2 -20h-283v20q-1 145 -70 211t-210 66q-102 0 -193 -46.5t-159 -130t-108 -206
t-40 -266.5q0 -193 83 -296.5t224 -103.5q137 0 242 84.5t151 233.5h-299l41 221h570l-127 -721h-228l21 227l-88 -141q-136 -115 -365 -115q-249 0 -389.5 154.5t-140.5 421.5q0 200 69 370.5t185 284t269.5 177t322.5 63.5z" />
    <glyph glyph-name="gdotaccent" unicode="&#x121;" horiz-adv-x="1329" 
d="M805 1196q-63 0 -99 34t-36 93q0 70 47.5 121t128.5 51q62 0 98.5 -34.5t36.5 -92.5q0 -70 -47.5 -121t-128.5 -51zM1296 1090l-143 -818q-13 -71 -41 -211q-53 -256 -215 -379.5t-451 -123.5q-228 0 -348.5 97t-107.5 275l2 21h276l-2 -19q-5 -76 54.5 -119.5
t168.5 -43.5q131 0 218.5 66.5t117.5 195.5q2 12 12 59t15 74l2 12l-106 -123q-110 -76 -283 -76q-200 0 -310 117.5t-110 313.5q0 108 25 210.5t77.5 193.5t127.5 159t182 107.5t233 39.5q70 0 140 -19t106 -50l51 -117l29 158h280zM569 176q128 0 220.5 85t125.5 271
l-2 -18l15 82l-2 -10q7 52 7 100t-16 91t-42.5 74.5t-71 50t-103.5 18.5q-106 0 -188 -68.5t-124 -176t-42 -231.5q0 -131 57.5 -199.5t165.5 -68.5z" />
    <glyph glyph-name="Gcommaaccent" unicode="&#x122;" horiz-adv-x="1574" 
d="M967 1442q140 0 245.5 -36.5t168 -103t90.5 -154.5t20 -194l-2 -20h-283v20q-1 145 -70 211t-210 66q-102 0 -193 -46.5t-159 -130t-108 -206t-40 -266.5q0 -193 83 -296.5t224 -103.5q137 0 242 84.5t151 233.5h-299l41 221h570l-127 -721h-228l21 227l-88 -141
q-136 -115 -365 -115q-249 0 -389.5 154.5t-140.5 421.5q0 200 69 370.5t185 284t269.5 177t322.5 63.5zM553 -88h203v-18l-213 -318h-154z" />
    <glyph glyph-name="gcommaaccent" unicode="&#x123;" horiz-adv-x="1329" 
d="M872 1174h-202v18l215 317h151zM1296 1090l-143 -818q-13 -71 -41 -211q-53 -256 -215 -379.5t-451 -123.5q-228 0 -348.5 97t-107.5 275l2 21h276l-2 -19q-5 -76 54.5 -119.5t168.5 -43.5q131 0 218.5 66.5t117.5 195.5q2 12 12 59t15 74l2 12l-106 -123
q-110 -76 -283 -76q-200 0 -310 117.5t-110 313.5q0 108 25 210.5t77.5 193.5t127.5 159t182 107.5t233 39.5q70 0 140 -19t106 -50l51 -117l29 158h280zM569 176q128 0 220.5 85t125.5 271l-2 -18l15 82l-2 -10q7 52 7 100t-16 91t-42.5 74.5t-71 50t-103.5 18.5
q-106 0 -188 -68.5t-124 -176t-42 -231.5q0 -131 57.5 -199.5t165.5 -68.5z" />
    <glyph glyph-name="Hbar" unicode="&#x126;" horiz-adv-x="1529" 
d="M1554 1006h-79l-179 -1006h-282l102 580h-661l-103 -580h-282l178 1006h-80l29 159h79l43 248h283l-43 -248h662l43 248h282l-43 -248h80zM1190 1006h-662l-34 -201h661z" />
    <glyph glyph-name="hbar" unicode="&#x127;" horiz-adv-x="1304" 
d="M893 1118q162 0 247 -75.5t85 -202.5q0 -70 -27 -217l-111 -623h-282l102 571q23 131 23 179q0 170 -176 170q-112 -2 -196.5 -105.5t-123.5 -320.5l-86 -494h-282l210 1196h-114l28 160h113l29 160h282l-28 -160h213l-29 -160h-213l-47 -274l106 120q124 76 277 76z" />
    <glyph glyph-name="Imacron" unicode="&#x12a;" horiz-adv-x="587" 
d="M768 1554h-559l27 156h559zM354 0h-282l250 1413h282z" />
    <glyph glyph-name="imacron" unicode="&#x12b;" horiz-adv-x="542" 
d="M674 1212h-559l26 158h559zM317 0h-282l194 1090h281z" />
    <glyph glyph-name="Iogonek" unicode="&#x12e;" horiz-adv-x="587" 
d="M354 0h-88q-73 -7 -123.5 -75t-50.5 -134q0 -84 74 -84q55 0 106 37l-22 -119q-99 -82 -248 -82q-84 0 -136 38t-52 118q0 97 66.5 179.5t191.5 137.5h2l248 1397h282z" />
    <glyph glyph-name="iogonek" unicode="&#x12f;" horiz-adv-x="542" 
d="M440 1495q62 0 98.5 -34.5t36.5 -92.5q0 -70 -47.5 -121t-128.5 -51q-63 0 -99 34t-36 93q0 70 47.5 121t128.5 51zM229 1090h281l-193 -1090h-86q-73 -7 -123.5 -75t-50.5 -134q0 -84 74 -84q56 0 107 37l-23 -119q-99 -82 -248 -82q-84 0 -136 38t-52 118
q0 97 66.5 179.5t191.5 137.5z" />
    <glyph glyph-name="Idotaccent" unicode="&#x130;" horiz-adv-x="587" 
d="M522 1776q58 0 92.5 -32.5t34.5 -88.5q0 -64 -46 -113t-122 -49q-58 0 -92.5 32.5t-34.5 88.5q0 64 46.5 113t121.5 49zM354 0h-282l250 1413h282z" />
    <glyph glyph-name="dotlessi" unicode="&#x131;" horiz-adv-x="542" 
d="M317 0h-282l194 1090h281z" />
    <glyph glyph-name="IJ" unicode="&#x132;" horiz-adv-x="1787" 
d="M354 0h-282l250 1413h282zM1802 1413l-145 -833q-17 -103 -41 -195q-93 -414 -567 -414q-228 0 -339.5 126.5t-80.5 344.5l10 72h283l-9 -72q-17 -136 30 -198t151 -62q188 0 245 219q14 51 31 150l152 862h280z" />
    <glyph glyph-name="ij" unicode="&#x133;" horiz-adv-x="1034" 
d="M440 1495q62 0 98.5 -34.5t36.5 -92.5q0 -70 -47.5 -121t-128.5 -51q-63 0 -99 34t-36 93q0 70 47.5 121t128.5 51zM938 1495q67 0 105 -34.5t38 -90.5q0 -83 -46 -128.5t-128 -45.5q-67 0 -105 33.5t-38 89.5q0 84 46 130t128 46zM317 0h-282l194 1090h281zM1020 1090
l-195 -1115q-19 -99 -28 -131q-35 -135 -132.5 -204.5t-279.5 -69.5q-55 0 -104 6l36 201q87 -9 135 14t68 84q16 59 23 105l194 1110h283z" />
    <glyph glyph-name="Kcommaaccent" unicode="&#x136;" horiz-adv-x="1384" 
d="M766 721l510 -721h-348l-377 578l-113 -105l-84 -473h-282l250 1413h282l-117 -655l723 655h338zM514 -88h203v-18l-213 -318h-154z" />
    <glyph glyph-name="kcommaaccent" unicode="&#x137;" horiz-adv-x="1198" 
d="M717 580l405 -580h-342l-284 440l-119 -104l-60 -336h-282l266 1505h283l-160 -907l524 492h340zM426 -88h203v-18l-213 -318h-154z" />
    <glyph glyph-name="Lacute" unicode="&#x139;" horiz-adv-x="1226" 
d="M547 1505h-160l191 230h253zM1133 236l-43 -236h-1018l250 1413h282l-209 -1177h738z" />
    <glyph glyph-name="lacute" unicode="&#x13a;" horiz-adv-x="573" 
d="M506 1599h-160l203 242h254zM575 1505l-204 -1149q-15 -92 -15 -108q0 -46 25.5 -60.5t87.5 -9.5l-33 -182q-61 -10 -164 -10q-108 0 -160.5 34.5t-52.5 116.5q0 59 29 213l205 1155h282z" />
    <glyph glyph-name="Lcommaaccent" unicode="&#x13b;" horiz-adv-x="1226" 
d="M1133 236l-43 -236h-1018l250 1413h282l-209 -1177h738zM481 -88h203v-18l-213 -318h-154z" />
    <glyph glyph-name="lcommaaccent" unicode="&#x13c;" horiz-adv-x="573" 
d="M575 1505l-204 -1149q-15 -92 -15 -108q0 -46 25.5 -60.5t87.5 -9.5l-33 -182q-61 -10 -164 -10q-108 0 -160.5 34.5t-52.5 116.5q0 59 29 213l205 1155h282zM309 -106l-213 -318h-153l163 336h203v-18z" />
    <glyph glyph-name="Lcaron" unicode="&#x13d;" horiz-adv-x="1226" 
d="M1133 236l-43 -236h-1018l250 1413h282l-209 -1177h738z" />
    <glyph glyph-name="lcaron" unicode="&#x13e;" horiz-adv-x="573" 
d="M575 1505l-204 -1149q-15 -92 -15 -108q0 -46 25.5 -60.5t87.5 -9.5l-33 -182q-61 -10 -164 -10q-108 0 -160.5 34.5t-52.5 116.5q0 59 29 213l205 1155h282z" />
    <glyph glyph-name="Ldot" unicode="&#x13f;" horiz-adv-x="1226" 
d="M1133 236l-43 -236h-1018l250 1413h282l-209 -1177h738zM842 670q-60 0 -96.5 34.5t-36.5 92.5q0 73 52.5 122.5t131.5 49.5q60 0 96.5 -34.5t36.5 -92.5q0 -73 -52.5 -122.5t-131.5 -49.5z" />
    <glyph glyph-name="ldot" unicode="&#x140;" horiz-adv-x="847" 
d="M575 1505l-204 -1149q-15 -92 -15 -108q0 -46 25.5 -60.5t87.5 -9.5l-33 -182q-61 -10 -164 -10q-108 0 -160.5 34.5t-52.5 116.5q0 59 29 213l205 1155h282zM748 985q60 0 98.5 -34.5t38.5 -94.5q0 -89 -55 -144t-140 -55q-60 0 -99.5 35t-39.5 94q0 89 55 144t142 55z
" />
    <glyph glyph-name="Lslash" unicode="&#x141;" horiz-adv-x="1308" 
d="M1214 236l-40 -236h-1020l104 586l-227 -115l32 188l228 115l112 639h283l-86 -481l234 117l-35 -189l-232 -117l-90 -507h737z" />
    <glyph glyph-name="lslash" unicode="&#x142;" horiz-adv-x="643" 
d="M473 651l-53 -295q-14 -86 -14 -108q0 -46 25 -60.5t89 -9.5l-33 -182q-64 -10 -165 -10q-107 0 -159 34.5t-52 116.5q0 60 26 213l23 127l-144 -80l35 195l144 80l147 833h283l-117 -659l139 78l-35 -195z" />
    <glyph glyph-name="Nacute" unicode="&#x143;" horiz-adv-x="1546" 
d="M1032 1505h-160l191 230h254zM1563 1413l-250 -1413h-387l-385 1073l-187 -1073h-282l250 1413h374l394 -1100l190 1100h283z" />
    <glyph glyph-name="nacute" unicode="&#x144;" horiz-adv-x="1271" 
d="M821 1176h-159l202 241h254zM862 1118q162 0 247 -75.5t85 -202.5q0 -70 -27 -217l-110 -623h-283l103 571q22 126 22 179q0 170 -176 170q-113 -2 -197.5 -105.5t-122.5 -320.5l-86 -494h-282l192 1090h281l-29 -166l107 118q122 76 276 76z" />
    <glyph glyph-name="Ncommaaccent" unicode="&#x145;" horiz-adv-x="1546" 
d="M1563 1413l-250 -1413h-387l-385 1073l-187 -1073h-282l250 1413h374l394 -1100l190 1100h283zM604 -88h203v-18l-213 -318h-154z" />
    <glyph glyph-name="ncommaaccent" unicode="&#x146;" horiz-adv-x="1271" 
d="M862 1118q162 0 247 -75.5t85 -202.5q0 -70 -27 -217l-110 -623h-283l103 571q22 126 22 179q0 170 -176 170q-113 -2 -197.5 -105.5t-122.5 -320.5l-86 -494h-282l192 1090h281l-29 -166l107 118q122 76 276 76zM446 -88h203v-18l-213 -318h-153z" />
    <glyph glyph-name="Ncaron" unicode="&#x147;" horiz-adv-x="1546" 
d="M854 1505l-92 230h178l41 -133l90 133h178l-172 -230h-223zM1563 1413l-250 -1413h-387l-385 1073l-187 -1073h-282l250 1413h374l394 -1100l190 1100h283z" />
    <glyph glyph-name="ncaron" unicode="&#x148;" horiz-adv-x="1271" 
d="M645 1176l-88 241h176l41 -137l94 137h174l-176 -241h-221zM862 1118q162 0 247 -75.5t85 -202.5q0 -70 -27 -217l-110 -623h-283l103 571q22 126 22 179q0 170 -176 170q-113 -2 -197.5 -105.5t-122.5 -320.5l-86 -494h-282l192 1090h281l-29 -166l107 118
q122 76 276 76z" />
    <glyph glyph-name="Eng" unicode="&#x14a;" horiz-adv-x="1548" 
d="M1563 1413l-271 -1540q-12 -69 -26.5 -115.5t-39 -85.5t-58 -62t-86 -39t-119 -22t-160.5 -6l37 213q85 4 123 35.5t49 93.5l10 64l-485 1116l-181 -1065h-282l248 1413h374l414 -1012l170 1012h283z" />
    <glyph glyph-name="eng" unicode="&#x14b;" horiz-adv-x="1271" 
d="M862 1118q162 0 247 -75.5t85 -202.5q0 -70 -27 -217l-116 -660q-8 -43 -27 -98q-26 -70 -61.5 -113t-93 -67t-127.5 -32.5t-179 -8.5l37 213q85 0 121 25.5t47 86.5l109 602q22 126 22 179q0 170 -176 170q-113 -2 -197.5 -105.5t-122.5 -320.5l-86 -494h-282l192 1090
h281l-29 -166l107 118q122 76 276 76z" />
    <glyph glyph-name="Omacron" unicode="&#x14c;" horiz-adv-x="1599" 
d="M1276 1554h-559l26 156h560zM938 1442q149 0 269 -47.5t198 -131t120 -194.5t42 -240q0 -181 -57 -338t-160 -272.5t-256.5 -181.5t-337.5 -66q-149 0 -269 47.5t-198 131t-120 194.5t-42 240q0 181 57 338t160 272.5t256.5 181.5t337.5 66zM778 182q96 0 178 39
t138 103.5t95.5 148t58 172.5t18.5 178q0 185 -93 296.5t-258 111.5q-119 0 -215 -59t-153.5 -154t-88 -205.5t-30.5 -222.5q0 -185 92 -296.5t258 -111.5z" />
    <glyph glyph-name="omacron" unicode="&#x14d;" horiz-adv-x="1261" 
d="M1030 1212h-559l27 158h559zM707 1118q126 0 224 -37t158 -103.5t90.5 -153t30.5 -189.5q0 -126 -40.5 -242t-118.5 -211.5t-206 -153t-288 -57.5q-126 0 -224.5 37.5t-159 103.5t-91.5 153t-31 190q0 100 25 194.5t78 180t129 149.5t185 101.5t239 37.5zM582 170
q104 0 180.5 69t112.5 171t36 219q0 130 -58 210.5t-171 80.5q-79 0 -143.5 -40t-104 -105.5t-61 -146.5t-21.5 -167q0 -130 58 -210.5t172 -80.5z" />
    <glyph glyph-name="Ohungarumlaut" unicode="&#x150;" horiz-adv-x="1599" 
d="M846 1507h-160l193 228h254zM1026 1507l191 228h253l-284 -228h-160zM938 1442q149 0 269 -47.5t198 -131t120 -194.5t42 -240q0 -181 -57 -338t-160 -272.5t-256.5 -181.5t-337.5 -66q-149 0 -269 47.5t-198 131t-120 194.5t-42 240q0 181 57 338t160 272.5t256.5 181.5
t337.5 66zM778 182q96 0 178 39t138 103.5t95.5 148t58 172.5t18.5 178q0 185 -93 296.5t-258 111.5q-119 0 -215 -59t-153.5 -154t-88 -205.5t-30.5 -222.5q0 -185 92 -296.5t258 -111.5z" />
    <glyph glyph-name="ohungarumlaut" unicode="&#x151;" horiz-adv-x="1261" 
d="M614 1176h-159l200 241h254zM805 1176l201 241h254l-295 -241h-160zM707 1118q126 0 224 -37t158 -103.5t90.5 -153t30.5 -189.5q0 -126 -40.5 -242t-118.5 -211.5t-206 -153t-288 -57.5q-126 0 -224.5 37.5t-159 103.5t-91.5 153t-31 190q0 100 25 194.5t78 180
t129 149.5t185 101.5t239 37.5zM582 170q104 0 180.5 69t112.5 171t36 219q0 130 -58 210.5t-171 80.5q-79 0 -143.5 -40t-104 -105.5t-61 -146.5t-21.5 -167q0 -130 58 -210.5t172 -80.5z" />
    <glyph glyph-name="OE" unicode="&#x152;" horiz-adv-x="2310" 
d="M1620 1192l-66 -373h666l-39 -223h-668l-65 -373h737l-39 -223h-1020l43 240l-84 -138q-93 -73 -187 -102t-232 -29q-252 0 -397.5 152.5t-145.5 441.5q0 123 30 245t95 236.5t157 202t226.5 140.5t292.5 53q145 0 226.5 -29t145.5 -104l37 -140l43 244h1000l-41 -221
h-715zM758 182q187 0 318 140.5t175 384.5q14 80 14.5 152.5t-17 141.5t-53 119t-100.5 80.5t-153 30.5q-106 0 -195 -40.5t-148 -107t-100.5 -153t-60 -176t-18.5 -179.5q0 -194 89 -293.5t249 -99.5z" />
    <glyph glyph-name="oe" unicode="&#x153;" horiz-adv-x="2023" 
d="M1944 471h-773q-2 -25 -2 -59q0 -242 199 -242q93 0 162 48.5t98 135.5h283q-72 -187 -224.5 -285t-351.5 -98q-267 0 -358 215q-165 -215 -451 -215q-232 0 -356.5 122.5t-124.5 332.5q0 89 23 181t75 184t127.5 163t191 115.5t253.5 44.5q298 0 391 -221
q171 221 455 221q203 0 310 -117.5t107 -306.5q0 -112 -34 -219zM559 170q73 0 134 33t100 85t66 118.5t38.5 130t11.5 122.5q0 119 -56.5 187.5t-160.5 68.5q-73 0 -133.5 -31.5t-99.5 -81.5t-66.5 -114.5t-39 -127.5t-11.5 -124q0 -123 57 -194.5t160 -71.5zM1505 915
q-101 0 -176.5 -65.5t-114.5 -194.5h476q4 20 4 50q0 103 -48.5 156.5t-140.5 53.5z" />
    <glyph glyph-name="Racute" unicode="&#x154;" horiz-adv-x="1320" 
d="M889 1505h-160l191 230h254zM1354 1096q0 -165 -96.5 -271t-262.5 -147q90 -30 125 -125t35 -301q0 -169 41 -252h-305q-17 94 -19 346q0 210 -143 221q-37 2 -108 2h-166l-101 -569h-282l250 1413h516q117 0 204 -10q141 -16 226.5 -92t85.5 -215zM805 782
q105 10 172 70.5t67 175.5q0 141 -155 158q-50 6 -117 6h-207l-73 -412h196q82 0 117 2z" />
    <glyph glyph-name="racute" unicode="&#x155;" horiz-adv-x="765" 
d="M573 1176h-159l202 241h254zM473 887l117 155q43 35 96.5 54.5t101.5 19.5q45 0 78 -8l-41 -227q-75 7 -137.5 -6.5t-119.5 -53.5t-99 -121t-63 -200l-89 -500h-282l190 1085h283z" />
    <glyph glyph-name="Rcommaaccent" unicode="&#x156;" horiz-adv-x="1320" 
d="M1354 1096q0 -165 -96.5 -271t-262.5 -147q90 -30 125 -125t35 -301q0 -169 41 -252h-305q-17 94 -19 346q0 210 -143 221q-37 2 -108 2h-166l-101 -569h-282l250 1413h516q117 0 204 -10q141 -16 226.5 -92t85.5 -215zM805 782q105 10 172 70.5t67 175.5q0 141 -155 158
q-50 6 -117 6h-207l-73 -412h196q82 0 117 2zM453 -88h202v-18l-213 -318h-153z" />
    <glyph glyph-name="rcommaaccent" unicode="&#x157;" horiz-adv-x="765" 
d="M788 1116q45 0 78 -8l-41 -227q-75 7 -137.5 -6.5t-119.5 -53.5t-99 -121t-63 -200l-89 -500h-282l190 1085h283l-35 -198l117 155q43 35 96.5 54.5t101.5 19.5zM82 -88h203v-18l-213 -318h-154z" />
    <glyph glyph-name="Rcaron" unicode="&#x158;" horiz-adv-x="1320" 
d="M711 1505l-93 230h179l41 -133l90 133h178l-172 -230h-223zM1354 1096q0 -165 -96.5 -271t-262.5 -147q90 -30 125 -125t35 -301q0 -169 41 -252h-305q-17 94 -19 346q0 210 -143 221q-37 2 -108 2h-166l-101 -569h-282l250 1413h516q117 0 204 -10q141 -16 226.5 -92
t85.5 -215zM805 782q105 10 172 70.5t67 175.5q0 141 -155 158q-50 6 -117 6h-207l-73 -412h196q82 0 117 2z" />
    <glyph glyph-name="rcaron" unicode="&#x159;" horiz-adv-x="765" 
d="M397 1176l-88 241h176l41 -137l95 137h174l-177 -241h-221zM788 1116q45 0 78 -8l-41 -227q-75 7 -137.5 -6.5t-119.5 -53.5t-99 -121t-63 -200l-89 -500h-282l190 1085h283l-35 -198l117 155q43 35 96.5 54.5t101.5 19.5z" />
    <glyph glyph-name="Sacute" unicode="&#x15a;" horiz-adv-x="1226" 
d="M836 1505h-160l190 230h254zM760 1442q123 0 215.5 -34t147 -94.5t79 -140.5t19.5 -176h-287q6 109 -48.5 171.5t-162.5 62.5q-100 0 -162.5 -53.5t-62.5 -147.5q0 -72 61 -118t203 -81q195 -47 289 -141t94 -241q0 -111 -48.5 -202.5t-132 -151t-193 -92t-232.5 -32.5
q-247 0 -385.5 115t-120.5 332h286q3 -114 72.5 -175t181.5 -61q114 0 189.5 58t75.5 155q0 73 -58.5 123.5t-187.5 83.5q-197 49 -298 132.5t-101 228.5q0 147 80 258t207.5 166t279.5 55z" />
    <glyph glyph-name="sacute" unicode="&#x15b;" horiz-adv-x="995" 
d="M668 1176h-160l203 241h254zM551 1114q206 0 308 -93t108 -251h-281q-16 158 -145 158q-71 0 -108.5 -34t-37.5 -87q0 -61 45.5 -96.5t163.5 -73.5q163 -52 237 -128.5t74 -201.5q0 -159 -129.5 -253.5t-345.5 -94.5q-220 0 -337.5 97.5t-125.5 262.5h283q9 -90 61 -132
t134 -42q72 0 117.5 36.5t45.5 99.5q0 59 -49.5 98.5t-179.5 83.5q-71 23 -119.5 47t-90 60t-61.5 86t-20 116q0 146 119 244t334 98z" />
    <glyph glyph-name="Scedilla" unicode="&#x15e;" horiz-adv-x="1226" 
d="M1221 997h-287q6 109 -48.5 171.5t-162.5 62.5q-100 0 -162.5 -53.5t-62.5 -147.5q0 -72 61 -118t203 -81q195 -47 289 -141t94 -241q0 -140 -76 -246.5t-199.5 -163.5t-277.5 -66l-39 -57q76 -12 116 -50t40 -97q0 -98 -85 -148.5t-216 -50.5q-102 0 -146 16l23 115
q41 -14 110 -14q66 0 101.5 20t35.5 55q0 41 -50 58t-136 8l100 147q-207 21 -318.5 134t-94.5 309h286q3 -114 72.5 -175t181.5 -61q114 0 189.5 58t75.5 155q0 73 -58.5 123.5t-187.5 83.5q-197 49 -298 132.5t-101 228.5q0 147 80 258t207.5 166t279.5 55
q123 0 215.5 -34t147 -94.5t79 -140.5t19.5 -176z" />
    <glyph glyph-name="scedilla" unicode="&#x15f;" horiz-adv-x="995" 
d="M604 637q163 -52 237 -128.5t74 -201.5q0 -158 -128 -252t-341 -96l-30 -43q76 -12 116.5 -50t40.5 -97q0 -98 -85.5 -148.5t-215.5 -50.5q-100 0 -147 16l22 115q43 -14 111 -14q67 0 103 19.5t36 55.5q0 41 -50 58t-136 8l96 141q-157 29 -240.5 121t-89.5 229h283
q9 -90 61 -132t134 -42q72 0 117.5 36.5t45.5 99.5q0 59 -49.5 98.5t-179.5 83.5q-71 23 -119.5 47t-90 60t-61.5 86t-20 116q0 146 119 244t334 98q206 0 308 -93t108 -251h-281q-16 158 -145 158q-71 0 -108.5 -34t-37.5 -87q0 -61 45.5 -96.5t163.5 -73.5z" />
    <glyph glyph-name="Scaron" unicode="&#x160;" horiz-adv-x="1226" 
d="M657 1505l-92 230h178l41 -133l90 133h179l-172 -230h-224zM1221 997h-287q6 109 -48.5 171.5t-162.5 62.5q-100 0 -162.5 -53.5t-62.5 -147.5q0 -72 61 -118t203 -81q195 -47 289 -141t94 -241q0 -111 -48.5 -202.5t-132 -151t-193 -92t-232.5 -32.5q-247 0 -385.5 115
t-120.5 332h286q3 -114 72.5 -175t181.5 -61q114 0 189.5 58t75.5 155q0 73 -58.5 123.5t-187.5 83.5q-197 49 -298 132.5t-101 228.5q0 147 80 258t207.5 166t279.5 55q123 0 215.5 -34t147 -94.5t79 -140.5t19.5 -176z" />
    <glyph glyph-name="scaron" unicode="&#x161;" horiz-adv-x="995" 
d="M492 1176l-89 241h177l41 -137l94 137h174l-176 -241h-221zM604 637q163 -52 237 -128.5t74 -201.5q0 -159 -129.5 -253.5t-345.5 -94.5q-220 0 -337.5 97.5t-125.5 262.5h283q9 -90 61 -132t134 -42q72 0 117.5 36.5t45.5 99.5q0 59 -49.5 98.5t-179.5 83.5
q-71 23 -119.5 47t-90 60t-61.5 86t-20 116q0 146 119 244t334 98q206 0 308 -93t108 -251h-281q-16 158 -145 158q-71 0 -108.5 -34t-37.5 -87q0 -61 45.5 -96.5t163.5 -73.5z" />
    <glyph glyph-name="Tcedilla" unicode="&#x162;" horiz-adv-x="1275" 
d="M649 0l-59 -84q76 -12 115.5 -50t39.5 -97q0 -98 -85 -148.5t-216 -50.5q-101 0 -145 16l23 115q41 -14 110 -14q66 0 101.5 20t35.5 55q0 41 -50 58t-136 8l117 172h-70l211 1192h-481l41 221h1241l-41 -221h-477l-211 -1192h-64z" />
    <glyph glyph-name="tcedilla" unicode="&#x163;" horiz-adv-x="724" 
d="M514 895l-90 -504q-14 -85 -14 -119q0 -63 46 -82.5t148 -5.5l-33 -186q-95 -21 -200 -21h-4l-43 -61q76 -12 116.5 -50t40.5 -97q0 -98 -85.5 -148.5t-215.5 -50.5q-100 0 -147 16l22 115q43 -14 111 -14q67 0 103 19.5t36 55.5q0 41 -50 58t-136 8l112 166
q-118 39 -118 170q0 66 24 194l96 537h-155l33 186h155l47 269h281l-47 -269h215l-33 -186h-215z" />
    <glyph glyph-name="Tcaron" unicode="&#x164;" horiz-adv-x="1275" 
d="M729 1505l-92 230h178l41 -133l90 133h178l-172 -230h-223zM1401 1192h-477l-211 -1192h-283l211 1192h-481l41 221h1241z" />
    <glyph glyph-name="tcaron" unicode="&#x165;" horiz-adv-x="724" 
d="M1004 1522v-17l-216 -317h-151l164 334h203zM547 1081h215l-33 -186h-215l-90 -504q-14 -85 -14 -119q0 -63 46 -82.5t148 -5.5l-33 -186q-95 -21 -200 -21q-134 0 -196 45.5t-62 141.5q0 66 24 194l96 537h-155l33 186h155l47 269h281z" />
    <glyph glyph-name="Tbar" unicode="&#x166;" horiz-adv-x="1329" 
d="M924 1192l-76 -422h215l-29 -160h-213l-108 -610h-283l109 610h-197l29 160h194l76 422h-481l41 221h1241l-41 -221h-477z" />
    <glyph glyph-name="tbar" unicode="&#x167;" horiz-adv-x="724" 
d="M514 895l-35 -190h152l-27 -158h-153l-27 -156q-14 -85 -14 -119q0 -63 46 -82.5t148 -5.5l-33 -186q-95 -21 -200 -21q-134 0 -196 45.5t-62 141.5q0 66 24 194l33 189h-125l27 158h127l34 190h-155l33 186h155l47 269h281l-47 -269h215l-33 -186h-215z" />
    <glyph glyph-name="Umacron" unicode="&#x16a;" horiz-adv-x="1439" 
d="M1206 1554h-559l27 156h559zM1485 1413l-144 -815q-18 -105 -36 -176q-52 -218 -203.5 -334.5t-433.5 -116.5q-256 0 -387 108.5t-131 297.5q0 79 26 239l141 797h283l-151 -860q-17 -96 -17 -145q0 -107 69.5 -166.5t190.5 -59.5q138 0 219 60.5t117 201.5q12 46 23 103
l151 866h283z" />
    <glyph glyph-name="umacron" unicode="&#x16b;" horiz-adv-x="1263" 
d="M1049 1212h-560l27 158h559zM1229 1090l-191 -1090h-282l30 168l-108 -121q-122 -76 -277 -76q-161 0 -245 76t-84 205q0 84 24 217l113 621h283l-105 -572q-20 -114 -20 -178q0 -171 174 -168q113 2 197.5 104.5t123.5 319.5l86 494h281z" />
    <glyph glyph-name="Uring" unicode="&#x16e;" horiz-adv-x="1439" 
d="M973 1855q88 0 141 -46.5t53 -118.5q0 -97 -70 -157t-179 -60q-87 0 -140 46.5t-53 118.5q0 98 70 157.5t178 59.5zM961 1747q-38 0 -66.5 -28t-28.5 -72q0 -30 18 -48t48 -18q38 0 66 28t28 72q0 30 -17.5 48t-47.5 18zM1485 1413l-144 -815q-18 -105 -36 -176
q-52 -218 -203.5 -334.5t-433.5 -116.5q-256 0 -387 108.5t-131 297.5q0 79 26 239l141 797h283l-151 -860q-17 -96 -17 -145q0 -107 69.5 -166.5t190.5 -59.5q138 0 219 60.5t117 201.5q12 46 23 103l151 866h283z" />
    <glyph glyph-name="uring" unicode="&#x16f;" horiz-adv-x="1263" 
d="M762 1159q-88 0 -139.5 45t-51.5 121q0 99 71 164t183 65q87 0 138 -44.5t51 -120.5q0 -99 -71 -164.5t-181 -65.5zM807 1448q-43 0 -68.5 -35t-25.5 -80q0 -31 17 -48t48 -17q43 0 68.5 34.5t25.5 77.5q0 32 -17 50t-48 18zM1229 1090l-191 -1090h-282l30 168l-108 -121
q-122 -76 -277 -76q-161 0 -245 76t-84 205q0 84 24 217l113 621h283l-105 -572q-20 -114 -20 -178q0 -171 174 -168q113 2 197.5 104.5t123.5 319.5l86 494h281z" />
    <glyph glyph-name="Uhungarumlaut" unicode="&#x170;" horiz-adv-x="1439" 
d="M776 1507h-160l193 228h254zM1116 1507h-160l191 228h254zM1485 1413l-144 -815q-18 -105 -36 -176q-52 -218 -203.5 -334.5t-433.5 -116.5q-256 0 -387 108.5t-131 297.5q0 79 26 239l141 797h283l-151 -860q-17 -96 -17 -145q0 -107 69.5 -166.5t190.5 -59.5
q138 0 219 60.5t117 201.5q12 46 23 103l151 866h283z" />
    <glyph glyph-name="uhungarumlaut" unicode="&#x171;" horiz-adv-x="1263" 
d="M633 1176h-160l201 241h254zM823 1176l201 241h254l-295 -241h-160zM948 1090h281l-191 -1090h-282l30 168l-108 -121q-122 -76 -277 -76q-161 0 -245 76t-84 205q0 84 24 217l113 621h283l-105 -572q-20 -114 -20 -178q0 -171 174 -168q113 2 197.5 104.5t123.5 319.5z
" />
    <glyph glyph-name="Uogonek" unicode="&#x172;" horiz-adv-x="1439" 
d="M1485 1413l-144 -815q-18 -105 -36 -176q-43 -185 -158.5 -297t-321.5 -143q-51 -26 -83.5 -83t-32.5 -108q0 -84 73 -84q56 0 107 37l-23 -119q-99 -82 -248 -82q-84 0 -136 38t-52 118q0 164 176 274q-226 13 -341 120t-115 284q0 79 26 239l141 797h283l-151 -860
q-17 -96 -17 -145q0 -107 69.5 -166.5t190.5 -59.5q138 0 219 60.5t117 201.5q12 46 23 103l151 866h283z" />
    <glyph glyph-name="uogonek" unicode="&#x173;" horiz-adv-x="1263" 
d="M1038 0h-57q-73 -7 -123.5 -75t-50.5 -134q0 -84 74 -84q55 0 106 37l-22 -119q-99 -82 -248 -82q-84 0 -136.5 38t-52.5 118q0 91 59 169.5t169 133.5l30 166l-108 -121q-122 -76 -277 -76q-161 0 -245 76t-84 205q0 84 24 217l113 621h283l-105 -572q-20 -114 -20 -178
q0 -171 174 -168q113 2 197.5 104.5t123.5 319.5l86 494h281z" />
    <glyph glyph-name="Wcircumflex" unicode="&#x174;" horiz-adv-x="2023" 
d="M1151 1505h-178l172 230h221l92 -230h-178l-41 131zM2183 1413l-620 -1413h-375l-43 1137l-449 -1137h-377l-112 1413h297l49 -1165l436 1145h404l26 -1157l453 1177h311z" />
    <glyph glyph-name="wcircumflex" unicode="&#x175;" horiz-adv-x="1650" 
d="M874 1176h-174l174 241h222l90 -241h-176l-43 141zM1772 1090l-539 -1090h-322l-37 831l-331 -831h-322l-153 1090h313l45 -838l322 833h342l38 -837l338 842h306z" />
    <glyph glyph-name="Ycircumflex" unicode="&#x176;" horiz-adv-x="1304" 
d="M791 1505h-179l172 230h222l92 -230h-178l-41 131zM825 541l-96 -541h-283l99 551l-346 862h299l231 -625l430 625h318z" />
    <glyph glyph-name="ycircumflex" unicode="&#x177;" horiz-adv-x="1114" 
d="M592 1176h-174l174 241h221l90 -241h-176l-43 141zM1233 1090l-612 -1090q-138 -245 -255 -337.5t-288 -92.5q-58 0 -123 10l33 193q43 -6 86 -6q71 0 123.5 35t95.5 118l12 25l-237 1145h315l117 -863l420 863h313z" />
    <glyph glyph-name="Ydieresis" unicode="&#x178;" horiz-adv-x="1304" 
d="M680 1493q-53 0 -83 28t-30 76q0 63 44 103.5t100 40.5q51 0 80.5 -28t29.5 -77q0 -62 -43.5 -102.5t-97.5 -40.5zM1034 1493q-53 0 -82.5 28t-29.5 76q0 63 43.5 103.5t99.5 40.5q51 0 81 -28t30 -77q0 -62 -44 -102.5t-98 -40.5zM825 541l-96 -541h-283l99 551
l-346 862h299l231 -625l430 625h318z" />
    <glyph glyph-name="Zacute" unicode="&#x179;" horiz-adv-x="1273" 
d="M905 1505h-160l191 230h254zM1325 1194l-926 -971h766l-41 -223h-1118l37 215l934 977h-705l41 221h1051z" />
    <glyph glyph-name="zacute" unicode="&#x17a;" horiz-adv-x="1048" 
d="M698 1176h-159l202 241h254zM1038 895l-708 -707h598l-33 -188h-936l31 178l715 715h-541l31 188h876z" />
    <glyph glyph-name="Zdotaccent" unicode="&#x17b;" horiz-adv-x="1273" 
d="M840 1493q-58 0 -92.5 32.5t-34.5 88.5q0 64 46.5 113t121.5 49q58 0 92.5 -32.5t34.5 -88.5q0 -64 -46 -113t-122 -49zM1325 1194l-926 -971h766l-41 -223h-1118l37 215l934 977h-705l41 221h1051z" />
    <glyph glyph-name="zdotaccent" unicode="&#x17c;" horiz-adv-x="1048" 
d="M643 1196q-63 0 -99 34t-36 93q0 70 47.5 121t128.5 51q62 0 98.5 -34.5t36.5 -92.5q0 -70 -47.5 -121t-128.5 -51zM1038 895l-708 -707h598l-33 -188h-936l31 178l715 715h-541l31 188h876z" />
    <glyph glyph-name="Zcaron" unicode="&#x17d;" horiz-adv-x="1273" 
d="M727 1505l-92 230h178l41 -133l90 133h178l-172 -230h-223zM1325 1194l-926 -971h766l-41 -223h-1118l37 215l934 977h-705l41 221h1051z" />
    <glyph glyph-name="zcaron" unicode="&#x17e;" horiz-adv-x="1048" 
d="M522 1176l-88 241h176l41 -137l94 137h175l-177 -241h-221zM1038 895l-708 -707h598l-33 -188h-936l31 178l715 715h-541l31 188h876z" />
    <glyph glyph-name="Scommaaccent" unicode="&#x218;" horiz-adv-x="1226" 
d="M760 1442q123 0 215.5 -34t147 -94.5t79 -140.5t19.5 -176h-287q6 109 -48.5 171.5t-162.5 62.5q-100 0 -162.5 -53.5t-62.5 -147.5q0 -72 61 -118t203 -81q195 -47 289 -141t94 -241q0 -111 -48.5 -202.5t-132 -151t-193 -92t-232.5 -32.5q-247 0 -385.5 115t-120.5 332
h286q3 -114 72.5 -175t181.5 -61q114 0 189.5 58t75.5 155q0 73 -58.5 123.5t-187.5 83.5q-197 49 -298 132.5t-101 228.5q0 147 80 258t207.5 166t279.5 55zM645 -106l-213 -318h-153l163 336h203v-18z" />
    <glyph glyph-name="scommaaccent" unicode="&#x219;" horiz-adv-x="995" 
d="M551 1114q206 0 308 -93t108 -251h-281q-16 158 -145 158q-71 0 -108.5 -34t-37.5 -87q0 -61 45.5 -96.5t163.5 -73.5q163 -52 237 -128.5t74 -201.5q0 -159 -129.5 -253.5t-345.5 -94.5q-220 0 -337.5 97.5t-125.5 262.5h283q9 -90 61 -132t134 -42q72 0 117.5 36.5
t45.5 99.5q0 59 -49.5 98.5t-179.5 83.5q-71 23 -119.5 47t-90 60t-61.5 86t-20 116q0 146 119 244t334 98zM504 -106l-213 -318h-154l164 336h203v-18z" />
    <glyph glyph-name="uni021A" unicode="&#x21a;" horiz-adv-x="1275" 
d="M1401 1192h-477l-211 -1192h-283l211 1192h-481l41 221h1241zM477 -88h203v-18l-213 -318h-154z" />
    <glyph glyph-name="uni021B" unicode="&#x21b;" horiz-adv-x="724" 
d="M514 895l-90 -504q-14 -85 -14 -119q0 -63 46 -82.5t148 -5.5l-33 -186q-95 -21 -200 -21q-134 0 -196 45.5t-62 141.5q0 66 24 194l96 537h-155l33 186h155l47 269h281l-47 -269h215l-33 -186h-215zM209 -88h203v-18l-213 -318h-154z" />
    <glyph glyph-name="circumflex" unicode="&#x2c6;" horiz-adv-x="614" 
d="M356 1176l-43 141l-92 -141h-174l174 241h221l90 -241h-176z" />
    <glyph glyph-name="caron" unicode="&#x2c7;" horiz-adv-x="614" 
d="M573 1417l-176 -241h-221l-88 241h176l41 -137l94 137h174z" />
    <glyph glyph-name="breve" unicode="&#x2d8;" horiz-adv-x="614" 
d="M426 1419h152q-24 -129 -102.5 -193.5t-192.5 -64.5q-55 0 -96 14.5t-63 39t-34.5 57.5t-11.5 70.5t6 76.5h152q-7 -53 7.5 -82.5t65.5 -29.5q91 0 117 112z" />
    <glyph glyph-name="dotaccent" unicode="&#x2d9;" horiz-adv-x="614" 
d="M332 1495q62 0 98.5 -34.5t36.5 -92.5q0 -70 -47.5 -121t-128.5 -51q-63 0 -99 34t-36 93q0 70 47.5 121t128.5 51z" />
    <glyph glyph-name="ring" unicode="&#x2da;" horiz-adv-x="614" 
d="M340 1554q86 0 137 -44.5t51 -120.5q0 -99 -71 -164.5t-181 -65.5q-88 0 -139 44.5t-51 121.5q0 99 71 164t183 65zM322 1448q-43 0 -69 -35t-26 -80q0 -31 17.5 -48t48.5 -17q43 0 68.5 34.5t25.5 77.5q0 32 -17 50t-48 18z" />
    <glyph glyph-name="ogonek" unicode="&#x2db;" horiz-adv-x="614" 
d="M348 16l195 -16q-73 -7 -123.5 -75t-50.5 -134q0 -84 73 -84q56 0 107 37l-23 -119q-99 -82 -247 -82q-84 0 -136.5 38t-52.5 118q0 97 66.5 179.5t191.5 137.5z" />
    <glyph glyph-name="tilde" unicode="&#x2dc;" horiz-adv-x="614" 
d="M182 1413q66 0 150 -35q63 -24 92 -24q33 0 41 53h143q-22 -118 -62 -167.5t-114 -49.5q-63 0 -149 37q-67 24 -90 24q-34 0 -43 -53h-144q22 117 62 166t114 49z" />
    <glyph glyph-name="hungarumlaut" unicode="&#x2dd;" horiz-adv-x="614" 
d="M158 1176h-160l201 241h254zM508 1176h-160l201 241h254z" />
    <glyph glyph-name="uni0326" unicode="&#x326;" horiz-adv-x="0" 
d="M461 -106l-213 -318h-154l164 336h203v-18z" />
    <glyph glyph-name="Wgrave" unicode="&#x1e80;" horiz-adv-x="2023" 
d="M1153 1505l-207 230h254l113 -230h-160zM2183 1413l-620 -1413h-375l-43 1137l-449 -1137h-377l-112 1413h297l49 -1165l436 1145h404l26 -1157l453 1177h311z" />
    <glyph glyph-name="wgrave" unicode="&#x1e81;" horiz-adv-x="1650" 
d="M885 1176l-211 241h254l116 -241h-159zM1772 1090l-539 -1090h-322l-37 831l-331 -831h-322l-153 1090h313l45 -838l322 833h342l38 -837l338 842h306z" />
    <glyph glyph-name="Wacute" unicode="&#x1e82;" horiz-adv-x="2023" 
d="M1284 1505h-160l191 230h254zM2183 1413l-620 -1413h-375l-43 1137l-449 -1137h-377l-112 1413h297l49 -1165l436 1145h404l26 -1157l453 1177h311z" />
    <glyph glyph-name="wacute" unicode="&#x1e83;" horiz-adv-x="1650" 
d="M1004 1176h-160l203 241h253zM1772 1090l-539 -1090h-322l-37 831l-331 -831h-322l-153 1090h313l45 -838l322 833h342l38 -837l338 842h306z" />
    <glyph glyph-name="Wdieresis" unicode="&#x1e84;" horiz-adv-x="2023" 
d="M1042 1493q-53 0 -82.5 28t-29.5 76q0 63 43.5 103.5t99.5 40.5q51 0 81 -28t30 -77q0 -62 -44 -102.5t-98 -40.5zM1397 1493q-53 0 -83 28t-30 76q0 63 43.5 103.5t99.5 40.5q51 0 81 -28t30 -77q0 -62 -43.5 -102.5t-97.5 -40.5zM2183 1413l-620 -1413h-375l-43 1137
l-449 -1137h-377l-112 1413h297l49 -1165l436 1145h404l26 -1157l453 1177h311z" />
    <glyph glyph-name="wdieresis" unicode="&#x1e85;" horiz-adv-x="1650" 
d="M756 1178q-53 0 -83 28t-30 76q0 63 44.5 104t98.5 41q53 0 83 -27.5t30 -76.5q0 -63 -44.5 -104t-98.5 -41zM1114 1178q-52 0 -81 28t-29 76q0 63 43.5 104t99.5 41q51 0 80.5 -27.5t29.5 -76.5q0 -63 -43.5 -104t-99.5 -41zM1772 1090l-539 -1090h-322l-37 831
l-331 -831h-322l-153 1090h313l45 -838l322 833h342l38 -837l338 842h306z" />
    <glyph glyph-name="Ygrave" unicode="&#x1ef2;" horiz-adv-x="1304" 
d="M793 1505l-207 230h254l112 -230h-159zM825 541l-96 -541h-283l99 551l-346 862h299l231 -625l430 625h318z" />
    <glyph glyph-name="ygrave" unicode="&#x1ef3;" horiz-adv-x="1114" 
d="M602 1176l-211 241h254l117 -241h-160zM1233 1090l-612 -1090q-138 -245 -255 -337.5t-288 -92.5q-58 0 -123 10l33 193q43 -6 86 -6q71 0 123.5 35t95.5 118l12 25l-237 1145h315l117 -863l420 863h313z" />
    <glyph glyph-name="endash" unicode="&#x2013;" horiz-adv-x="1024" 
d="M844 516h-692l28 160h692z" />
    <glyph glyph-name="emdash" unicode="&#x2014;" horiz-adv-x="2048" 
d="M1868 516h-1716l28 160h1716z" />
    <glyph glyph-name="quoteleft" unicode="&#x2018;" horiz-adv-x="526" 
d="M143 899l299 514h230l-256 -536h-275z" />
    <glyph glyph-name="quoteright" unicode="&#x2019;" horiz-adv-x="526" 
d="M598 1391l-299 -514h-229l256 536h274z" />
    <glyph glyph-name="quotesinglbase" unicode="&#x201a;" horiz-adv-x="534" 
d="M336 264l-299 -514h-232l258 537h275z" />
    <glyph glyph-name="quotedblleft" unicode="&#x201c;" horiz-adv-x="964" 
d="M143 899l299 514h230l-256 -536h-275zM582 899l299 514h229l-256 -536h-274z" />
    <glyph glyph-name="quotedblright" unicode="&#x201d;" horiz-adv-x="964" 
d="M598 1391l-299 -514h-229l256 536h274zM1036 1391l-299 -514h-229l256 536h274z" />
    <glyph glyph-name="quotedblbase" unicode="&#x201e;" horiz-adv-x="972" 
d="M336 264l-299 -514h-232l258 537h275zM774 264l-299 -514h-231l258 537h274z" />
    <glyph glyph-name="dagger" unicode="&#x2020;" horiz-adv-x="1191" 
d="M1077 725l-362 12l-166 -1065h-277l211 1065l-370 -12l43 242l366 -13l58 459h276l-102 -459l366 13z" />
    <glyph glyph-name="daggerdbl" unicode="&#x2021;" horiz-adv-x="1130" 
d="M700 737l-69 -389l370 12l-40 -241l-367 12l-57 -459h-277l102 459l-366 -12l41 241l366 -12l70 389l-371 -12l41 242l367 -13l57 459h277l-103 -459l367 13l-41 -242z" />
    <glyph glyph-name="bullet" unicode="&#x2022;" horiz-adv-x="776" 
d="M430 866q94 0 150.5 -50t56.5 -138q0 -127 -81.5 -211t-209.5 -84q-93 0 -150 50t-57 138q0 127 82 211t209 84z" />
    <glyph glyph-name="ellipsis" unicode="&#x2026;" horiz-adv-x="1579" 
d="M193 315q63 0 103 -37t40 -100q0 -93 -57.5 -150t-147.5 -57q-63 0 -103 36.5t-40 98.5q0 93 57.5 151t147.5 58zM715 315q63 0 103 -37t40 -100q0 -93 -57.5 -150t-147.5 -57q-63 0 -103 36.5t-40 98.5q0 93 57.5 151t147.5 58zM1237 315q63 0 103 -37t40 -100
q0 -93 -57 -150t-147 -57q-63 0 -103.5 36.5t-40.5 98.5q0 93 57.5 151t147.5 58z" />
    <glyph glyph-name="perthousand" unicode="&#x2030;" horiz-adv-x="2275" 
d="M440 768q-129 0 -205.5 75.5t-76.5 205.5q0 103 39.5 190.5t124.5 145t202 57.5q128 0 205.5 -75.5t77.5 -205.5q0 -76 -23.5 -145.5t-68 -125.5t-116 -89t-159.5 -33zM1526 1413l-1161 -1413h-248l1163 1413h246zM506 1292q-65 0 -106.5 -70t-41.5 -175q0 -63 25.5 -96
t73.5 -33q65 0 107 70t42 175q0 129 -100 129zM1204 645q128 0 204.5 -75t76.5 -205q0 -76 -23.5 -145.5t-68 -125.5t-116 -89.5t-159.5 -33.5q-128 0 -204 75.5t-76 205.5q0 76 23 145.5t67 125.5t115.5 89t160.5 33zM1892 645q129 0 206 -75.5t77 -204.5
q0 -76 -23.5 -145.5t-68 -125.5t-116 -89.5t-159.5 -33.5q-129 0 -205.5 75.5t-76.5 205.5q0 103 39.5 190.5t124.5 145t202 57.5zM1137 121q65 0 107 70.5t42 175.5q0 63 -26 96t-74 33q-65 0 -107.5 -70.5t-42.5 -175.5q0 -129 101 -129zM1825 121q65 0 107 70.5t42 175.5
q0 129 -100 129q-65 0 -106.5 -70t-41.5 -176q0 -63 25.5 -96t73.5 -33z" />
    <glyph glyph-name="guilsinglleft" unicode="&#x2039;" horiz-adv-x="841" 
d="M444 489l211 -321h-206l-222 340l340 340h236z" />
    <glyph glyph-name="guilsinglright" unicode="&#x203a;" horiz-adv-x="856" 
d="M600 508l-340 -340h-235l358 358l-209 322h205z" />
    <glyph glyph-name="fraction" unicode="&#x2044;" horiz-adv-x="538" 
d="M-178 0h-236l1164 1413h235z" />
    <glyph glyph-name="Euro" unicode="&#x20ac;" 
d="M901 1231q-286 0 -383 -313h512l-51 -160h-496q-8 -70 -10 -107h473l-47 -159h-426q13 -169 85 -239.5t200 -70.5q176 0 325 82l-39 -215q-86 -41 -170.5 -59.5t-197.5 -18.5q-476 0 -498 521h-170l49 159h123q3 47 13 107h-103l49 160h88q27 88 66 163.5t99 143t135 115
t176.5 75t220.5 27.5q252 0 354 -127l-135 -176q-99 92 -242 92z" />
    <glyph glyph-name="trademark" unicode="&#x2122;" horiz-adv-x="1101" 
d="M328 1264l-58 -330h-114l57 330h-147l14 88h412l-15 -88h-149zM1032 1350l-74 -416h-114l55 291l-125 -283h-117l-26 281l-49 -289h-115l74 416h172l22 -301l125 301h172z" />
    <glyph glyph-name="partialdiff" unicode="&#x2202;" 
d="M748 1552q241 0 356 -145t115 -410q0 -108 -10 -209.5t-33 -205t-58.5 -192.5t-89.5 -167t-122.5 -133.5t-161 -87t-201.5 -31.5q-213 0 -337 110t-124 329q0 98 20.5 187.5t66 169.5t111.5 139t163 93.5t214 34.5q203 0 265 -125q4 74 4 103q0 164 -59 247.5t-191 83.5
q-152 0 -295 -94l-66 178q110 67 209.5 96t223.5 29zM573 180q122 0 202.5 133t117.5 365q-24 78 -80.5 111.5t-146.5 33.5q-72 0 -127.5 -34.5t-89 -93.5t-50 -132t-16.5 -155q0 -111 50.5 -169.5t139.5 -58.5z" />
    <glyph glyph-name="emptyset" unicode="&#x2205;" horiz-adv-x="1716" 
d="M1663 1393l-164 -164q170 -220 170 -502q0 -169 -64.5 -321t-173.5 -260.5t-258.5 -172t-314.5 -63.5q-282 0 -504 174l-184 -184l-117 116l183 183q-189 228 -189 528q0 169 64.5 321t173.5 260.5t258.5 172t314.5 63.5q148 0 283.5 -50.5t244.5 -143.5l160 159z
M227 727q0 -228 131 -405l908 907q-174 153 -408 153q-129 0 -246 -51t-201.5 -138t-134 -208.5t-49.5 -257.5zM858 72q173 0 317.5 85.5t229 236.5t84.5 333q0 213 -113 379l-901 -901q168 -133 383 -133z" />
    <glyph glyph-name="product" unicode="&#x220f;" 
d="M1288 1192h-119l-251 -1417h-283l252 1417h-334l-252 -1417h-283l252 1417h-123l41 221h1141z" />
    <glyph glyph-name="summation" unicode="&#x2211;" 
d="M1243 1192h-686l365 -584l-629 -612h754l-41 -221h-1082l39 207l641 634l-364 590l39 207h1005z" />
    <glyph glyph-name="minus" unicode="&#x2212;" 
d="M1073 571h-895l27 160h895z" />
    <glyph glyph-name="radical" unicode="&#x221a;" 
d="M1366 1597l-791 -1925h-219l-116 811h-154l27 152h288l97 -770l692 1732h176z" />
    <glyph glyph-name="infinity" unicode="&#x221e;" horiz-adv-x="2082" 
d="M1585 1114q214 0 330.5 -128.5t116.5 -356.5q0 -93 -22.5 -185t-72.5 -177.5t-120.5 -151t-174.5 -105t-227 -39.5q-163 0 -271 65.5t-161 209.5q-102 -147 -215.5 -211t-265.5 -64q-213 0 -332 129.5t-119 356.5q0 93 23 184.5t73 177.5t121.5 151t176.5 104.5t229 39.5
q337 0 436 -272q100 146 212 209t263 63zM881 543q3 196 -53 284t-164 88q-76 0 -138 -44.5t-98.5 -114t-56 -145t-19.5 -144.5q0 -141 53 -219t150 -78t184.5 91t141.5 282zM1425 170q75 0 136 44.5t96.5 114t54.5 144.5t19 145q0 141 -51 219t-146 78q-98 0 -185 -91
t-139 -281q-4 -197 51 -285t164 -88z" />
    <glyph glyph-name="integral" unicode="&#x222b;" 
d="M911 1544q110 0 170 -45l-59 -151q-46 36 -121 36q-203 0 -203 -340q0 -147 39 -421q37 -260 37 -447q0 -86 -13.5 -160t-43.5 -138t-75 -109t-111.5 -71t-149.5 -26q-110 0 -170 45l57 152q50 -37 123 -37q203 0 203 340q0 148 -39 422q-37 241 -37 446q0 86 13.5 160
t43.5 138t75 109t111.5 71t149.5 26z" />
    <glyph glyph-name="approxequal" unicode="&#x2248;" horiz-adv-x="1226" 
d="M459 963q56 0 99 -17t130 -67q70 -41 106 -56.5t72 -15.5q95 0 181 96l90 -100q-71 -91 -143.5 -130.5t-157.5 -39.5q-59 0 -104 17.5t-128 66.5q-70 41 -105 56t-73 15q-95 0 -180 -98l-88 107q71 89 143.5 127.5t157.5 38.5zM393 590q57 0 102 -18t128 -66
q70 -41 106 -56.5t74 -15.5q92 0 178 96l88 -100q-72 -91 -143.5 -130.5t-157.5 -39.5q-57 0 -101.5 17.5t-127.5 66.5q-70 42 -106 57t-73 15q-49 0 -91.5 -23.5t-88.5 -75.5l-88 107q71 89 143.5 127.5t157.5 38.5z" />
    <glyph glyph-name="notequal" unicode="&#x2260;" 
d="M803 776l-182 -258h469l-27 -151h-549l-145 -205h-179l144 205h-209l27 151h290l181 258h-426l26 152h508l143 205h181l-146 -205h252l-24 -152h-334z" />
    <glyph glyph-name="lessequal" unicode="&#x2264;" 
d="M1141 870l-754 -229l672 -231l-31 -181l-829 308l39 215l936 307zM133 160h883l-29 -160h-883z" />
    <glyph glyph-name="greaterequal" unicode="&#x2265;" 
d="M1092 752l-39 -215l-926 -308l33 191l743 227l-661 234l30 178zM115 160h870l-27 -160h-872z" />
    <glyph glyph-name="lozenge" unicode="&#x25ca;" horiz-adv-x="1095" 
d="M995 707l-456 -707h-232l-207 707l457 706h231zM784 707l-143 524l-330 -524l144 -525z" />
    <glyph glyph-name="a.alt" horiz-adv-x="1327" 
d="M1294 1090l-190 -1090h-283l29 166l-102 -119q-110 -76 -283 -76q-201 0 -310.5 116.5t-109.5 320.5q0 108 25 210.5t77.5 193.5t127.5 159t182 107.5t233 39.5q70 0 140 -19t106 -50l49 -113l27 154h282zM915 532l11 54q7 52 7 100t-16 91t-42.5 74.5t-71 50
t-103.5 18.5q-106 0 -188 -68.5t-124 -176t-42 -231.5q0 -133 56.5 -203.5t166.5 -70.5q61 0 114 20t99.5 61.5t81 113t51.5 167.5z" />
    <glyph glyph-name="braceleft.001" horiz-adv-x="763" 
d="M809 1597l-29 -159h-37q-41 0 -67 -6t-48.5 -22.5t-34 -48t-17.5 -81.5t-5 -125q3 -201 -46 -307t-183 -131q145 -27 145 -158q0 -103 -69 -280q-41 -107 -52.5 -145t-11.5 -68q0 -38 32 -54t103 -16h35l-26 -160h-68q-122 0 -184 51.5t-62 147.5q0 48 13 93t61 171
q57 148 57 233q0 95 -145 105l29 160q65 5 102 19t62.5 51.5t34.5 100t8 167.5q-1 186 29 283.5t100.5 138t205.5 40.5h68z" />
    </font>
</defs>
</svg>
