<?xml version="1.0" standalone="no"?>
<!DOCTYPE svg PUBLIC "-//W3C//DTD SVG 1.1//EN" "http://www.w3.org/Graphics/SVG/1.1/DTD/svg11.dtd" >
<svg xmlns="http://www.w3.org/2000/svg" xmlns:xlink="http://www.w3.org/1999/xlink" version="1.1">
<metadata>
Created by FontForge 20170731 at Wed Dec 14 12:20:11 2022
 By Aleksey,,,
No Rights Reserved.
</metadata>
<defs>
<font id="Aileron-Heavy" horiz-adv-x="1314" >
  <font-face 
    font-family="Aileron Heavy"
    font-weight="900"
    font-stretch="normal"
    units-per-em="2048"
    panose-1="0 0 10 0 0 0 0 0 0 0"
    ascent="1577"
    descent="-471"
    x-height="1083"
    cap-height="1413"
    bbox="-231 -457 2241 1880"
    underline-thickness="102"
    underline-position="-307"
    unicode-range="U+0020-FB02"
  />
<missing-glyph horiz-adv-x="1024" 
d="M0 0v1434h1024v-1434h-1024zM512 809l348 522h-696zM573 717l349 -522v1044zM164 102h696l-348 523zM102 1239v-1044l349 522z" />
    <glyph glyph-name="fi" unicode="fi" horiz-adv-x="1290" 
d="M1167 1083v-1083h-319v879h-371v-879h-319v879h-117v204h117v15q0 84 2 121q7 79 37 137t89.5 101t157 65t234.5 22q77 0 170 -14v-217q-138 9 -216 -1.5t-111.5 -39t-39.5 -82.5q-4 -29 -4 -88v-19h690z" />
    <glyph glyph-name="fl" unicode="fl" horiz-adv-x="1300" 
d="M1143 272q4 -48 31 -64t92 -11v-203q-102 -12 -207 -12q-107 0 -169.5 49t-68.5 153q-2 53 -2 183v942q-48 14 -129 14q-217 0 -229 -133q-4 -29 -4 -88v-19h223v-204h-223v-879h-320v879h-96v204h96v15q0 69 2 106q7 79 39.5 139.5t96.5 106.5t169 70t248 24
q279 0 447 -57v-1114q0 -72 4 -101z" />
    <glyph glyph-name=".notdef" horiz-adv-x="1024" 
d="M0 0v1434h1024v-1434h-1024zM512 809l348 522h-696zM573 717l349 -522v1044zM164 102h696l-348 523zM102 1239v-1044l349 522z" />
    <glyph glyph-name=".null" horiz-adv-x="0" 
 />
    <glyph glyph-name="nonmarkingreturn" horiz-adv-x="682" 
 />
    <glyph glyph-name="space" unicode=" " horiz-adv-x="380" 
 />
    <glyph glyph-name="exclam" unicode="!" horiz-adv-x="555" 
d="M403 416h-251l-25 997h301zM276 311q75 0 124 -47.5t49 -122.5t-49 -122.5t-124 -47.5t-122.5 47.5t-47.5 122.5t47.5 122.5t122.5 47.5z" />
    <glyph glyph-name="quotedbl" unicode="&#x22;" horiz-adv-x="802" 
d="M336 924h-217l-31 581h277zM698 924h-217l-28 581h276z" />
    <glyph glyph-name="numbersign" unicode="#" 
d="M956 817l-47 -219h199v-176h-236l-90 -422h-186l90 422h-180l-90 -422h-187l90 422h-174v176h211l47 219h-196v176h233l90 420h187l-90 -420h180l90 420h186l-90 -420h176v-176h-213zM770 817h-180l-47 -219h180z" />
    <glyph glyph-name="dollar" unicode="$" 
d="M1221 381q0 -173 -127 -279t-334 -127v-159h-185v159q-213 19 -339 125t-144 303h307q13 -78 59 -127.5t117 -68.5v375q-106 36 -180.5 74.5t-131.5 90t-85 118t-28 151.5q0 94 34 171t93.5 127t134.5 81t163 41v161h185v-159q207 -22 319 -135t135 -293h-309
q-19 156 -145 196v-358q248 -79 354.5 -185t106.5 -282zM446 1051q0 -66 31 -104t98 -64v327q-61 -15 -95 -56t-34 -103zM760 539v-338q149 28 149 161q0 60 -34 104t-115 73z" />
    <glyph glyph-name="percent" unicode="%" horiz-adv-x="1581" 
d="M391 1440q150 0 236 -90t86 -250q0 -161 -86 -251.5t-236 -90.5q-151 0 -236 90.5t-85 251.5t85 250.5t236 89.5zM457 0h-234l916 1413h233zM391 1280q-112 0 -112 -180q0 -182 112 -182q55 0 84 47t29 135q0 180 -113 180zM1190 653q151 0 236 -89.5t85 -250.5
t-85 -251.5t-236 -90.5q-150 0 -236 90.5t-86 251.5q0 160 86 250t236 90zM1190 494q-55 0 -84 -46.5t-29 -134.5t29 -135t84 -47q113 0 113 182q0 181 -113 181z" />
    <glyph glyph-name="ampersand" unicode="&#x26;" horiz-adv-x="1392" 
d="M1382 842v-250h-190v-567q-241 -54 -516 -54q-130 0 -230.5 19.5t-180.5 63.5t-122.5 121.5t-42.5 186.5q0 145 91 239.5t247 121.5q-116 33 -187 118t-71 199q0 191 142.5 296.5t396.5 105.5q123 0 215 -21v-233q-96 16 -209 16q-207 0 -207 -178q0 -89 48.5 -133
t129.5 -49q37 -2 117 -2h57v176h322v-176h190zM438 403q0 -107 61.5 -150.5t184.5 -43.5q99 0 186 16v367h-82q-67 0 -108 -2q-119 -7 -180.5 -55.5t-61.5 -131.5z" />
    <glyph glyph-name="quotesingle" unicode="'" horiz-adv-x="428" 
d="M313 924h-217l-28 581h276z" />
    <glyph glyph-name="parenleft" unicode="(" horiz-adv-x="780" 
d="M537 1597h165q-270 -399 -270 -880q0 -482 270 -881h-165q-304 345 -304 881q0 535 304 880z" />
    <glyph glyph-name="parenright" unicode=")" horiz-adv-x="776" 
d="M72 1597h166q301 -345 301 -880q0 -536 -301 -881h-166q270 399 270 881q0 481 -270 880z" />
    <glyph glyph-name="asterisk" unicode="*" horiz-adv-x="1255" 
d="M707 659l268 117l63 -201l-286 -65l211 -244l-170 -123l-166 271l-164 -271l-170 123l211 244l-287 65l64 201l268 -117l-27 314h211z" />
    <glyph glyph-name="plus" unicode="+" 
d="M1110 567h-360v-407h-185v407h-360v164h360v408h185v-408h360v-164z" />
    <glyph glyph-name="comma" unicode="," horiz-adv-x="522" 
d="M412 295l-213 -547h-254l161 567h306v-20z" />
    <glyph glyph-name="hyphen" unicode="-" horiz-adv-x="622" 
d="M557 492h-491v176h491v-176z" />
    <glyph glyph-name="period" unicode="." horiz-adv-x="522" 
d="M266 344q83 0 135 -51.5t52 -134.5q0 -82 -52 -134.5t-135 -52.5q-82 0 -134 52.5t-52 134.5q0 83 52 134.5t134 51.5z" />
    <glyph glyph-name="slash" unicode="/" horiz-adv-x="686" 
d="M182 -61h-192l514 1536h192z" />
    <glyph glyph-name="zero" unicode="0" 
d="M657 1442q566 0 566 -735q0 -736 -566 -736q-565 0 -565 736q0 176 31.5 309t98.5 230t176 146.5t259 49.5zM657 209q117 0 172.5 118.5t55.5 379.5q0 263 -55.5 380t-172.5 117t-172 -117t-55 -380q0 -261 55 -379.5t172 -118.5z" />
    <glyph glyph-name="one" unicode="1" 
d="M989 1413v-1413h-321v1077l-420 -225v293l338 196q126 72 254 72h149z" />
    <glyph glyph-name="two" unicode="2" 
d="M616 252h564v-252h-1059v145l461 445q154 147 213 237t59 189q0 89 -47.5 140.5t-134.5 51.5q-93 0 -142.5 -59t-60.5 -180l-2 -21h-322l2 21q23 231 164 354t389 123q235 0 363.5 -111.5t128.5 -302.5q0 -129 -73 -246t-273 -311z" />
    <glyph glyph-name="three" unicode="3" 
d="M909 748q297 -65 297 -334q0 -201 -154 -322t-407 -121q-252 0 -399.5 117t-169.5 332l-2 20h321l2 -20q15 -95 79 -153t163 -58q103 0 166 54t63 140q0 98 -66.5 150t-193.5 57h-51v215l51 2q106 6 167 61.5t61 143.5q0 79 -48.5 125.5t-132.5 46.5q-86 0 -136 -56.5
t-58 -148.5l-2 -20h-320l2 20q10 93 48 172.5t104.5 140.5t167.5 95.5t227 34.5q233 0 359.5 -105.5t126.5 -267.5q0 -124 -67 -206.5t-198 -114.5z" />
    <glyph glyph-name="four" unicode="4" 
d="M1243 326h-174v-326h-321v326h-672v174l647 913h346v-835h174v-252zM748 578v485q-56 -95 -86 -139l-246 -346h332z" />
    <glyph glyph-name="five" unicode="5" 
d="M739 954q218 0 343.5 -128.5t125.5 -352.5q0 -119 -45.5 -216t-123 -158.5t-175 -94.5t-205.5 -33q-248 0 -382.5 102t-157.5 318l-2 21h321l2 -21q26 -182 201 -182q110 0 169.5 69t59.5 185q0 114 -59.5 184t-163.5 70q-78 0 -128 -35t-81 -111h-297l103 842h907v-250
h-643l-51 -356l63 94q90 53 219 53z" />
    <glyph glyph-name="six" unicode="6" 
d="M752 948q114 0 203.5 -35.5t145.5 -98t84.5 -144.5t28.5 -178q0 -162 -77 -282.5t-200.5 -179.5t-272.5 -59q-280 0 -420 170.5t-140 528.5q0 187 44 334.5t123.5 242.5t188.5 145t240 50q219 0 346.5 -107t151.5 -295l2 -20h-323l-5 20q-23 85 -69 124.5t-121 39.5
q-236 0 -250 -461l68 127q55 44 114 61t138 17zM659 209q101 0 159.5 70t58.5 174q0 118 -57.5 188t-162.5 70q-91 0 -152 -66.5t-61 -183.5q0 -113 58.5 -182.5t156.5 -69.5z" />
    <glyph glyph-name="seven" unicode="7" 
d="M1225 1413v-174l-668 -1239h-350l637 1163h-731v250h1112z" />
    <glyph glyph-name="eight" unicode="8" 
d="M944 750q116 -38 192 -128.5t76 -222.5q0 -112 -43.5 -196.5t-121 -134.5t-176.5 -74.5t-218 -24.5q-260 0 -406.5 104.5t-146.5 325.5q0 131 78.5 220.5t196.5 130.5q-207 73 -207 297q0 178 134.5 286.5t373.5 108.5q237 0 370.5 -108.5t133.5 -286.5
q0 -116 -66 -189.5t-170 -107.5zM672 1204q-78 0 -126 -46t-48 -124q0 -85 45 -131.5t127 -46.5q83 0 131.5 47t48.5 131q0 78 -47.5 124t-130.5 46zM657 207q112 0 167 53.5t55 149.5t-58.5 154.5t-165.5 58.5q-99 0 -159 -57.5t-60 -151.5q0 -97 58 -152t163 -55z" />
    <glyph glyph-name="nine" unicode="9" 
d="M651 1442q279 0 418 -170t139 -529q0 -373 -161 -572.5t-435 -199.5q-223 0 -349.5 107t-145.5 297l-2 20h323l4 -20q19 -86 65 -126t126 -40q236 0 250 463l-70 -129q-55 -43 -113.5 -60.5t-136.5 -17.5q-92 0 -168.5 23.5t-130.5 65t-91.5 99t-55 125t-17.5 144.5
q0 122 44.5 222t121 164.5t175.5 99t210 34.5zM657 702q90 0 150.5 66.5t60.5 183.5q0 114 -58 183t-157 69t-157 -69.5t-58 -173.5q0 -118 56.5 -188.5t162.5 -70.5z" />
    <glyph glyph-name="colon" unicode=":" horiz-adv-x="522" 
d="M266 1120q83 0 135 -51.5t52 -134.5q0 -82 -52 -134t-135 -52q-82 0 -134 52t-52 134q0 83 52 134.5t134 51.5zM266 344q83 0 135 -51.5t52 -134.5q0 -82 -52 -134.5t-135 -52.5q-82 0 -134 52.5t-52 134.5q0 83 52 134.5t134 51.5z" />
    <glyph glyph-name="semicolon" unicode=";" horiz-adv-x="522" 
d="M266 1120q83 0 135 -51.5t52 -134.5q0 -82 -52 -134t-135 -52q-82 0 -134 52t-52 134q0 83 52 134.5t134 51.5zM412 285l-213 -537h-254l161 574h306v-37z" />
    <glyph glyph-name="less" unicode="&#x3c;" 
d="M1147 823l-727 -278l727 -281v-217l-930 375v244l930 374v-217z" />
    <glyph glyph-name="equal" unicode="=" 
d="M1141 772h-967v164h967v-164zM1141 362h-967v164h967v-164z" />
    <glyph glyph-name="greater" unicode="&#x3e;" 
d="M1071 666v-244l-928 -375v215l725 281l-725 278v219z" />
    <glyph glyph-name="question" unicode="?" horiz-adv-x="1161" 
d="M588 1442q228 0 355.5 -103.5t127.5 -285.5q0 -115 -50.5 -201t-166.5 -186q-84 -73 -116.5 -123t-39.5 -127h-268q4 111 35.5 180.5t105.5 151.5q92 99 127 158.5t35 121.5q0 86 -42 131t-124 45q-168 0 -180 -223h-324q6 214 147.5 337.5t377.5 123.5zM567 311
q75 0 123.5 -47.5t48.5 -122.5t-48.5 -122.5t-123.5 -47.5t-122.5 47.5t-47.5 122.5t47.5 122.5t122.5 47.5z" />
    <glyph glyph-name="at" unicode="@" horiz-adv-x="1865" 
d="M1403 963l-82 -338q-31 -137 -31 -187q0 -119 82 -119q86 0 144.5 98.5t58.5 276.5q0 258 -153.5 402.5t-413.5 144.5q-135 0 -262 -49.5t-228.5 -138.5t-163 -227.5t-61.5 -303.5q0 -283 160.5 -443.5t447.5 -160.5q279 0 471 141l68 -155q-129 -84 -275.5 -124
t-287.5 -40q-113 0 -221.5 26.5t-211 86t-179 147t-123 219t-46.5 291.5q0 262 124.5 471.5t333.5 323.5t460 114q178 0 324 -57.5t240 -156t145 -225.5t51 -269q0 -149 -38 -261.5t-104.5 -178t-149 -97t-179.5 -31.5q-110 0 -184 48.5t-101 142.5l-57 -119
q-85 -68 -187 -68q-56 0 -103.5 17t-88.5 55t-64.5 107t-23.5 163q0 143 50.5 259t143 183.5t209.5 67.5q115 0 162 -57l31 -111l40 132h273zM881 369q48 0 80 39.5t47 101.5l28 129q15 68 -4.5 103.5t-66.5 35.5q-73 0 -121.5 -76.5t-48.5 -189.5q0 -143 86 -143z" />
    <glyph glyph-name="A" unicode="A" horiz-adv-x="1413" 
d="M954 399h-460l-132 -399h-342l510 1413h398l504 -1413h-349zM725 1135l-152 -484h301z" />
    <glyph glyph-name="B" unicode="B" horiz-adv-x="1368" 
d="M1040 764q267 -70 267 -340q0 -94 -34.5 -171t-92.5 -126.5t-126 -79t-143 -39.5q-70 -8 -200 -8h-537v1413h539q110 0 182 -8q170 -22 265 -117.5t95 -238.5q0 -210 -215 -285zM496 1163v-319h192q50 0 94 6q138 22 138 156q0 131 -140 151q-44 6 -98 6h-186zM813 254
q67 5 112.5 51.5t45.5 122.5q0 82 -45.5 126t-118.5 50q-33 4 -98 4h-213v-356h225q65 0 92 2z" />
    <glyph glyph-name="C" unicode="C" horiz-adv-x="1484" 
d="M799 1442q143 0 257.5 -37t190 -103.5t119.5 -155t55 -194.5l2 -20h-321l-4 20q-51 252 -303 252q-158 0 -254.5 -128.5t-96.5 -358.5q0 -253 97.5 -380.5t251.5 -127.5q122 0 198 70t101 198l4 21h321l-2 -21q-25 -238 -195 -372t-440 -134q-145 0 -268.5 49t-213.5 140
t-141 229.5t-51 308.5q0 174 53.5 316t147 235t220 143t272.5 50z" />
    <glyph glyph-name="D" unicode="D" horiz-adv-x="1513" 
d="M862 1405q126 -14 231 -61.5t186.5 -128.5t127 -206t45.5 -284t-46 -289.5t-127 -218.5t-187.5 -141t-231.5 -68q-72 -8 -180 -8h-506v1413h508q108 0 180 -8zM782 256q152 18 242 141t90 324q0 195 -88.5 306.5t-241.5 129.5q-71 6 -143 6h-145v-911h143q96 0 143 4z
" />
    <glyph glyph-name="E" unicode="E" horiz-adv-x="1282" 
d="M1223 252v-252h-1049v1413h1028v-250h-706v-329h659v-250h-659v-332h727z" />
    <glyph glyph-name="F" unicode="F" horiz-adv-x="1234" 
d="M496 1163v-329h639v-250h-639v-584h-322v1413h1028v-250h-706z" />
    <glyph glyph-name="G" unicode="G" horiz-adv-x="1529" 
d="M834 735h591v-735h-254l-24 223l-64 -147q-60 -55 -139.5 -80t-195.5 -25q-293 0 -467.5 193t-174.5 534q0 174 55.5 316t151.5 235t224.5 143t275.5 50q283 0 441.5 -135t181.5 -355l2 -20h-320l-4 20q-51 252 -305 252q-160 0 -262.5 -129.5t-102.5 -357.5
q0 -253 100.5 -380.5t260.5 -127.5q124 0 205.5 71t109.5 205h-286v250z" />
    <glyph glyph-name="H" unicode="H" horiz-adv-x="1556" 
d="M1434 1413v-1413h-320v567h-618v-567h-322v1413h322v-594h618v594h320z" />
    <glyph glyph-name="I" unicode="I" horiz-adv-x="618" 
d="M496 0h-322v1413h322v-1413z" />
    <glyph glyph-name="J" unicode="J" horiz-adv-x="1259" 
d="M1151 1413v-819q0 -107 -6 -203q-11 -194 -140.5 -307t-381.5 -113q-256 0 -384.5 128.5t-134.5 359.5l-2 67h320l4 -67q9 -134 62 -192t149 -58q172 0 188 201q4 47 4 143v860h322z" />
    <glyph glyph-name="K" unicode="K" horiz-adv-x="1454" 
d="M838 741l594 -741h-408l-420 561l-108 -121v-440h-322v1413h322v-655l577 655h383z" />
    <glyph glyph-name="L" unicode="L" horiz-adv-x="1259" 
d="M1223 270v-270h-1049v1413h322v-1143h727z" />
    <glyph glyph-name="M" unicode="M" horiz-adv-x="1861" 
d="M1739 1413v-1413h-322v627q0 324 4 469q-50 -249 -116 -467l-179 -629h-340l-182 629q-72 248 -112 465q4 -145 4 -467v-627h-322v1413h504l285 -1108l284 1108h492z" />
    <glyph glyph-name="N" unicode="N" horiz-adv-x="1587" 
d="M1464 0h-428l-553 1012q13 -195 13 -398v-614h-322v1413h412l569 -1040q-10 184 -10 411v629h319v-1413z" />
    <glyph glyph-name="O" unicode="O" horiz-adv-x="1587" 
d="M817 1442q326 0 517.5 -199t191.5 -536q0 -336 -191.5 -536t-517.5 -200q-327 0 -519 200t-192 536q0 337 191.5 536t519.5 199zM817 209q176 0 276.5 131.5t100.5 366.5q0 236 -100.5 366.5t-276.5 130.5q-178 0 -278.5 -130.5t-100.5 -366.5q0 -235 100.5 -366.5
t278.5 -131.5z" />
    <glyph glyph-name="P" unicode="P" horiz-adv-x="1296" 
d="M895 1403q168 -20 276.5 -133t108.5 -305q0 -97 -31 -177.5t-85 -134t-122 -85.5t-147 -42q-90 -10 -211 -10h-188v-516h-322v1413h510q121 0 211 -10zM784 772q75 9 117.5 57t42.5 136t-42.5 135.5t-117.5 56.5q-29 4 -112 4h-176v-393h176q83 0 112 4z" />
    <glyph glyph-name="Q" unicode="Q" horiz-adv-x="1591" 
d="M1323 233q114 -28 233 -129l-157 -204q-97 62 -157.5 83t-129.5 21q-64 0 -149 -18q-67 -15 -146 -15q-327 0 -519 200t-192 536q0 338 191.5 537.5t519.5 199.5q326 0 517.5 -199.5t191.5 -537.5q0 -142 -51.5 -265.5t-151.5 -208.5zM438 707q0 -235 100.5 -366.5
t278.5 -131.5q176 0 276.5 131.5t100.5 366.5q0 236 -100.5 367.5t-276.5 131.5q-178 0 -278.5 -131t-100.5 -368z" />
    <glyph glyph-name="R" unicode="R" horiz-adv-x="1363" 
d="M1233 350q14 -126 38 -207.5t66 -142.5h-350q-51 143 -67 301q-28 240 -185 252q-39 2 -112 2h-127v-555h-322v1413h537q121 0 213 -10q80 -10 145.5 -35t118 -68.5t81.5 -112.5t29 -159q0 -133 -72.5 -221t-207.5 -127q103 -38 152.5 -119.5t62.5 -210.5zM496 791h166
q79 0 108 2q193 19 193 184q0 90 -47 131t-134 51q-58 4 -108 4h-178v-372z" />
    <glyph glyph-name="S" unicode="S" horiz-adv-x="1261" 
d="M655 1442q128 0 227.5 -34.5t163 -97t100 -142.5t48.5 -179h-324q-12 101 -69 158t-156 57q-78 0 -125 -37.5t-47 -111.5q0 -81 65.5 -129.5t233.5 -87.5q230 -55 338.5 -165t108.5 -280q0 -100 -44 -181t-119.5 -133t-172 -80t-203.5 -28q-266 0 -424 114.5t-176 338.5
h323q21 -105 95.5 -160t175.5 -55q90 0 149.5 43.5t59.5 114.5q0 76 -59 127t-199 84q-97 24 -168 49.5t-134 62.5t-102 82.5t-61.5 108.5t-22.5 143q0 128 73 224.5t189.5 145t255.5 48.5z" />
    <glyph glyph-name="T" unicode="T" horiz-adv-x="1284" 
d="M1300 1163h-471v-1163h-319v1163h-471v250h1261v-250z" />
    <glyph glyph-name="U" unicode="U" horiz-adv-x="1452" 
d="M1358 1413v-817q0 -106 -6 -180q-6 -93 -42.5 -170.5t-105.5 -140.5t-183.5 -98.5t-264.5 -35.5t-264.5 35.5t-184 98.5t-106 140.5t-43.5 170.5q-4 74 -4 180v817h319v-864q0 -65 2 -94q9 -118 80 -182t201 -64t200 64t78 182q4 29 4 94v864h320z" />
    <glyph glyph-name="V" unicode="V" horiz-adv-x="1458" 
d="M967 0h-398l-503 1413h348l358 -1165l365 1165h340z" />
    <glyph glyph-name="W" unicode="W" horiz-adv-x="2048" 
d="M2064 1413l-368 -1413h-426l-213 1145l-228 -1145h-428l-348 1413h344l217 -1163l220 1143h456l213 -1153l232 1173h329z" />
    <glyph glyph-name="X" unicode="X" horiz-adv-x="1421" 
d="M1051 0l-328 510l-305 -510h-383l506 713l-471 700h372l293 -500l314 500h368l-493 -694l501 -719h-374z" />
    <glyph glyph-name="Y" unicode="Y" horiz-adv-x="1316" 
d="M850 545v-545h-320v541l-499 872h362l307 -590l295 590h353z" />
    <glyph glyph-name="Z" unicode="Z" horiz-adv-x="1298" 
d="M1241 252v-252h-1137v244l742 919h-684v250h1069v-248l-733 -913h743z" />
    <glyph glyph-name="bracketleft" unicode="[" horiz-adv-x="786" 
d="M721 1597v-176h-320v-1409h320v-176h-504v1761h504z" />
    <glyph glyph-name="backslash" unicode="\" horiz-adv-x="686" 
d="M696 -61h-192l-514 1536h192z" />
    <glyph glyph-name="bracketright" unicode="]" horiz-adv-x="780" 
d="M563 -164h-502v176h320v1409h-320v176h502v-1761z" />
    <glyph glyph-name="asciicircum" unicode="^" 
d="M905 440l-250 643l-252 -643h-202l350 822h211l350 -822h-207z" />
    <glyph glyph-name="underscore" unicode="_" horiz-adv-x="1024" 
d="M922 -180h-820v176h820v-176z" />
    <glyph glyph-name="grave" unicode="`" horiz-adv-x="614" 
d="M430 1174h-176l-283 249h287z" />
    <glyph glyph-name="a" unicode="a" horiz-adv-x="1173" 
d="M758 0l-23 160l-49 -117q-115 -72 -270 -72q-94 0 -172.5 36t-128 110t-49.5 174q0 180 154.5 278.5t441.5 98.5h69v18q0 57 -4 94q-5 52 -44 85.5t-108 33.5q-74 0 -115.5 -44t-47.5 -126h-308q3 122 68.5 211.5t173.5 134.5t242 45q118 0 205 -24.5t139 -71t79 -105.5
t33 -135q7 -89 7 -176v-332q0 -125 20 -276h-313zM543 193q77 0 132.5 54t55.5 150v80q-155 12 -245.5 -28t-90.5 -132q0 -60 40 -92t108 -32z" />
    <glyph glyph-name="b" unicode="b" horiz-adv-x="1341" 
d="M805 1120q222 0 352.5 -153t130.5 -398q0 -143 -41.5 -258.5t-113.5 -188.5t-165 -112t-200 -39q-69 0 -141.5 16t-112.5 42l-72 114v-143h-321v1505h321v-577l82 121q45 34 120 52.5t161 18.5zM692 193q121 0 193.5 91.5t72.5 264.5q0 160 -70.5 255t-185.5 95
q-119 0 -189.5 -81.5t-70.5 -258.5v-49q0 -85 21.5 -148.5t58 -99t79 -52.5t91.5 -17z" />
    <glyph glyph-name="c" unicode="c" horiz-adv-x="1173" 
d="M612 1120q223 0 360.5 -122t149.5 -310h-313q-32 211 -205 211q-104 0 -162.5 -86.5t-58.5 -255.5q0 -184 58.5 -274t162.5 -90q75 0 129 50.5t72 143.5h317q-32 -202 -175 -309t-361 -107q-114 0 -211 37t-169 106.5t-112.5 178t-40.5 244.5q0 137 44 248.5t120 184
t177 111.5t218 39z" />
    <glyph glyph-name="d" unicode="d" horiz-adv-x="1343" 
d="M1221 1505v-1505h-322v164l-82 -121q-45 -35 -120 -53.5t-160 -18.5q-223 0 -353.5 153t-130.5 400q0 143 41.5 257.5t113.5 187.5t165 112t200 39q69 0 141.5 -15.5t112.5 -41.5l72 -115v557h322zM639 193q118 0 189 81t71 258v52q0 161 -73.5 238t-176.5 77
q-121 0 -193.5 -91.5t-72.5 -264.5q0 -160 70.5 -255t185.5 -95z" />
    <glyph glyph-name="e" unicode="e" horiz-adv-x="1204" 
d="M1147 565q0 -43 -6 -102h-766q13 -148 71.5 -209t157.5 -61q84 0 138.5 43t68.5 120h317q-43 -186 -184.5 -285.5t-345.5 -99.5q-116 0 -214 36t-172.5 105t-116.5 179.5t-42 251.5q0 164 68 294.5t198 206.5t299 76q126 0 228.5 -45.5t167 -123t99 -176.5t34.5 -210z
M604 899q-182 0 -221 -233h430q-13 115 -66.5 174t-142.5 59z" />
    <glyph glyph-name="f" unicode="f" horiz-adv-x="729" 
d="M481 1206q-4 -29 -4 -90v-33h223v-204h-223v-879h-319v879h-117v204h117v29q0 86 2 123q12 150 117 229.5t319 79.5q58 0 123 -14v-217q-101 19 -166 -9t-72 -98z" />
    <glyph glyph-name="g" unicode="g" horiz-adv-x="1343" 
d="M1221 1092v-816q0 -151 -2 -210q-9 -256 -168.5 -384t-434.5 -128q-241 0 -378 96.5t-156 279.5l-2 21h311l2 -19q7 -66 69.5 -103.5t162.5 -37.5q122 0 193 59.5t77 178.5q4 78 4 137v29l-82 -121q-98 -72 -264 -72q-227 0 -363.5 146t-136.5 389q0 142 41.5 255
t113.5 183.5t165 107.5t200 37q69 0 141.5 -15.5t112.5 -41.5l72 -115v144h322zM639 223q118 0 189 81.5t71 258.5v21q0 161 -73.5 238t-176.5 77q-123 0 -194.5 -83.5t-71.5 -254.5q0 -159 70 -248.5t186 -89.5z" />
    <glyph glyph-name="h" unicode="h" horiz-adv-x="1292" 
d="M1174 819q10 -69 10 -203v-616h-322v567q0 97 -4 152q-6 86 -54.5 133t-139.5 47q-66 -1 -114.5 -40t-78 -128.5t-29.5 -224.5v-506h-321v1516h321v-596l90 131q104 69 254 69q170 0 269.5 -78.5t118.5 -222.5z" />
    <glyph glyph-name="i" unicode="i" horiz-adv-x="565" 
d="M281 1513q77 0 124.5 -44t47.5 -117q0 -75 -47.5 -119.5t-124.5 -44.5t-123.5 44.5t-46.5 119.5q0 73 46.5 117t123.5 44zM442 0h-321v1092h321v-1092z" />
    <glyph glyph-name="j" unicode="j" horiz-adv-x="552" 
d="M276 1513q170 0 170 -161q0 -164 -170 -164q-87 0 -129.5 40t-42.5 124q0 83 42.5 122t129.5 39zM436 1092v-1090q0 -59 -4 -133q-11 -146 -105.5 -222.5t-295.5 -76.5q-62 0 -115 6v223q99 -9 144 14t51 89q4 29 4 96v1094h321z" />
    <glyph glyph-name="k" unicode="k" horiz-adv-x="1239" 
d="M526 418l-84 -92v-326h-321v1505h321v-893l414 480h381l-473 -504l479 -588h-399z" />
    <glyph glyph-name="l" unicode="l" horiz-adv-x="595" 
d="M434 1505v-1132q0 -72 2 -101q5 -38 30 -51t95 -10v-219q-102 -10 -192 -10q-241 0 -252 202q-4 53 -4 183v1138h321z" />
    <glyph glyph-name="m" unicode="m" horiz-adv-x="1921" 
d="M1802 848q10 -69 10 -203v-645h-321v563q0 93 -8 166q-19 170 -172 170q-185 0 -185 -332v-567h-319v563q0 93 -8 166q-22 170 -174 170q-183 0 -183 -332v-567h-321v1092h321v-170l82 135q97 63 236 63q131 0 217.5 -57.5t122.5 -153.5l110 148q92 63 234 63
q153 0 245.5 -76.5t112.5 -195.5z" />
    <glyph glyph-name="n" unicode="n" horiz-adv-x="1292" 
d="M1174 819q10 -69 10 -203v-616h-322v567q0 97 -4 152q-6 86 -54.5 133t-139.5 47q-101 0 -161.5 -96.5t-60.5 -296.5v-506h-321v1092h321v-172l90 131q104 69 254 69q170 0 269.5 -78.5t118.5 -222.5z" />
    <glyph glyph-name="o" unicode="o" horiz-adv-x="1255" 
d="M629 1120q267 0 421 -157.5t154 -415.5q0 -259 -154.5 -417.5t-420.5 -158.5q-268 0 -422 158.5t-154 417.5t154 416t422 157zM629 193q115 0 179 92.5t64 261.5t-64 260.5t-179 91.5q-116 0 -181 -91.5t-65 -260.5t65 -261.5t181 -92.5z" />
    <glyph glyph-name="p" unicode="p" horiz-adv-x="1341" 
d="M805 1120q222 0 352.5 -153t130.5 -398q0 -143 -41.5 -258.5t-113.5 -188.5t-165 -112t-200 -39q-69 0 -141.5 16t-112.5 42l-72 114v-544h-321v1493h321v-164l82 121q45 34 120 52.5t161 18.5zM692 193q121 0 193.5 91.5t72.5 264.5q0 160 -70.5 255t-185.5 95
q-119 0 -189.5 -81.5t-70.5 -258.5v-49q0 -85 21.5 -148.5t58 -99t79 -52.5t91.5 -17z" />
    <glyph glyph-name="q" unicode="q" horiz-adv-x="1343" 
d="M1221 1092v-1493h-322v565l-82 -121q-45 -35 -120 -53.5t-160 -18.5q-223 0 -353.5 153t-130.5 400q0 143 41.5 257.5t113.5 187.5t165 112t200 39q69 0 141.5 -15.5t112.5 -41.5l72 -115v144h322zM639 193q118 0 189 81t71 258v52q0 161 -73.5 238t-176.5 77
q-121 0 -193.5 -91.5t-72.5 -264.5q0 -160 70.5 -255t185.5 -95z" />
    <glyph glyph-name="r" unicode="r" horiz-adv-x="815" 
d="M723 1120q32 0 82 -8v-260q-193 12 -278 -77t-85 -318v-457h-321v1092h321v-209l82 151q40 41 94.5 63.5t104.5 22.5z" />
    <glyph glyph-name="s" unicode="s" horiz-adv-x="1046" 
d="M539 1120q192 0 306.5 -95.5t135.5 -250.5h-317q-28 141 -146 141q-51 0 -81.5 -28t-30.5 -72q0 -56 54 -92t199 -72q171 -43 259 -122t88 -224q0 -110 -63.5 -187t-165.5 -112t-234 -35q-215 0 -348 92.5t-154 272.5h317q17 -75 67.5 -116.5t119.5 -41.5
q62 0 100.5 26.5t38.5 76.5q0 58 -58.5 94.5t-203.5 70.5q-164 41 -251 119t-87 211q0 159 124 251.5t331 92.5z" />
    <glyph glyph-name="t" unicode="t" horiz-adv-x="774" 
d="M506 879v-459q0 -74 2 -103q6 -82 46 -105.5t163 -16.5v-205q-112 -17 -199 -17q-174 0 -247.5 56.5t-82.5 181.5q-4 55 -4 166v502h-166v204h166v275h322v-275h231v-204h-231z" />
    <glyph glyph-name="u" unicode="u" horiz-adv-x="1286" 
d="M1163 1092v-1092h-319v186l-92 -145q-106 -70 -254 -70q-162 0 -263.5 79t-121.5 198q-11 76 -11 203v641h320v-572q0 -76 8 -149q22 -176 197 -176q100 0 158.5 82t58.5 231v584h319z" />
    <glyph glyph-name="v" unicode="v" horiz-adv-x="1198" 
d="M1206 1092l-426 -1092h-352l-428 1092h356l252 -844l250 844h348z" />
    <glyph glyph-name="w" unicode="w" horiz-adv-x="1734" 
d="M1745 1092l-346 -1092h-361l-164 793l-165 -793h-363l-346 1092h356l170 -824l158 817h383l166 -819l166 826h346z" />
    <glyph glyph-name="x" unicode="x" horiz-adv-x="1153" 
d="M770 551l379 -551h-375l-201 356l-208 -356h-369l383 553l-369 539h375l197 -342l194 342h369z" />
    <glyph glyph-name="y" unicode="y" horiz-adv-x="1196" 
d="M1206 1092l-436 -1115q-93 -235 -196.5 -321t-284.5 -86q-79 0 -139 8v215q29 -4 90 -4q71 0 117.5 29t76.5 98l15 35l-449 1141h358l250 -844l248 844h350z" />
    <glyph glyph-name="z" unicode="z" horiz-adv-x="1044" 
d="M985 207v-207h-922v195l574 682h-541v206h883v-204l-569 -672h575z" />
    <glyph glyph-name="braceleft" unicode="{" horiz-adv-x="815" 
d="M692 1421h-41q-80 0 -108.5 -17t-28.5 -69q0 -34 21 -188q24 -156 24 -221q0 -168 -174 -205q174 -37 174 -213q0 -65 -24 -221q-21 -151 -21 -189q0 -52 28.5 -69t108.5 -17h41v-176h-84q-148 0 -213 55t-65 179q0 62 24 237q21 135 21 195q0 54 -36.5 87.5t-131.5 39.5
v176q95 7 131.5 40.5t36.5 86.5q0 59 -21 194q-24 176 -24 240q0 122 65 176.5t213 54.5h84v-176z" />
    <glyph glyph-name="bar" unicode="|" horiz-adv-x="608" 
d="M408 -410h-207v2048h207v-2048z" />
    <glyph glyph-name="braceright" unicode="}" horiz-adv-x="815" 
d="M610 805v-176q-95 -6 -131.5 -39.5t-36.5 -87.5q0 -52 19 -195q24 -156 24 -237q0 -124 -64.5 -179t-211.5 -55h-84v176h39q81 0 110 17t29 69q0 48 -22 189q-23 171 -23 221q0 171 172 205q-172 37 -172 213q0 50 23 221q22 143 22 188q0 52 -29 69t-110 17h-39v176h84
q147 0 211.5 -54.5t64.5 -176.5q0 -84 -24 -240q-19 -142 -19 -194q0 -53 36.5 -86.5t131.5 -40.5z" />
    <glyph glyph-name="asciitilde" unicode="~" 
d="M967 807h176q0 -350 -260 -350q-59 0 -109.5 18.5t-142.5 65.5q-76 40 -115.5 55.5t-71.5 15.5q-52 0 -73 -38t-21 -117h-176q0 350 258 350q43 0 87 -12t74 -26t93 -46q54 -29 78.5 -41t54 -21.5t53.5 -9.5q50 0 72.5 36t22.5 120z" />
    <glyph glyph-name="exclamdown" unicode="&#xa1;" horiz-adv-x="555" 
d="M276 774q-75 0 -122.5 47.5t-47.5 122.5t47.5 122.5t122.5 47.5t124 -47.5t49 -122.5t-49 -122.5t-124 -47.5zM152 672h251l25 -1000h-301z" />
    <glyph glyph-name="cent" unicode="&#xa2;" horiz-adv-x="1304" 
d="M760 879v-670q54 23 93 68.5t52 109.5h287q-27 -176 -140.5 -280.5t-291.5 -129.5v-161h-185v159q-203 27 -327.5 173.5t-124.5 383.5q0 240 125.5 390t326.5 184v164h185v-160q191 -21 306 -139t126 -289h-283q-22 149 -149 197zM422 553q0 -135 41.5 -219.5
t111.5 -118.5v657q-70 -34 -111.5 -115t-41.5 -204z" />
    <glyph glyph-name="sterling" unicode="&#xa3;" 
d="M1188 252v-252h-1057v223q209 39 209 234q0 63 -27 149h-163v164h92q-49 119 -49 236q0 200 136 318t357 118q119 0 212 -34t150.5 -94t89.5 -134.5t38 -161.5h-324q-8 88 -50 137t-118 49q-71 0 -112.5 -50t-41.5 -122q0 -64 13.5 -117.5t50.5 -144.5h407v-164h-350
q15 -58 15 -110q0 -79 -44 -142.5t-126 -101.5h692z" />
    <glyph glyph-name="currency" unicode="&#xa4;" 
d="M1026 616q0 -112 -57 -200l108 -109l-108 -108l-109 108q-91 -59 -203 -59q-111 0 -202 59l-109 -108l-108 108l108 109q-57 88 -57 200q0 115 59 201l-110 111l108 108l109 -110q94 59 202 59q109 0 203 -59l109 110l108 -108l-110 -111q59 -86 59 -201zM657 422
q78 0 127.5 53.5t49.5 140.5t-49.5 141t-127.5 54q-79 0 -128.5 -54t-49.5 -141t49.5 -140.5t128.5 -53.5z" />
    <glyph glyph-name="yen" unicode="&#xa5;" 
d="M907 766h223v-176h-313v-119h313v-176h-313v-295h-319v295h-314v176h314v119h-314v176h224l-359 647h340l277 -631l270 631h330z" />
    <glyph glyph-name="brokenbar" unicode="&#xa6;" horiz-adv-x="583" 
d="M383 717h-182v696h182v-696zM383 -328h-182v697h182v-697z" />
    <glyph glyph-name="section" unicode="&#xa7;" horiz-adv-x="1255" 
d="M1204 485q0 -197 -178 -299q53 -74 53 -180q0 -113 -63.5 -196.5t-168.5 -124.5t-237 -41q-210 0 -343 92.5t-154 273.5h317q18 -77 68.5 -119.5t117.5 -42.5q62 0 101 33t39 94q0 50 -25 87t-95 75t-194 74q-96 29 -164 61t-121.5 78.5t-79.5 109.5t-26 146
q0 98 44 174.5t124 124.5q-41 65 -41 150q0 172 125.5 279.5t327.5 107.5q193 0 307 -97t135 -262h-317q-28 154 -142 154q-49 0 -80.5 -34.5t-31.5 -94.5q0 -81 53.5 -126.5t204.5 -84.5q232 -62 338 -158.5t106 -253.5zM600 422q130 -40 215 -80q66 39 66 115
q0 74 -57 123t-193 88q-115 30 -201 71q-55 -36 -55 -123q0 -68 55 -113.5t170 -80.5z" />
    <glyph glyph-name="dieresis" unicode="&#xa8;" horiz-adv-x="614" 
d="M117 1444q62 0 100.5 -37t38.5 -98t-38.5 -98t-100.5 -37t-101 37t-39 98t39 98t101 37zM498 1444q62 0 100.5 -37t38.5 -98t-38.5 -98t-100.5 -37t-100 37t-38 98t38 98t100 37z" />
    <glyph glyph-name="copyright" unicode="&#xa9;" horiz-adv-x="1751" 
d="M874 1546q179 0 334 -61.5t264.5 -169t172.5 -260t63 -328.5t-63 -328.5t-172.5 -260t-264.5 -169t-334 -61.5q-238 0 -427.5 104.5t-296.5 292t-107 422.5t107 422.5t296.5 292t427.5 104.5zM874 1370q-181 0 -325.5 -82.5t-225.5 -229.5t-81 -331q0 -278 178.5 -458.5
t453.5 -180.5q182 0 327 82t226.5 228t81.5 329q0 184 -81.5 331t-226.5 229.5t-327 82.5zM893 1194q186 0 296 -100.5t128 -270.5h-273q-17 181 -161 181q-168 0 -168 -275q0 -139 45.5 -209.5t128.5 -70.5q63 0 105 45.5t48 134.5h273q-27 -174 -137.5 -272.5
t-300.5 -98.5q-201 0 -325 126t-124 343q0 212 127 339.5t338 127.5z" />
    <glyph glyph-name="guillemotleft" unicode="&#xab;" horiz-adv-x="1355" 
d="M805 848l-281 -340l281 -340h-236l-280 340l280 340h236zM1260 848l-281 -340l281 -340h-236l-281 340l281 340h236z" />
    <glyph glyph-name="logicalnot" unicode="&#xac;" 
d="M1057 373h-183v260h-638v176h821v-436z" />
    <glyph glyph-name="registered" unicode="&#xae;" horiz-adv-x="1007" 
d="M504 1565q190 0 310 -120.5t120 -309.5t-120 -309.5t-310 -120.5t-310 120.5t-120 309.5t120 309.5t310 120.5zM504 815q138 0 225.5 90t87.5 230q0 141 -87.5 231t-225.5 90t-226 -90t-88 -231q0 -140 88 -230t226 -90zM610 1135q53 -16 60 -95q7 -67 26 -110h-133
q-7 30 -14 86q-6 55 -60 55h-30v-141h-119v432h156q37 0 55 -2q69 -7 105 -39t36 -82q0 -41 -23 -67.5t-59 -36.5zM522 1165q41 6 41 52t-41 53q-12 2 -39 2h-24v-109h24q27 0 39 2z" />
    <glyph glyph-name="macron" unicode="&#xaf;" horiz-adv-x="614" 
d="M600 1210h-584v174h584v-174z" />
    <glyph glyph-name="degree" unicode="&#xb0;" horiz-adv-x="645" 
d="M322 1442q123 0 200.5 -74.5t77.5 -193.5t-77.5 -194t-200.5 -75q-122 0 -199.5 75.5t-77.5 193.5t77.5 193t199.5 75zM322 1278q-41 0 -71 -29.5t-30 -74.5t30 -75t71 -30q42 0 72 30t30 75t-30 74.5t-72 29.5z" />
    <glyph glyph-name="plusminus" unicode="&#xb1;" 
d="M750 739h321v-176h-321v-313h-185v313h-323v176h323v310h185v-310zM1071 0h-829v164h829v-164z" />
    <glyph glyph-name="acute" unicode="&#xb4;" horiz-adv-x="614" 
d="M383 1174h-176l172 249h287z" />
    <glyph glyph-name="paragraph" unicode="&#xb6;" horiz-adv-x="1239" 
d="M1116 1413v-1638h-182v1462h-221v-1462h-185v880h-10q-80 0 -115 2q-151 9 -236 116.5t-85 260.5t85 260.5t236 116.5q35 2 115 2h598z" />
    <glyph glyph-name="periodcentered" unicode="&#xb7;" horiz-adv-x="534" 
d="M266 813q84 0 137.5 -52.5t53.5 -135.5t-54 -136t-137 -53t-135.5 53t-52.5 136t52.5 135.5t135.5 52.5z" />
    <glyph glyph-name="cedilla" unicode="&#xb8;" horiz-adv-x="614" 
d="M393 18l-53 -102q188 -24 188 -162q0 -65 -44.5 -107.5t-114 -59.5t-164.5 -17q-70 0 -113 14v129q63 -16 117 -16q123 0 123 63q0 39 -44.5 55t-152.5 9l96 194h162z" />
    <glyph glyph-name="guillemotright" unicode="&#xbb;" horiz-adv-x="1304" 
d="M612 508l-280 -340h-236l281 340l-281 340h236zM1069 508l-281 -340h-235l281 340l-281 340h235z" />
    <glyph glyph-name="questiondown" unicode="&#xbf;" horiz-adv-x="1110" 
d="M610 780q-75 0 -122.5 47.5t-47.5 122.5t47.5 122.5t122.5 47.5t123.5 -47.5t48.5 -122.5t-48.5 -122.5t-123.5 -47.5zM590 -350q-228 0 -354.5 103.5t-126.5 287.5q0 114 50.5 200.5t164.5 184.5q84 72 116 123t39 129h269q-4 -112 -35 -182t-105 -152
q-92 -98 -127 -158.5t-35 -122.5q0 -86 42 -131t124 -45q81 0 128 56t53 168h321q-6 -215 -146.5 -338t-377.5 -123z" />
    <glyph glyph-name="Agrave" unicode="&#xc0;" horiz-adv-x="1413" 
d="M664 1505l-279 242h287l168 -242h-176zM954 399h-460l-132 -399h-342l510 1413h398l504 -1413h-349zM725 1135l-152 -484h301z" />
    <glyph glyph-name="Aacute" unicode="&#xc1;" horiz-adv-x="1413" 
d="M805 1505h-176l168 242h286zM954 399h-460l-132 -399h-342l510 1413h398l504 -1413h-349zM725 1135l-152 -484h301z" />
    <glyph glyph-name="Acircumflex" unicode="&#xc2;" horiz-adv-x="1413" 
d="M664 1505h-193l129 242h260l129 -242h-194l-68 146zM954 399h-460l-132 -399h-342l510 1413h398l504 -1413h-349zM725 1135l-152 -484h301z" />
    <glyph glyph-name="Atilde" unicode="&#xc3;" horiz-adv-x="1413" 
d="M621 1581q-31 0 -31 -57h-166q0 127 40 184t124 57q43 0 74.5 -6.5t82.5 -27.5q71 -29 93 -29q17 0 23.5 13t6.5 44h168q0 -127 -40 -184t-126 -57q-73 0 -157 34q-71 29 -92 29zM954 399h-460l-132 -399h-342l510 1413h398l504 -1413h-349zM725 1135l-152 -484h301z" />
    <glyph glyph-name="Adieresis" unicode="&#xc4;" horiz-adv-x="1413" 
d="M541 1487q-62 0 -101 37t-39 98t39 98t101 37t99.5 -37t37.5 -98t-37.5 -98t-99.5 -37zM920 1487q-62 0 -101 37t-39 98t39 98t101 37t99.5 -37t37.5 -98t-37.5 -98t-99.5 -37zM954 399h-460l-132 -399h-342l510 1413h398l504 -1413h-349zM725 1135l-152 -484h301z" />
    <glyph glyph-name="Aring" unicode="&#xc5;" horiz-adv-x="1413" 
d="M729 1477q-101 0 -165 55.5t-64 144.5t64 146t165 57t165 -57t64 -146t-64 -144.5t-165 -55.5zM729 1759q-34 0 -55 -22.5t-21 -59.5q0 -36 21.5 -59t54.5 -23t54.5 23t21.5 59q0 37 -21 59.5t-55 22.5zM954 399h-460l-132 -399h-342l510 1413h398l504 -1413h-349z
M725 1135l-152 -484h301z" />
    <glyph glyph-name="AE" unicode="&#xc6;" horiz-adv-x="1994" 
d="M1935 252v-252h-985l-45 446h-424l-223 -446h-340l756 1413h1241v-250h-764l35 -329h682v-250h-658l35 -332h690zM881 696l-47 457l-228 -457h275z" />
    <glyph glyph-name="Ccedilla" unicode="&#xc7;" horiz-adv-x="1484" 
d="M1096 498h321l-2 -21q-23 -229 -182 -362t-414 -144l-28 -55q188 -24 188 -162q0 -65 -44.5 -107.5t-114.5 -59.5t-165 -17q-69 0 -112 14v129q63 -16 116 -16q123 0 123 63q0 39 -44 55t-152 9l78 156q-253 38 -405.5 226.5t-152.5 491.5q0 174 53.5 316t147 235
t220 143t272.5 50q143 0 257.5 -37t190 -103.5t119.5 -155t55 -194.5l2 -20h-321l-4 20q-51 252 -303 252q-158 0 -254.5 -128.5t-96.5 -358.5q0 -253 97.5 -380.5t251.5 -127.5q122 0 198 70t101 198z" />
    <glyph glyph-name="Egrave" unicode="&#xc8;" horiz-adv-x="1282" 
d="M629 1505l-279 242h287l168 -242h-176zM1223 252v-252h-1049v1413h1028v-250h-706v-329h659v-250h-659v-332h727z" />
    <glyph glyph-name="Eacute" unicode="&#xc9;" horiz-adv-x="1282" 
d="M770 1505h-176l168 242h287zM1223 252v-252h-1049v1413h1028v-250h-706v-329h659v-250h-659v-332h727z" />
    <glyph glyph-name="Ecircumflex" unicode="&#xca;" horiz-adv-x="1282" 
d="M629 1505h-193l129 242h260l129 -242h-194l-68 146zM1223 252v-252h-1049v1413h1028v-250h-706v-329h659v-250h-659v-332h727z" />
    <glyph glyph-name="Edieresis" unicode="&#xcb;" horiz-adv-x="1282" 
d="M506 1487q-62 0 -100.5 37t-38.5 98t38.5 98t100.5 37t99.5 -37t37.5 -98t-37.5 -98t-99.5 -37zM885 1487q-62 0 -101 37t-39 98t39 98t101 37t99.5 -37t37.5 -98t-37.5 -98t-99.5 -37zM1223 252v-252h-1049v1413h1028v-250h-706v-329h659v-250h-659v-332h727z" />
    <glyph glyph-name="Igrave" unicode="&#xcc;" horiz-adv-x="618" 
d="M444 1505h-176l-278 242h286zM496 0h-322v1413h322v-1413z" />
    <glyph glyph-name="Iacute" unicode="&#xcd;" horiz-adv-x="618" 
d="M410 1505h-177l168 242h287zM496 0h-322v1413h322v-1413z" />
    <glyph glyph-name="Icircumflex" unicode="&#xce;" horiz-adv-x="618" 
d="M268 1505h-192l129 242h260l129 -242h-195l-67 146zM174 1413h322v-1413h-322v1413z" />
    <glyph glyph-name="Idieresis" unicode="&#xcf;" horiz-adv-x="618" 
d="M145 1757q62 0 100 -37t38 -98t-38 -98t-100 -37t-100.5 37t-38.5 98t38.5 98t100.5 37zM524 1757q62 0 100 -37t38 -98t-38 -98t-100 -37t-100.5 37t-38.5 98t38.5 98t100.5 37zM496 0h-322v1413h322v-1413z" />
    <glyph glyph-name="Eth" unicode="&#xd0;" horiz-adv-x="1525" 
d="M874 1405q126 -14 230.5 -61t186 -128.5t126.5 -206.5t45 -284t-46 -289.5t-126.5 -218.5t-186.5 -141t-231 -68q-72 -8 -180 -8h-506v606h-120v176h120v631h508q108 0 180 -8zM793 256q152 18 242.5 141t90.5 324q0 195 -88.5 306.5t-240.5 129.5q-70 6 -144 6h-147
v-381h227v-176h-227v-354h145q97 0 142 4z" />
    <glyph glyph-name="Ntilde" unicode="&#xd1;" horiz-adv-x="1587" 
d="M670 1765q43 0 74.5 -6.5t82.5 -27.5q71 -29 93 -29q17 0 23.5 13t6.5 44h168q0 -127 -40 -184t-126 -57q-73 0 -157 34q-71 29 -93 29q-30 0 -30 -57h-166q0 127 40 184t124 57zM1464 0h-428l-553 1012q13 -195 13 -398v-614h-322v1413h412l569 -1040q-10 184 -10 411
v629h319v-1413z" />
    <glyph glyph-name="Ograve" unicode="&#xd2;" horiz-adv-x="1587" 
d="M752 1505l-279 242h287l168 -242h-176zM817 1442q326 0 517.5 -199t191.5 -536q0 -336 -191.5 -536t-517.5 -200q-327 0 -519 200t-192 536q0 337 191.5 536t519.5 199zM817 209q176 0 276.5 131.5t100.5 366.5q0 236 -100.5 366.5t-276.5 130.5q-178 0 -278.5 -130.5
t-100.5 -366.5q0 -235 100.5 -366.5t278.5 -131.5z" />
    <glyph glyph-name="Oacute" unicode="&#xd3;" horiz-adv-x="1587" 
d="M893 1505h-176l168 242h286zM817 1442q326 0 517.5 -199t191.5 -536q0 -336 -191.5 -536t-517.5 -200q-327 0 -519 200t-192 536q0 337 191.5 536t519.5 199zM817 209q176 0 276.5 131.5t100.5 366.5q0 236 -100.5 366.5t-276.5 130.5q-178 0 -278.5 -130.5
t-100.5 -366.5q0 -235 100.5 -366.5t278.5 -131.5z" />
    <glyph glyph-name="Ocircumflex" unicode="&#xd4;" horiz-adv-x="1587" 
d="M752 1505h-193l129 242h260l129 -242h-194l-68 146zM817 1442q326 0 517.5 -199t191.5 -536q0 -336 -191.5 -536t-517.5 -200q-327 0 -519 200t-192 536q0 337 191.5 536t519.5 199zM817 209q176 0 276.5 131.5t100.5 366.5q0 236 -100.5 366.5t-276.5 130.5
q-178 0 -278.5 -130.5t-100.5 -366.5q0 -235 100.5 -366.5t278.5 -131.5z" />
    <glyph glyph-name="Otilde" unicode="&#xd5;" horiz-adv-x="1587" 
d="M709 1581q-31 0 -31 -57h-166q0 127 40 184t124 57q43 0 75.5 -6.5t82.5 -27.5q71 -29 92 -29q17 0 23.5 13t6.5 44h168q0 -127 -40 -184t-126 -57q-73 0 -157 34q-71 29 -92 29zM817 1442q326 0 517.5 -199t191.5 -536q0 -336 -191.5 -536t-517.5 -200q-327 0 -519 200
t-192 536q0 337 191.5 536t519.5 199zM817 209q176 0 276.5 131.5t100.5 366.5q0 236 -100.5 366.5t-276.5 130.5q-178 0 -278.5 -130.5t-100.5 -366.5q0 -235 100.5 -366.5t278.5 -131.5z" />
    <glyph glyph-name="Odieresis" unicode="&#xd6;" horiz-adv-x="1587" 
d="M629 1487q-62 0 -101 37t-39 98t39 98t101 37t99.5 -37t37.5 -98t-37.5 -98t-99.5 -37zM1008 1487q-62 0 -101 37t-39 98t39 98t101 37t99.5 -37t37.5 -98t-37.5 -98t-99.5 -37zM817 1442q326 0 517.5 -199t191.5 -536q0 -336 -191.5 -536t-517.5 -200q-327 0 -519 200
t-192 536q0 337 191.5 536t519.5 199zM817 209q176 0 276.5 131.5t100.5 366.5q0 236 -100.5 366.5t-276.5 130.5q-178 0 -278.5 -130.5t-100.5 -366.5q0 -235 100.5 -366.5t278.5 -131.5z" />
    <glyph glyph-name="multiply" unicode="&#xd7;" 
d="M786 666l308 -308l-129 -127l-308 308l-307 -308l-129 127l307 308l-307 307l129 129l307 -307l308 307l129 -129z" />
    <glyph glyph-name="Oslash" unicode="&#xd8;" horiz-adv-x="1595" 
d="M1540 1298l-137 -137q127 -184 127 -454q0 -336 -192 -536t-519 -200q-275 0 -459 148l-133 -133l-129 129l138 137q-125 189 -125 455q0 337 191 536t517 199q281 0 461 -148l133 133zM442 707q0 -119 29 -220l608 609q-95 108 -260 108q-176 0 -276.5 -130.5
t-100.5 -366.5zM1198 707q0 130 -29 221l-608 -609q96 -110 258 -110q178 0 278.5 131.5t100.5 366.5z" />
    <glyph glyph-name="Ugrave" unicode="&#xd9;" horiz-adv-x="1452" 
d="M866 1505h-176l-278 242h286zM1358 1413v-817q0 -106 -6 -180q-6 -93 -42.5 -170.5t-105.5 -140.5t-183.5 -98.5t-264.5 -35.5t-264.5 35.5t-184 98.5t-106 140.5t-43.5 170.5q-4 74 -4 180v817h319v-864q0 -65 2 -94q9 -118 80 -182t201 -64t200 64t78 182q4 29 4 94
v864h320z" />
    <glyph glyph-name="Uacute" unicode="&#xda;" horiz-adv-x="1452" 
d="M831 1505h-176l168 242h287zM1358 1413v-817q0 -106 -6 -180q-6 -93 -42.5 -170.5t-105.5 -140.5t-183.5 -98.5t-264.5 -35.5t-264.5 35.5t-184 98.5t-106 140.5t-43.5 170.5q-4 74 -4 180v817h319v-864q0 -65 2 -94q9 -118 80 -182t201 -64t200 64t78 182q4 29 4 94v864
h320z" />
    <glyph glyph-name="Ucircumflex" unicode="&#xdb;" horiz-adv-x="1452" 
d="M690 1505h-192l129 242h260l129 -242h-195l-67 146zM1358 1413v-817q0 -106 -6 -180q-6 -93 -42.5 -170.5t-105.5 -140.5t-183.5 -98.5t-264.5 -35.5t-264.5 35.5t-184 98.5t-106 140.5t-43.5 170.5q-4 74 -4 180v817h319v-864q0 -65 2 -94q9 -118 80 -182t201 -64
t200 64t78 182q4 29 4 94v864h320z" />
    <glyph glyph-name="Udieresis" unicode="&#xdc;" horiz-adv-x="1452" 
d="M567 1757q62 0 100 -37t38 -98t-38 -98t-100 -37t-100.5 37t-38.5 98t38.5 98t100.5 37zM946 1757q62 0 99.5 -37t37.5 -98t-37.5 -98t-99.5 -37t-100.5 37t-38.5 98t38.5 98t100.5 37zM1358 1413v-817q0 -106 -6 -180q-6 -93 -42.5 -170.5t-105.5 -140.5t-183.5 -98.5
t-264.5 -35.5t-264.5 35.5t-184 98.5t-106 140.5t-43.5 170.5q-4 74 -4 180v817h319v-864q0 -65 2 -94q9 -118 80 -182t201 -64t200 64t78 182q4 29 4 94v864h320z" />
    <glyph glyph-name="Yacute" unicode="&#xdd;" horiz-adv-x="1316" 
d="M766 1505h-176l168 242h286zM850 545v-545h-320v541l-499 872h362l307 -590l295 590h353z" />
    <glyph glyph-name="Thorn" unicode="&#xde;" horiz-adv-x="1325" 
d="M911 1223q164 -20 266.5 -125.5t102.5 -292.5t-102.5 -293.5t-266.5 -126.5q-90 -10 -211 -10h-204v-375h-322v1413h322v-180h204q121 0 211 -10zM784 631q160 20 160 174q0 152 -160 172q-31 4 -114 4h-174v-354h174q52 0 114 4z" />
    <glyph glyph-name="germandbls" unicode="&#xdf;" horiz-adv-x="1335" 
d="M672 1544q244 0 382 -106t138 -281q0 -102 -55 -182q-65 -36 -94 -74t-29 -86q0 -43 24.5 -84t81.5 -96q88 -88 121 -153t33 -175q0 -101 -58 -174.5t-147.5 -107t-198.5 -33.5q-162 0 -262 20v244q106 -27 193 -27q67 0 101 30.5t34 86.5q0 44 -22.5 85.5t-77.5 94.5
q-91 91 -125.5 149t-34.5 140q0 151 149 238q29 42 29 100q0 74 -48.5 114t-146.5 40q-97 0 -152 -55t-61 -156q-4 -58 -4 -172v-924h-321v907q0 119 4 193q13 211 158.5 327.5t388.5 116.5z" />
    <glyph glyph-name="agrave" unicode="&#xe0;" horiz-adv-x="1173" 
d="M532 1174l-282 249h287l172 -249h-177zM758 0l-23 160l-49 -117q-115 -72 -270 -72q-94 0 -172.5 36t-128 110t-49.5 174q0 180 154.5 278.5t441.5 98.5h69v18q0 57 -4 94q-5 52 -44 85.5t-108 33.5q-74 0 -115.5 -44t-47.5 -126h-308q3 122 68.5 211.5t173.5 134.5
t242 45q118 0 205 -24.5t139 -71t79 -105.5t33 -135q7 -89 7 -176v-332q0 -125 20 -276h-313zM543 193q77 0 132.5 54t55.5 150v80q-155 12 -245.5 -28t-90.5 -132q0 -60 40 -92t108 -32z" />
    <glyph glyph-name="aacute" unicode="&#xe1;" horiz-adv-x="1173" 
d="M662 1174h-177l172 249h287zM758 0l-23 160l-49 -117q-115 -72 -270 -72q-94 0 -172.5 36t-128 110t-49.5 174q0 180 154.5 278.5t441.5 98.5h69v18q0 57 -4 94q-5 52 -44 85.5t-108 33.5q-74 0 -115.5 -44t-47.5 -126h-308q3 122 68.5 211.5t173.5 134.5t242 45
q118 0 205 -24.5t139 -71t79 -105.5t33 -135q7 -89 7 -176v-332q0 -125 20 -276h-313zM543 193q77 0 132.5 54t55.5 150v80q-155 12 -245.5 -28t-90.5 -132q0 -60 40 -92t108 -32z" />
    <glyph glyph-name="acircumflex" unicode="&#xe2;" horiz-adv-x="1173" 
d="M518 1174h-190l129 249h260l129 -249h-193l-67 147zM758 0l-23 160l-49 -117q-115 -72 -270 -72q-94 0 -172.5 36t-128 110t-49.5 174q0 180 154.5 278.5t441.5 98.5h69v18q0 57 -4 94q-5 52 -44 85.5t-108 33.5q-74 0 -115.5 -44t-47.5 -126h-308q3 122 68.5 211.5
t173.5 134.5t242 45q118 0 205 -24.5t139 -71t79 -105.5t33 -135q7 -89 7 -176v-332q0 -125 20 -276h-313zM543 193q77 0 132.5 54t55.5 150v80q-155 12 -245.5 -28t-90.5 -132q0 -60 40 -92t108 -32z" />
    <glyph glyph-name="atilde" unicode="&#xe3;" horiz-adv-x="1173" 
d="M477 1247q-31 0 -31 -57h-165q0 127 39.5 184.5t123.5 57.5q43 0 75 -7t83 -30q71 -29 92 -29q17 0 24 13.5t7 45.5h168q0 -128 -40 -185.5t-126 -57.5q-66 0 -158 37q-76 28 -92 28zM758 0l-23 160l-49 -117q-115 -72 -270 -72q-94 0 -172.5 36t-128 110t-49.5 174
q0 180 154.5 278.5t441.5 98.5h69v18q0 57 -4 94q-5 52 -44 85.5t-108 33.5q-74 0 -115.5 -44t-47.5 -126h-308q3 122 68.5 211.5t173.5 134.5t242 45q118 0 205 -24.5t139 -71t79 -105.5t33 -135q7 -89 7 -176v-332q0 -125 20 -276h-313zM543 193q77 0 132.5 54t55.5 150
v80q-155 12 -245.5 -28t-90.5 -132q0 -60 40 -92t108 -32z" />
    <glyph glyph-name="adieresis" unicode="&#xe4;" horiz-adv-x="1173" 
d="M395 1174q-62 0 -100.5 37t-38.5 98t38.5 98t100.5 37t101 -37t39 -98t-39 -98t-101 -37zM776 1174q-62 0 -99.5 37t-37.5 98t37.5 98t99.5 37t100.5 -37t38.5 -98t-38.5 -98t-100.5 -37zM758 0l-23 160l-49 -117q-115 -72 -270 -72q-94 0 -172.5 36t-128 110t-49.5 174
q0 180 154.5 278.5t441.5 98.5h69v18q0 57 -4 94q-5 52 -44 85.5t-108 33.5q-74 0 -115.5 -44t-47.5 -126h-308q3 122 68.5 211.5t173.5 134.5t242 45q118 0 205 -24.5t139 -71t79 -105.5t33 -135q7 -89 7 -176v-332q0 -125 20 -276h-313zM543 193q77 0 132.5 54t55.5 150
v80q-155 12 -245.5 -28t-90.5 -132q0 -60 40 -92t108 -32z" />
    <glyph glyph-name="aring" unicode="&#xe5;" horiz-adv-x="1173" 
d="M586 1161q-102 0 -166 57.5t-64 149.5t64 149.5t166 57.5q101 0 165 -57.5t64 -149.5t-64 -149.5t-165 -57.5zM586 1456q-34 0 -55 -23.5t-21 -64.5t21 -64.5t55 -23.5t55 23.5t21 64.5t-21 64.5t-55 23.5zM758 0l-23 160l-49 -117q-115 -72 -270 -72q-94 0 -172.5 36
t-128 110t-49.5 174q0 180 154.5 278.5t441.5 98.5h69v18q0 57 -4 94q-5 52 -44 85.5t-108 33.5q-74 0 -115.5 -44t-47.5 -126h-308q3 122 68.5 211.5t173.5 134.5t242 45q118 0 205 -24.5t139 -71t79 -105.5t33 -135q7 -89 7 -176v-332q0 -125 20 -276h-313zM543 193
q77 0 132.5 54t55.5 150v80q-155 12 -245.5 -28t-90.5 -132q0 -60 40 -92t108 -32z" />
    <glyph glyph-name="ae" unicode="&#xe6;" horiz-adv-x="1951" 
d="M1894 565q0 -43 -6 -102h-768q24 -270 230 -270q86 0 140 43t66 120h318q-42 -185 -183 -285t-345 -100q-311 0 -445 236l-117 -150q-122 -86 -305 -86q-189 0 -301 85t-112 243q0 183 158 275t442 92h106v24q0 209 -180 209q-79 0 -127.5 -44.5t-52.5 -125.5h-308
q1 122 66 211.5t173.5 134.5t244.5 45q289 0 385 -190q65 94 170 142t237 48q121 0 220.5 -45.5t162.5 -123t97 -177t34 -209.5zM1130 666h431q-14 114 -67 173.5t-142 59.5q-88 0 -146 -58.5t-76 -174.5zM774 436v27q-196 9 -287.5 -22t-91.5 -117q0 -131 166 -131
q96 0 154.5 65t58.5 178z" />
    <glyph glyph-name="ccedilla" unicode="&#xe7;" horiz-adv-x="1173" 
d="M604 193q75 0 129 50.5t72 143.5h317q-29 -187 -155.5 -293.5t-319.5 -120.5l-31 -57q189 -24 189 -162q0 -65 -44.5 -107.5t-114.5 -59.5t-165 -17q-69 0 -112 14v129q63 -16 116 -16q123 0 123 63q0 39 -44 55t-152 9l75 153q-196 30 -315 175t-119 385q0 137 44 248.5
t120 184t177 111.5t218 39q223 0 360.5 -122t149.5 -310h-313q-32 211 -205 211q-104 0 -162.5 -86.5t-58.5 -255.5q0 -184 58.5 -274t162.5 -90z" />
    <glyph glyph-name="egrave" unicode="&#xe8;" horiz-adv-x="1204" 
d="M553 1174l-283 249h287l172 -249h-176zM1147 565q0 -43 -6 -102h-766q13 -148 71.5 -209t157.5 -61q84 0 138.5 43t68.5 120h317q-43 -186 -184.5 -285.5t-345.5 -99.5q-116 0 -214 36t-172.5 105t-116.5 179.5t-42 251.5q0 164 68 294.5t198 206.5t299 76
q126 0 228.5 -45.5t167 -123t99 -176.5t34.5 -210zM604 899q-182 0 -221 -233h430q-13 115 -66.5 174t-142.5 59z" />
    <glyph glyph-name="eacute" unicode="&#xe9;" horiz-adv-x="1204" 
d="M682 1174h-176l172 249h287zM1147 565q0 -43 -6 -102h-766q13 -148 71.5 -209t157.5 -61q84 0 138.5 43t68.5 120h317q-43 -186 -184.5 -285.5t-345.5 -99.5q-116 0 -214 36t-172.5 105t-116.5 179.5t-42 251.5q0 164 68 294.5t198 206.5t299 76q126 0 228.5 -45.5
t167 -123t99 -176.5t34.5 -210zM604 899q-182 0 -221 -233h430q-13 115 -66.5 174t-142.5 59z" />
    <glyph glyph-name="ecircumflex" unicode="&#xea;" horiz-adv-x="1204" 
d="M539 1174h-191l129 249h260l129 -249h-192l-68 147zM1147 565q0 -43 -6 -102h-766q13 -148 71.5 -209t157.5 -61q84 0 138.5 43t68.5 120h317q-43 -186 -184.5 -285.5t-345.5 -99.5q-116 0 -214 36t-172.5 105t-116.5 179.5t-42 251.5q0 164 68 294.5t198 206.5t299 76
q126 0 228.5 -45.5t167 -123t99 -176.5t34.5 -210zM604 899q-182 0 -221 -233h430q-13 115 -66.5 174t-142.5 59z" />
    <glyph glyph-name="edieresis" unicode="&#xeb;" horiz-adv-x="1204" 
d="M416 1174q-62 0 -101 37t-39 98t39 98t101 37t100.5 -37t38.5 -98t-38.5 -98t-100.5 -37zM797 1174q-62 0 -100 37t-38 98t38 98t100 37t100.5 -37t38.5 -98t-38.5 -98t-100.5 -37zM1147 565q0 -43 -6 -102h-766q13 -148 71.5 -209t157.5 -61q84 0 138.5 43t68.5 120h317
q-43 -186 -184.5 -285.5t-345.5 -99.5q-116 0 -214 36t-172.5 105t-116.5 179.5t-42 251.5q0 164 68 294.5t198 206.5t299 76q126 0 228.5 -45.5t167 -123t99 -176.5t34.5 -210zM604 899q-182 0 -221 -233h430q-13 115 -66.5 174t-142.5 59z" />
    <glyph glyph-name="igrave" unicode="&#xec;" horiz-adv-x="565" 
d="M403 1174h-176l-282 249h286zM442 0h-321v1092h321v-1092z" />
    <glyph glyph-name="iacute" unicode="&#xed;" horiz-adv-x="565" 
d="M356 1174h-176l172 249h287zM442 0h-321v1092h321v-1092z" />
    <glyph glyph-name="icircumflex" unicode="&#xee;" horiz-adv-x="565" 
d="M213 1174h-190l129 249h260l129 -249h-193l-67 147zM121 1092h321v-1092h-321v1092z" />
    <glyph glyph-name="idieresis" unicode="&#xef;" horiz-adv-x="565" 
d="M90 1444q62 0 100.5 -37t38.5 -98t-38.5 -98t-100.5 -37t-100.5 37t-38.5 98t38.5 98t100.5 37zM471 1444q62 0 100.5 -37t38.5 -98t-38.5 -98t-100.5 -37t-99.5 37t-37.5 98t37.5 98t99.5 37zM442 0h-321v1092h321v-1092z" />
    <glyph glyph-name="eth" unicode="&#xf0;" horiz-adv-x="1316" 
d="M1159 1296l-86 -20q154 -222 154 -647q0 -141 -34 -255t-90 -187.5t-132 -123.5t-157 -71t-169 -21q-147 0 -260.5 42t-185.5 119t-109 180.5t-37 230.5q0 136 41.5 247t114 182t168 109.5t205.5 38.5q100 0 200 -59l90 -115q-19 149 -108 260l-264 -61l-29 137l162 39
q-64 42 -148 76l267 129q129 -58 211 -129l167 39zM895 532v60q0 136 -69.5 214.5t-176.5 78.5q-124 0 -192 -91t-68 -247q0 -168 66.5 -253t191.5 -85q120 0 184 86t64 237z" />
    <glyph glyph-name="ntilde" unicode="&#xf1;" horiz-adv-x="1292" 
d="M541 1247q-31 0 -31 -57h-166q0 126 40 184t124 58q43 0 75 -7t83 -30q71 -29 92 -29q17 0 23.5 13t6.5 46h168q0 -128 -40 -185.5t-125 -57.5q-66 0 -158 37q-76 28 -92 28zM1174 819q10 -69 10 -203v-616h-322v567q0 97 -4 152q-6 86 -54.5 133t-139.5 47
q-101 0 -161.5 -96.5t-60.5 -296.5v-506h-321v1092h321v-172l90 131q104 69 254 69q170 0 269.5 -78.5t118.5 -222.5z" />
    <glyph glyph-name="ograve" unicode="&#xf2;" horiz-adv-x="1255" 
d="M575 1174l-282 249h287l172 -249h-177zM629 1120q267 0 421 -157.5t154 -415.5q0 -259 -154.5 -417.5t-420.5 -158.5q-268 0 -422 158.5t-154 417.5t154 416t422 157zM629 193q115 0 179 92.5t64 261.5t-64 260.5t-179 91.5q-116 0 -181 -91.5t-65 -260.5t65 -261.5
t181 -92.5z" />
    <glyph glyph-name="oacute" unicode="&#xf3;" horiz-adv-x="1255" 
d="M705 1174h-177l172 249h287zM629 1120q267 0 421 -157.5t154 -415.5q0 -259 -154.5 -417.5t-420.5 -158.5q-268 0 -422 158.5t-154 417.5t154 416t422 157zM629 193q115 0 179 92.5t64 261.5t-64 260.5t-179 91.5q-116 0 -181 -91.5t-65 -260.5t65 -261.5t181 -92.5z" />
    <glyph glyph-name="ocircumflex" unicode="&#xf4;" horiz-adv-x="1255" 
d="M561 1174h-190l129 249h260l129 -249h-193l-67 147zM629 1120q267 0 421 -157.5t154 -415.5q0 -259 -154.5 -417.5t-420.5 -158.5q-268 0 -422 158.5t-154 417.5t154 416t422 157zM629 193q115 0 179 92.5t64 261.5t-64 260.5t-179 91.5q-116 0 -181 -91.5t-65 -260.5
t65 -261.5t181 -92.5z" />
    <glyph glyph-name="otilde" unicode="&#xf5;" horiz-adv-x="1255" 
d="M520 1247q-31 0 -31 -57h-165q0 127 39.5 184.5t123.5 57.5q43 0 75 -7t83 -30q71 -29 92 -29q17 0 24 13.5t7 45.5h168q0 -128 -40 -185.5t-126 -57.5q-66 0 -158 37q-76 28 -92 28zM629 1120q267 0 421 -157.5t154 -415.5q0 -259 -154.5 -417.5t-420.5 -158.5
q-268 0 -422 158.5t-154 417.5t154 416t422 157zM629 193q115 0 179 92.5t64 261.5t-64 260.5t-179 91.5q-116 0 -181 -91.5t-65 -260.5t65 -261.5t181 -92.5z" />
    <glyph glyph-name="odieresis" unicode="&#xf6;" horiz-adv-x="1255" 
d="M438 1174q-62 0 -100.5 37t-38.5 98t38.5 98t100.5 37t101 -37t39 -98t-39 -98t-101 -37zM819 1174q-62 0 -99.5 37t-37.5 98t37.5 98t99.5 37t100.5 -37t38.5 -98t-38.5 -98t-100.5 -37zM629 1120q267 0 421 -157.5t154 -415.5q0 -259 -154.5 -417.5t-420.5 -158.5
q-268 0 -422 158.5t-154 417.5t154 416t422 157zM629 193q115 0 179 92.5t64 261.5t-64 260.5t-179 91.5q-116 0 -181 -91.5t-65 -260.5t65 -261.5t181 -92.5z" />
    <glyph glyph-name="divide" unicode="&#xf7;" 
d="M657 1171q65 0 108.5 -43.5t43.5 -107.5t-43.5 -108t-108.5 -44q-63 0 -107 44t-44 108t44 107.5t107 43.5zM1141 563h-967v176h967v-176zM657 430q65 0 108.5 -43.5t43.5 -107.5q0 -65 -43.5 -108.5t-108.5 -43.5q-63 0 -107 44t-44 108t44 107.5t107 43.5z" />
    <glyph glyph-name="oslash" unicode="&#xf8;" horiz-adv-x="1298" 
d="M1253 1020l-133 -133q94 -142 94 -340q0 -259 -154.5 -417.5t-420.5 -158.5q-199 0 -342 92l-123 -122l-129 131l121 121q-103 142 -103 354q0 258 154.5 415.5t421.5 157.5q208 0 354 -100l131 131zM393 547q0 -59 10 -117l400 399q-64 70 -164 70q-116 0 -181 -91.5
t-65 -260.5zM883 547q0 53 -6 96l-392 -391q59 -59 154 -59q116 0 180 92t64 262z" />
    <glyph glyph-name="ugrave" unicode="&#xf9;" horiz-adv-x="1286" 
d="M580 1174l-283 249h287l172 -249h-176zM1163 1092v-1092h-319v186l-92 -145q-106 -70 -254 -70q-162 0 -263.5 79t-121.5 198q-11 76 -11 203v641h320v-572q0 -76 8 -149q22 -176 197 -176q100 0 158.5 82t58.5 231v584h319z" />
    <glyph glyph-name="uacute" unicode="&#xfa;" horiz-adv-x="1286" 
d="M709 1174h-177l173 249h286zM1163 1092v-1092h-319v186l-92 -145q-106 -70 -254 -70q-162 0 -263.5 79t-121.5 198q-11 76 -11 203v641h320v-572q0 -76 8 -149q22 -176 197 -176q100 0 158.5 82t58.5 231v584h319z" />
    <glyph glyph-name="ucircumflex" unicode="&#xfb;" horiz-adv-x="1286" 
d="M565 1174h-190l129 249h260l129 -249h-193l-67 147zM1163 1092v-1092h-319v186l-92 -145q-106 -70 -254 -70q-162 0 -263.5 79t-121.5 198q-11 76 -11 203v641h320v-572q0 -76 8 -149q22 -176 197 -176q100 0 158.5 82t58.5 231v584h319z" />
    <glyph glyph-name="udieresis" unicode="&#xfc;" horiz-adv-x="1286" 
d="M442 1174q-62 0 -100.5 37t-38.5 98t38.5 98t100.5 37t101 -37t39 -98t-39 -98t-101 -37zM823 1174q-62 0 -99.5 37t-37.5 98t37.5 98t99.5 37t101 -37t39 -98t-39 -98t-101 -37zM1163 1092v-1092h-319v186l-92 -145q-106 -70 -254 -70q-162 0 -263.5 79t-121.5 198
q-11 76 -11 203v641h320v-572q0 -76 8 -149q22 -176 197 -176q100 0 158.5 82t58.5 231v584h319z" />
    <glyph glyph-name="yacute" unicode="&#xfd;" horiz-adv-x="1196" 
d="M668 1174h-176l172 249h286zM1206 1092l-436 -1115q-93 -235 -196.5 -321t-284.5 -86q-79 0 -139 8v215q29 -4 90 -4q71 0 117.5 29t76.5 98l15 35l-449 1141h358l250 -844l248 844h350z" />
    <glyph glyph-name="thorn" unicode="&#xfe;" horiz-adv-x="1341" 
d="M805 1120q222 0 352.5 -153t130.5 -398q0 -143 -41.5 -258.5t-113.5 -188.5t-165 -112t-200 -39q-69 0 -141.5 16t-112.5 42l-72 114v-544h-321v1906h321v-577l82 121q45 34 120 52.5t161 18.5zM692 193q121 0 193.5 91.5t72.5 264.5q0 160 -70.5 255t-185.5 95
q-119 0 -189.5 -81.5t-70.5 -258.5v-49q0 -85 21.5 -148.5t58 -99t79 -52.5t91.5 -17z" />
    <glyph glyph-name="ydieresis" unicode="&#xff;" horiz-adv-x="1196" 
d="M401 1174q-62 0 -100.5 37t-38.5 98t38.5 98t100.5 37t101 -37t39 -98t-39 -98t-101 -37zM782 1174q-62 0 -99.5 37t-37.5 98t37.5 98t99.5 37t101 -37t39 -98t-39 -98t-101 -37zM1206 1092l-436 -1115q-93 -235 -196.5 -321t-284.5 -86q-79 0 -139 8v215q29 -4 90 -4
q71 0 117.5 29t76.5 98l15 35l-449 1141h358l250 -844l248 844h350z" />
    <glyph glyph-name="Amacron" unicode="&#x100;" horiz-adv-x="1413" 
d="M1022 1554h-584v175h584v-175zM954 399h-460l-132 -399h-342l510 1413h398l504 -1413h-349zM725 1135l-152 -484h301z" />
    <glyph glyph-name="amacron" unicode="&#x101;" horiz-adv-x="1173" 
d="M879 1210h-584v174h584v-174zM758 0l-23 160l-49 -117q-115 -72 -270 -72q-94 0 -172.5 36t-128 110t-49.5 174q0 180 154.5 278.5t441.5 98.5h69v18q0 57 -4 94q-5 52 -44 85.5t-108 33.5q-74 0 -115.5 -44t-47.5 -126h-308q3 122 68.5 211.5t173.5 134.5t242 45
q118 0 205 -24.5t139 -71t79 -105.5t33 -135q7 -89 7 -176v-332q0 -125 20 -276h-313zM543 193q77 0 132.5 54t55.5 150v80q-155 12 -245.5 -28t-90.5 -132q0 -60 40 -92t108 -32z" />
    <glyph glyph-name="Abreve" unicode="&#x102;" horiz-adv-x="1413" 
d="M729 1489q-119 0 -189.5 62t-70.5 196h166q6 -100 94 -100t94 100h166q0 -133 -71.5 -195.5t-188.5 -62.5zM954 399h-460l-132 -399h-342l510 1413h398l504 -1413h-349zM725 1135l-152 -484h301z" />
    <glyph glyph-name="abreve" unicode="&#x103;" horiz-adv-x="1173" 
d="M586 1163q-260 0 -260 260h166q6 -102 94 -102t94 102h166q0 -138 -70.5 -199t-189.5 -61zM758 0l-23 160l-49 -117q-115 -72 -270 -72q-94 0 -172.5 36t-128 110t-49.5 174q0 180 154.5 278.5t441.5 98.5h69v18q0 57 -4 94q-5 52 -44 85.5t-108 33.5q-74 0 -115.5 -44
t-47.5 -126h-308q3 122 68.5 211.5t173.5 134.5t242 45q118 0 205 -24.5t139 -71t79 -105.5t33 -135q7 -89 7 -176v-332q0 -125 20 -276h-313zM543 193q77 0 132.5 54t55.5 150v80q-155 12 -245.5 -28t-90.5 -132q0 -60 40 -92t108 -32z" />
    <glyph glyph-name="Aogonek" unicode="&#x104;" horiz-adv-x="1413" 
d="M1186 -168q0 -104 86 -104q47 0 96 43v-138q-97 -90 -254 -90q-223 0 -223 176q0 93 54.5 172.5t133.5 120.5l-125 387h-460l-132 -399h-342l510 1413h398l504 -1413h-129q-48 -3 -82.5 -52t-34.5 -116zM725 1135l-152 -484h301z" />
    <glyph glyph-name="aogonek" unicode="&#x105;" horiz-adv-x="1173" 
d="M862 -168q0 -104 86 -104q47 0 96 43v-138q-97 -90 -253 -90q-224 0 -224 176q0 93 55 172.5t134 122.5l-21 146l-49 -117q-115 -72 -270 -72q-94 0 -172.5 36t-128 110t-49.5 174q0 180 154.5 278.5t441.5 98.5h69v18q0 57 -4 94q-5 52 -44 85.5t-108 33.5
q-74 0 -115.5 -44t-47.5 -126h-308q3 122 68.5 211.5t173.5 134.5t242 45q118 0 205 -24.5t139 -71t79 -105.5t33 -135q7 -89 7 -176v-332q0 -125 20 -276h-92q-48 -3 -82.5 -52t-34.5 -116zM543 193q77 0 132.5 54t55.5 150v80q-155 12 -245.5 -28t-90.5 -132q0 -60 40 -92
t108 -32z" />
    <glyph glyph-name="Cacute" unicode="&#x106;" horiz-adv-x="1484" 
d="M854 1505h-176l168 242h287zM799 1442q143 0 257.5 -37t190 -103.5t119.5 -155t55 -194.5l2 -20h-321l-4 20q-51 252 -303 252q-158 0 -254.5 -128.5t-96.5 -358.5q0 -253 97.5 -380.5t251.5 -127.5q122 0 198 70t101 198l4 21h321l-2 -21q-25 -238 -195 -372t-440 -134
q-145 0 -268.5 49t-213.5 140t-141 229.5t-51 308.5q0 174 53.5 316t147 235t220 143t272.5 50z" />
    <glyph glyph-name="cacute" unicode="&#x107;" horiz-adv-x="1173" 
d="M664 1174h-177l172 249h287zM612 1120q223 0 360.5 -122t149.5 -310h-313q-32 211 -205 211q-104 0 -162.5 -86.5t-58.5 -255.5q0 -184 58.5 -274t162.5 -90q75 0 129 50.5t72 143.5h317q-32 -202 -175 -309t-361 -107q-114 0 -211 37t-169 106.5t-112.5 178t-40.5 244.5
q0 137 44 248.5t120 184t177 111.5t218 39z" />
    <glyph glyph-name="Cdotaccent" unicode="&#x10a;" horiz-adv-x="1484" 
d="M778 1808q74 0 120 -43.5t46 -113.5q0 -72 -46 -116t-120 -44t-120 44t-46 116q0 70 46 113.5t120 43.5zM799 1442q143 0 257.5 -37t190 -103.5t119.5 -155t55 -194.5l2 -20h-321l-4 20q-51 252 -303 252q-158 0 -254.5 -128.5t-96.5 -358.5q0 -253 97.5 -380.5
t251.5 -127.5q122 0 198 70t101 198l4 21h321l-2 -21q-25 -238 -195 -372t-440 -134q-145 0 -268.5 49t-213.5 140t-141 229.5t-51 308.5q0 174 53.5 316t147 235t220 143t272.5 50z" />
    <glyph glyph-name="cdotaccent" unicode="&#x10b;" horiz-adv-x="1173" 
d="M588 1513q77 0 124.5 -44t47.5 -117q0 -75 -47.5 -119.5t-124.5 -44.5t-123.5 44.5t-46.5 119.5q0 73 46.5 117t123.5 44zM612 1120q223 0 360.5 -122t149.5 -310h-313q-32 211 -205 211q-104 0 -162.5 -86.5t-58.5 -255.5q0 -184 58.5 -274t162.5 -90q75 0 129 50.5
t72 143.5h317q-32 -202 -175 -309t-361 -107q-114 0 -211 37t-169 106.5t-112.5 178t-40.5 244.5q0 137 44 248.5t120 184t177 111.5t218 39z" />
    <glyph glyph-name="Ccaron" unicode="&#x10c;" horiz-adv-x="1484" 
d="M649 1505l-129 242h195l67 -145l64 145h192l-129 -242h-260zM1096 498h321l-2 -21q-25 -238 -195 -372t-440 -134q-145 0 -268.5 49t-213.5 140t-141 229.5t-51 308.5q0 174 53.5 316t147 235t220 143t272.5 50q143 0 257.5 -37t190 -103.5t119.5 -155t55 -194.5l2 -20
h-321l-4 20q-51 252 -303 252q-158 0 -254.5 -128.5t-96.5 -358.5q0 -253 97.5 -380.5t251.5 -127.5q122 0 198 70t101 198z" />
    <glyph glyph-name="ccaron" unicode="&#x10d;" horiz-adv-x="1173" 
d="M459 1174l-129 249h192l70 -147l65 147h191l-129 -249h-260zM604 193q75 0 129 50.5t72 143.5h317q-32 -202 -175 -309t-361 -107q-114 0 -211 37t-169 106.5t-112.5 178t-40.5 244.5q0 137 44 248.5t120 184t177 111.5t218 39q223 0 360.5 -122t149.5 -310h-313
q-32 211 -205 211q-104 0 -162.5 -86.5t-58.5 -255.5q0 -184 58.5 -274t162.5 -90z" />
    <glyph glyph-name="Dcaron" unicode="&#x10e;" horiz-adv-x="1513" 
d="M651 1505l-129 242h195l67 -145l64 145h192l-129 -242h-260zM862 1405q126 -14 231 -61.5t186.5 -128.5t127 -206t45.5 -284t-46 -289.5t-127 -218.5t-187.5 -141t-231.5 -68q-72 -8 -180 -8h-506v1413h508q108 0 180 -8zM782 256q152 18 242 141t90 324
q0 195 -88.5 306.5t-241.5 129.5q-71 6 -143 6h-145v-911h143q96 0 143 4z" />
    <glyph glyph-name="dcaron" unicode="&#x10f;" horiz-adv-x="1343" 
d="M1636 1507v-22l-186 -328h-180l155 350h211zM899 1505h322v-1505h-322v164l-82 -121q-45 -35 -120 -53.5t-160 -18.5q-223 0 -353.5 153t-130.5 400q0 143 41.5 257.5t113.5 187.5t165 112t200 39q69 0 141.5 -15.5t112.5 -41.5l72 -115v557zM639 193q118 0 189 81
t71 258v52q0 161 -73.5 238t-176.5 77q-121 0 -193.5 -91.5t-72.5 -264.5q0 -160 70.5 -255t185.5 -95z" />
    <glyph glyph-name="Dcroat" unicode="&#x110;" horiz-adv-x="1525" 
d="M874 1405q126 -14 230.5 -61t186 -128.5t126.5 -206.5t45 -284t-46 -289.5t-126.5 -218.5t-186.5 -141t-231 -68q-72 -8 -180 -8h-506v606h-120v176h120v631h508q108 0 180 -8zM793 256q152 18 242.5 141t90.5 324q0 195 -88.5 306.5t-240.5 129.5q-70 6 -144 6h-147
v-381h227v-176h-227v-354h145q97 0 142 4z" />
    <glyph glyph-name="dcroat" unicode="&#x111;" horiz-adv-x="1345" 
d="M1305 1188h-84v-1188h-322v164l-82 -121q-45 -35 -120 -53.5t-160 -18.5q-223 0 -353.5 153t-130.5 400q0 143 41.5 257.5t113.5 187.5t165 112t200 39q69 0 141.5 -15.5t112.5 -41.5l72 -115v240h-244v176h244v141h322v-141h84v-176zM639 193q118 0 189 81t71 258v52
q0 161 -73.5 238t-176.5 77q-121 0 -193.5 -91.5t-72.5 -264.5q0 -160 70.5 -255t185.5 -95z" />
    <glyph glyph-name="Emacron" unicode="&#x112;" horiz-adv-x="1282" 
d="M987 1554h-584v175h584v-175zM1223 252v-252h-1049v1413h1028v-250h-706v-329h659v-250h-659v-332h727z" />
    <glyph glyph-name="emacron" unicode="&#x113;" horiz-adv-x="1204" 
d="M899 1210h-584v174h584v-174zM1147 565q0 -43 -6 -102h-766q13 -148 71.5 -209t157.5 -61q84 0 138.5 43t68.5 120h317q-43 -186 -184.5 -285.5t-345.5 -99.5q-116 0 -214 36t-172.5 105t-116.5 179.5t-42 251.5q0 164 68 294.5t198 206.5t299 76q126 0 228.5 -45.5
t167 -123t99 -176.5t34.5 -210zM604 899q-182 0 -221 -233h430q-13 115 -66.5 174t-142.5 59z" />
    <glyph glyph-name="Edotaccent" unicode="&#x116;" horiz-adv-x="1282" 
d="M694 1491q-74 0 -120 44t-46 116q0 70 46 113.5t120 43.5t120 -43.5t46 -113.5q0 -72 -46 -116t-120 -44zM1223 252v-252h-1049v1413h1028v-250h-706v-329h659v-250h-659v-332h727z" />
    <glyph glyph-name="edotaccent" unicode="&#x117;" horiz-adv-x="1204" 
d="M606 1188q-77 0 -123.5 44.5t-46.5 119.5q0 73 46.5 117t123.5 44t124.5 -44t47.5 -117q0 -75 -47.5 -119.5t-124.5 -44.5zM1147 565q0 -43 -6 -102h-766q13 -148 71.5 -209t157.5 -61q84 0 138.5 43t68.5 120h317q-43 -186 -184.5 -285.5t-345.5 -99.5q-116 0 -214 36
t-172.5 105t-116.5 179.5t-42 251.5q0 164 68 294.5t198 206.5t299 76q126 0 228.5 -45.5t167 -123t99 -176.5t34.5 -210zM604 899q-182 0 -221 -233h430q-13 115 -66.5 174t-142.5 59z" />
    <glyph glyph-name="Eogonek" unicode="&#x118;" horiz-adv-x="1282" 
d="M1223 0h-78q-48 -3 -82.5 -52t-34.5 -116q0 -104 86 -104q47 0 96 43v-138q-97 -90 -254 -90q-223 0 -223 176q0 86 47.5 161.5t118.5 119.5h-725v1413h1028v-250h-706v-329h659v-250h-659v-332h727v-252z" />
    <glyph glyph-name="eogonek" unicode="&#x119;" horiz-adv-x="1204" 
d="M1147 565q0 -43 -6 -102h-766q13 -148 71.5 -209t157.5 -61q84 0 138.5 43t68.5 120h317q-32 -136 -117 -226.5t-212 -129.5q-6 -2 -17.5 -5t-17.5 -5q-36 -18 -59 -61t-23 -97q0 -104 86 -104q47 0 96 43v-138q-97 -90 -254 -90q-223 0 -223 176q0 74 36.5 141.5
t94.5 114.5q-101 12 -185 53.5t-147 110.5t-98 172.5t-35 231.5q0 164 68 294.5t198 206.5t299 76q126 0 228.5 -45.5t167 -123t99 -176.5t34.5 -210zM604 899q-182 0 -221 -233h430q-13 115 -66.5 174t-142.5 59z" />
    <glyph glyph-name="Ecaron" unicode="&#x11a;" horiz-adv-x="1282" 
d="M565 1505l-129 242h195l67 -145l64 145h192l-129 -242h-260zM1223 252v-252h-1049v1413h1028v-250h-706v-329h659v-250h-659v-332h727z" />
    <glyph glyph-name="ecaron" unicode="&#x11b;" horiz-adv-x="1204" 
d="M477 1174l-129 249h193l69 -147l66 147h190l-129 -249h-260zM1147 565q0 -43 -6 -102h-766q13 -148 71.5 -209t157.5 -61q84 0 138.5 43t68.5 120h317q-43 -186 -184.5 -285.5t-345.5 -99.5q-116 0 -214 36t-172.5 105t-116.5 179.5t-42 251.5q0 164 68 294.5t198 206.5
t299 76q126 0 228.5 -45.5t167 -123t99 -176.5t34.5 -210zM604 899q-182 0 -221 -233h430q-13 115 -66.5 174t-142.5 59z" />
    <glyph glyph-name="Gbreve" unicode="&#x11e;" horiz-adv-x="1529" 
d="M782 1489q-119 0 -189.5 62t-70.5 196h166q6 -100 94 -100q89 0 95 100h165q0 -133 -71.5 -195.5t-188.5 -62.5zM834 735h591v-735h-254l-24 223l-64 -147q-60 -55 -139.5 -80t-195.5 -25q-293 0 -467.5 193t-174.5 534q0 174 55.5 316t151.5 235t224.5 143t275.5 50
q283 0 441.5 -135t181.5 -355l2 -20h-320l-4 20q-51 252 -305 252q-160 0 -262.5 -129.5t-102.5 -357.5q0 -253 100.5 -380.5t260.5 -127.5q124 0 205.5 71t109.5 205h-286v250z" />
    <glyph glyph-name="gbreve" unicode="&#x11f;" horiz-adv-x="1343" 
d="M662 1163q-261 0 -261 260h166q6 -102 95 -102q88 0 94 102h166q0 -138 -70.5 -199t-189.5 -61zM1221 1092v-816q0 -151 -2 -210q-9 -256 -168.5 -384t-434.5 -128q-241 0 -378 96.5t-156 279.5l-2 21h311l2 -19q7 -66 69.5 -103.5t162.5 -37.5q122 0 193 59.5t77 178.5
q4 78 4 137v29l-82 -121q-98 -72 -264 -72q-227 0 -363.5 146t-136.5 389q0 142 41.5 255t113.5 183.5t165 107.5t200 37q69 0 141.5 -15.5t112.5 -41.5l72 -115v144h322zM639 223q118 0 189 81.5t71 258.5v21q0 161 -73.5 238t-176.5 77q-123 0 -194.5 -83.5t-71.5 -254.5
q0 -159 70 -248.5t186 -89.5z" />
    <glyph glyph-name="Gdotaccent" unicode="&#x120;" horiz-adv-x="1529" 
d="M782 1491q-74 0 -120 44t-46 116q0 70 46 113.5t120 43.5t120 -43.5t46 -113.5q0 -72 -46 -116t-120 -44zM834 735h591v-735h-254l-24 223l-64 -147q-60 -55 -139.5 -80t-195.5 -25q-293 0 -467.5 193t-174.5 534q0 174 55.5 316t151.5 235t224.5 143t275.5 50
q283 0 441.5 -135t181.5 -355l2 -20h-320l-4 20q-51 252 -305 252q-160 0 -262.5 -129.5t-102.5 -357.5q0 -253 100.5 -380.5t260.5 -127.5q124 0 205.5 71t109.5 205h-286v250z" />
    <glyph glyph-name="gdotaccent" unicode="&#x121;" horiz-adv-x="1343" 
d="M662 1188q-77 0 -123.5 44.5t-46.5 119.5q0 73 46.5 117t123.5 44t124.5 -44t47.5 -117q0 -75 -47.5 -119.5t-124.5 -44.5zM1221 1092v-816q0 -151 -2 -210q-9 -256 -168.5 -384t-434.5 -128q-241 0 -378 96.5t-156 279.5l-2 21h311l2 -19q7 -66 69.5 -103.5t162.5 -37.5
q122 0 193 59.5t77 178.5q4 78 4 137v29l-82 -121q-98 -72 -264 -72q-227 0 -363.5 146t-136.5 389q0 142 41.5 255t113.5 183.5t165 107.5t200 37q69 0 141.5 -15.5t112.5 -41.5l72 -115v144h322zM639 223q118 0 189 81.5t71 258.5v21q0 161 -73.5 238t-176.5 77
q-123 0 -194.5 -83.5t-71.5 -254.5q0 -159 70 -248.5t186 -89.5z" />
    <glyph glyph-name="Gcommaaccent" unicode="&#x122;" horiz-adv-x="1529" 
d="M834 735h591v-735h-254l-24 223l-64 -147q-60 -55 -139.5 -80t-195.5 -25q-293 0 -467.5 193t-174.5 534q0 174 55.5 316t151.5 235t224.5 143t275.5 50q283 0 441.5 -135t181.5 -355l2 -20h-320l-4 20q-51 252 -305 252q-160 0 -262.5 -129.5t-102.5 -357.5
q0 -253 100.5 -380.5t260.5 -127.5q124 0 205.5 71t109.5 205h-286v250zM723 -84h211v-20l-186 -328h-181z" />
    <glyph glyph-name="gcommaaccent" unicode="&#x123;" horiz-adv-x="1343" 
d="M739 1169h-209v21l185 328h180zM1221 1092v-816q0 -151 -2 -210q-9 -256 -168.5 -384t-434.5 -128q-241 0 -378 96.5t-156 279.5l-2 21h311l2 -19q7 -66 69.5 -103.5t162.5 -37.5q122 0 193 59.5t77 178.5q4 78 4 137v29l-82 -121q-98 -72 -264 -72q-227 0 -363.5 146
t-136.5 389q0 142 41.5 255t113.5 183.5t165 107.5t200 37q69 0 141.5 -15.5t112.5 -41.5l72 -115v144h322zM639 223q118 0 189 81.5t71 258.5v21q0 161 -73.5 238t-176.5 77q-123 0 -194.5 -83.5t-71.5 -254.5q0 -159 70 -248.5t186 -89.5z" />
    <glyph glyph-name="Hbar" unicode="&#x126;" horiz-adv-x="1556" 
d="M1516 997h-82v-997h-320v567h-618v-567h-322v997h-82v177h82v239h322v-239h618v239h320v-239h82v-177zM1114 997h-618v-178h618v178z" />
    <glyph glyph-name="hbar" unicode="&#x127;" horiz-adv-x="1318" 
d="M1200 819q10 -69 10 -203v-616h-321v567q0 97 -4 152q-6 86 -55 133t-140 47q-101 -2 -161 -97.5t-60 -295.5v-506h-322v1188h-108v176h108v152h322v-152h219v-176h-219v-268l90 131q104 69 254 69q170 0 269 -78.5t118 -222.5z" />
    <glyph glyph-name="Imacron" unicode="&#x12a;" horiz-adv-x="618" 
d="M627 1554h-584v175h584v-175zM496 0h-322v1413h322v-1413z" />
    <glyph glyph-name="imacron" unicode="&#x12b;" horiz-adv-x="565" 
d="M573 1210h-585v174h585v-174zM442 0h-321v1092h321v-1092z" />
    <glyph glyph-name="Iogonek" unicode="&#x12e;" horiz-adv-x="618" 
d="M496 0h-101q-48 -3 -82 -52t-34 -116q0 -104 86 -104q47 0 96 43v-138q-97 -90 -254 -90q-223 0 -223 176q0 93 55.5 173.5t134.5 121.5v1399h322v-1413z" />
    <glyph glyph-name="iogonek" unicode="&#x12f;" horiz-adv-x="565" 
d="M281 1188q-77 0 -123.5 44.5t-46.5 119.5q0 73 46.5 117t123.5 44t124.5 -44t47.5 -117q0 -75 -47.5 -119.5t-124.5 -44.5zM121 1092h321v-1092h-100q-48 -3 -82.5 -52t-34.5 -116q0 -104 86 -104q48 0 97 43v-138q-97 -90 -254 -90q-224 0 -224 176q0 93 56 173.5
t135 121.5v1078z" />
    <glyph glyph-name="Idotaccent" unicode="&#x130;" horiz-adv-x="618" 
d="M334 1808q74 0 120 -43.5t46 -113.5q0 -72 -46 -116t-120 -44t-120 44t-46 116q0 70 46 113.5t120 43.5zM496 0h-322v1413h322v-1413z" />
    <glyph glyph-name="dotlessi" unicode="&#x131;" horiz-adv-x="565" 
d="M442 0h-321v1092h321v-1092z" />
    <glyph glyph-name="IJ" unicode="&#x132;" horiz-adv-x="1875" 
d="M496 0h-322v1413h322v-1413zM1769 1413v-819q0 -107 -6 -203q-11 -194 -140.5 -307t-381.5 -113q-256 0 -384 128.5t-134 359.5l-2 67h319l4 -67q9 -134 62 -192t149 -58q87 0 134 52.5t55 148.5q4 47 4 143v860h321z" />
    <glyph glyph-name="ij" unicode="&#x133;" horiz-adv-x="1118" 
d="M281 1513q77 0 124.5 -44t47.5 -117q0 -75 -47.5 -119.5t-124.5 -44.5t-123.5 44.5t-46.5 119.5q0 73 46.5 117t123.5 44zM842 1513q170 0 170 -161q0 -164 -170 -164q-87 0 -129.5 40t-42.5 124q0 83 42.5 122t129.5 39zM442 0h-321v1092h321v-1092zM1001 1092v-1090
q0 -59 -4 -133q-11 -146 -105.5 -222.5t-295.5 -76.5q-62 0 -115 6v223q99 -9 144 14t51 89q4 29 4 96v1094h321z" />
    <glyph glyph-name="Kcommaaccent" unicode="&#x136;" horiz-adv-x="1454" 
d="M838 741l594 -741h-408l-420 561l-108 -121v-440h-322v1413h322v-655l577 655h383zM657 -84h211v-20l-186 -328h-180z" />
    <glyph glyph-name="kcommaaccent" unicode="&#x137;" horiz-adv-x="1239" 
d="M1243 0h-399l-318 418l-84 -92v-326h-321v1505h321v-893l414 480h381l-473 -504zM557 -84h211v-20l-186 -328h-181z" />
    <glyph glyph-name="Lacute" unicode="&#x139;" horiz-adv-x="1259" 
d="M410 1505h-177l168 242h287zM1223 270v-270h-1049v1413h322v-1143h727z" />
    <glyph glyph-name="lacute" unicode="&#x13a;" horiz-adv-x="595" 
d="M338 1597h-176l172 250h287zM434 1505v-1132q0 -72 2 -101q5 -38 30 -51t95 -10v-219q-102 -10 -192 -10q-241 0 -252 202q-4 53 -4 183v1138h321z" />
    <glyph glyph-name="Lcommaaccent" unicode="&#x13b;" horiz-adv-x="1259" 
d="M1223 270v-270h-1049v1413h322v-1143h727zM616 -84h211v-20l-186 -328h-180z" />
    <glyph glyph-name="lcommaaccent" unicode="&#x13c;" horiz-adv-x="595" 
d="M434 1505v-1132q0 -72 2 -101q5 -38 30 -51t95 -10v-219q-102 -10 -192 -10q-241 0 -252 202q-4 53 -4 183v1138h321zM446 -104l-186 -328h-180l156 348h210v-20z" />
    <glyph glyph-name="Lcaron" unicode="&#x13d;" horiz-adv-x="1259" 
d="M1223 270v-270h-1049v1413h322v-1143h727z" />
    <glyph glyph-name="lcaron" unicode="&#x13e;" horiz-adv-x="595" 
d="M434 1505v-1132q0 -72 2 -101q5 -38 30 -51t95 -10v-219q-102 -10 -192 -10q-241 0 -252 202q-4 53 -4 183v1138h321z" />
    <glyph glyph-name="Ldot" unicode="&#x13f;" horiz-adv-x="1259" 
d="M1223 270v-270h-1049v1413h322v-1143h727zM893 637q-78 0 -130 52.5t-52 129.5q0 78 52 130t130 52q77 0 128.5 -52t51.5 -130q0 -77 -52 -129.5t-128 -52.5z" />
    <glyph glyph-name="ldot" unicode="&#x140;" horiz-adv-x="917" 
d="M434 1505v-1132q0 -72 2 -101q5 -38 30 -51t95 -10v-219q-102 -10 -192 -10q-241 0 -252 202q-4 53 -4 183v1138h321zM727 983q75 0 123.5 -46t48.5 -118t-48.5 -118t-123.5 -46q-74 0 -122 46t-48 118t48 118t122 46z" />
    <glyph glyph-name="Lslash" unicode="&#x141;" horiz-adv-x="1331" 
d="M1294 270v-270h-1046v584l-201 -109v209l201 109v620h319v-446l197 106v-209l-197 -106v-488h727z" />
    <glyph glyph-name="lslash" unicode="&#x142;" horiz-adv-x="663" 
d="M485 272q3 -38 28 -51t95 -10v-219q-98 -10 -192 -10q-241 0 -252 202q-4 53 -4 183v84l-125 -78v217l125 78v837h321v-635l125 78v-217l-125 -78v-280q0 -72 4 -101z" />
    <glyph glyph-name="Nacute" unicode="&#x143;" horiz-adv-x="1587" 
d="M887 1505h-176l168 242h286zM1464 0h-428l-553 1012q13 -195 13 -398v-614h-322v1413h412l569 -1040q-10 184 -10 411v629h319v-1413z" />
    <glyph glyph-name="nacute" unicode="&#x144;" horiz-adv-x="1292" 
d="M1008 1423l-283 -249h-176l172 249h287zM1174 819q10 -69 10 -203v-616h-322v567q0 97 -4 152q-6 86 -54.5 133t-139.5 47q-101 0 -161.5 -96.5t-60.5 -296.5v-506h-321v1092h321v-172l90 131q104 69 254 69q170 0 269.5 -78.5t118.5 -222.5z" />
    <glyph glyph-name="Ncommaaccent" unicode="&#x145;" horiz-adv-x="1587" 
d="M1464 0h-428l-553 1012q13 -195 13 -398v-614h-322v1413h412l569 -1040q-10 184 -10 411v629h319v-1413zM948 -104l-186 -328h-180l155 348h211v-20z" />
    <glyph glyph-name="ncommaaccent" unicode="&#x146;" horiz-adv-x="1292" 
d="M1174 819q10 -69 10 -203v-616h-322v567q0 97 -4 152q-6 86 -54.5 133t-139.5 47q-101 0 -161.5 -96.5t-60.5 -296.5v-506h-321v1092h321v-172l90 131q104 69 254 69q170 0 269.5 -78.5t118.5 -222.5zM412 -432l155 348h211v-20l-186 -328h-180z" />
    <glyph glyph-name="Ncaron" unicode="&#x147;" horiz-adv-x="1587" 
d="M682 1505l-129 242h195l67 -145l64 145h192l-129 -242h-260zM1464 1413v-1413h-428l-553 1012q13 -195 13 -398v-614h-322v1413h412l569 -1040q-10 184 -10 411v629h319z" />
    <glyph glyph-name="ncaron" unicode="&#x148;" horiz-adv-x="1292" 
d="M780 1174h-260l-129 249h193l69 -147l66 147h190zM1174 819q10 -69 10 -203v-616h-322v567q0 97 -4 152q-6 86 -54.5 133t-139.5 47q-101 0 -161.5 -96.5t-60.5 -296.5v-506h-321v1092h321v-172l90 131q104 69 254 69q170 0 269.5 -78.5t118.5 -222.5z" />
    <glyph glyph-name="Eng" unicode="&#x14a;" horiz-adv-x="1587" 
d="M1464 1413v-1536q0 -55 -2 -84q-13 -134 -123.5 -192t-347.5 -58v238q87 7 119.5 36.5t32.5 88.5v47l-660 1055q13 -195 13 -394v-614h-322v1413h412l569 -958q-10 184 -10 401v557h319z" />
    <glyph glyph-name="eng" unicode="&#x14b;" horiz-adv-x="1292" 
d="M1174 819q10 -69 10 -203v-696q0 -55 -2 -84q-9 -96 -53.5 -152t-146.5 -85t-275 -29v237q75 0 111 20.5t42 74.5q2 18 2 63v602q0 97 -4 152q-6 86 -54.5 133t-139.5 47q-101 0 -161.5 -96.5t-60.5 -296.5v-506h-321v1092h321v-172l90 131q104 69 254 69
q170 0 269.5 -78.5t118.5 -222.5z" />
    <glyph glyph-name="Omacron" unicode="&#x14c;" horiz-adv-x="1587" 
d="M1110 1554h-584v175h584v-175zM817 1442q326 0 517.5 -199t191.5 -536q0 -336 -191.5 -536t-517.5 -200q-327 0 -519 200t-192 536q0 337 191.5 536t519.5 199zM817 209q176 0 276.5 131.5t100.5 366.5q0 236 -100.5 366.5t-276.5 130.5q-178 0 -278.5 -130.5
t-100.5 -366.5q0 -235 100.5 -366.5t278.5 -131.5z" />
    <glyph glyph-name="omacron" unicode="&#x14d;" horiz-adv-x="1255" 
d="M922 1210h-584v174h584v-174zM629 1120q267 0 421 -157.5t154 -415.5q0 -259 -154.5 -417.5t-420.5 -158.5q-268 0 -422 158.5t-154 417.5t154 416t422 157zM629 193q115 0 179 92.5t64 261.5t-64 260.5t-179 91.5q-116 0 -181 -91.5t-65 -260.5t65 -261.5t181 -92.5z
" />
    <glyph glyph-name="Ohungarumlaut" unicode="&#x150;" horiz-adv-x="1587" 
d="M668 1507h-176l167 240h287zM856 1507l168 240h287l-279 -240h-176zM817 1442q326 0 517.5 -199t191.5 -536q0 -336 -191.5 -536t-517.5 -200q-327 0 -519 200t-192 536q0 337 191.5 536t519.5 199zM817 209q176 0 276.5 131.5t100.5 366.5q0 236 -100.5 366.5
t-276.5 130.5q-178 0 -278.5 -130.5t-100.5 -366.5q0 -235 100.5 -366.5t278.5 -131.5z" />
    <glyph glyph-name="ohungarumlaut" unicode="&#x151;" horiz-adv-x="1255" 
d="M496 1174h-177l170 249h287zM674 1174l172 249h287l-283 -249h-176zM629 1120q267 0 421 -157.5t154 -415.5q0 -259 -154.5 -417.5t-420.5 -158.5q-268 0 -422 158.5t-154 417.5t154 416t422 157zM629 193q115 0 179 92.5t64 261.5t-64 260.5t-179 91.5
q-116 0 -181 -91.5t-65 -260.5t65 -261.5t181 -92.5z" />
    <glyph glyph-name="OE" unicode="&#x152;" horiz-adv-x="2301" 
d="M2241 252v-252h-1047v229l-64 -139q-77 -68 -159.5 -93.5t-220.5 -25.5q-184 0 -330.5 91t-230 259.5t-83.5 385.5q0 329 181.5 532t462.5 203q140 0 221 -25t159 -92l64 -141v229h1026v-250h-707v-329h662v-250h-662v-332h728zM817 209q175 0 276 132.5t101 365.5
q0 235 -100.5 366t-276.5 131q-178 0 -278.5 -131t-100.5 -366q0 -233 101 -365.5t278 -132.5z" />
    <glyph glyph-name="oe" unicode="&#x153;" horiz-adv-x="2025" 
d="M1968 565q0 -43 -6 -102h-768q24 -270 229 -270q86 0 140.5 43t66.5 120h318q-42 -185 -182.5 -285t-340.5 -100q-265 0 -393 207q-130 -207 -403 -207q-268 0 -422 158.5t-154 417.5t154 416t422 157q279 0 413 -219q133 219 412 219q121 0 220.5 -45.5t162.5 -123
t97 -177t34 -209.5zM629 193q115 0 179 92.5t64 261.5t-64 260.5t-179 91.5q-116 0 -181 -91.5t-65 -260.5t65 -261.5t181 -92.5zM1204 666h430q-14 114 -67 173.5t-142 59.5q-88 0 -145.5 -58.5t-75.5 -174.5z" />
    <glyph glyph-name="Racute" unicode="&#x154;" horiz-adv-x="1363" 
d="M795 1505h-177l168 242h287zM1233 350q14 -126 38 -207.5t66 -142.5h-350q-51 143 -67 301q-28 240 -185 252q-39 2 -112 2h-127v-555h-322v1413h537q121 0 213 -10q80 -10 145.5 -35t118 -68.5t81.5 -112.5t29 -159q0 -133 -72.5 -221t-207.5 -127q103 -38 152.5 -119.5
t62.5 -210.5zM496 791h166q79 0 108 2q193 19 193 184q0 90 -47 131t-134 51q-58 4 -108 4h-178v-372z" />
    <glyph glyph-name="racute" unicode="&#x155;" horiz-adv-x="815" 
d="M498 1174h-176l172 249h286zM723 1120q32 0 82 -8v-260q-193 12 -278 -77t-85 -318v-457h-321v1092h321v-209l82 151q40 41 94.5 63.5t104.5 22.5z" />
    <glyph glyph-name="Rcommaaccent" unicode="&#x156;" horiz-adv-x="1363" 
d="M1233 350q14 -126 38 -207.5t66 -142.5h-350q-51 143 -67 301q-28 240 -185 252q-39 2 -112 2h-127v-555h-322v1413h537q121 0 213 -10q80 -10 145.5 -35t118 -68.5t81.5 -112.5t29 -159q0 -133 -72.5 -221t-207.5 -127q103 -38 152.5 -119.5t62.5 -210.5zM496 791h166
q79 0 108 2q193 19 193 184q0 90 -47 131t-134 51q-58 4 -108 4h-178v-372zM631 -84h211v-20l-187 -328h-180z" />
    <glyph glyph-name="rcommaaccent" unicode="&#x157;" horiz-adv-x="815" 
d="M723 1120q32 0 82 -8v-260q-193 12 -278 -77t-85 -318v-457h-321v1092h321v-209l82 151q40 41 94.5 63.5t104.5 22.5zM205 -84h211v-20l-187 -328h-180z" />
    <glyph glyph-name="Rcaron" unicode="&#x158;" horiz-adv-x="1363" 
d="M590 1505l-129 242h194l68 -145l63 145h193l-129 -242h-260zM1233 350q14 -126 38 -207.5t66 -142.5h-350q-51 143 -67 301q-28 240 -185 252q-39 2 -112 2h-127v-555h-322v1413h537q121 0 213 -10q80 -10 145.5 -35t118 -68.5t81.5 -112.5t29 -159q0 -133 -72.5 -221
t-207.5 -127q103 -38 152.5 -119.5t62.5 -210.5zM496 791h166q79 0 108 2q193 19 193 184q0 90 -47 131t-134 51q-58 4 -108 4h-178v-372z" />
    <glyph glyph-name="rcaron" unicode="&#x159;" horiz-adv-x="815" 
d="M293 1174l-129 249h192l70 -147l66 147h190l-129 -249h-260zM723 1120q32 0 82 -8v-260q-193 12 -278 -77t-85 -318v-457h-321v1092h321v-209l82 151q40 41 94.5 63.5t104.5 22.5z" />
    <glyph glyph-name="Sacute" unicode="&#x15a;" horiz-adv-x="1261" 
d="M733 1505h-176l168 242h287zM655 1442q128 0 227.5 -34.5t163 -97t100 -142.5t48.5 -179h-324q-12 101 -69 158t-156 57q-78 0 -125 -37.5t-47 -111.5q0 -81 65.5 -129.5t233.5 -87.5q230 -55 338.5 -165t108.5 -280q0 -100 -44 -181t-119.5 -133t-172 -80t-203.5 -28
q-266 0 -424 114.5t-176 338.5h323q21 -105 95.5 -160t175.5 -55q90 0 149.5 43.5t59.5 114.5q0 76 -59 127t-199 84q-97 24 -168 49.5t-134 62.5t-102 82.5t-61.5 108.5t-22.5 143q0 128 73 224.5t189.5 145t255.5 48.5z" />
    <glyph glyph-name="sacute" unicode="&#x15b;" horiz-adv-x="1046" 
d="M891 1423l-283 -249h-176l172 249h287zM539 1120q192 0 306.5 -95.5t135.5 -250.5h-317q-28 141 -146 141q-51 0 -81.5 -28t-30.5 -72q0 -56 54 -92t199 -72q171 -43 259 -122t88 -224q0 -110 -63.5 -187t-165.5 -112t-234 -35q-215 0 -348 92.5t-154 272.5h317
q17 -75 67.5 -116.5t119.5 -41.5q62 0 100.5 26.5t38.5 76.5q0 58 -58.5 94.5t-203.5 70.5q-164 41 -251 119t-87 211q0 159 124 251.5t331 92.5z" />
    <glyph glyph-name="Scedilla" unicode="&#x15e;" horiz-adv-x="1261" 
d="M1219 393q0 -78 -28 -146t-77 -117t-115 -84.5t-143 -54t-160 -20.5l-28 -55q188 -24 188 -162q0 -65 -44.5 -107.5t-114.5 -59.5t-165 -17q-69 0 -112 14v129q63 -16 117 -16q122 0 122 63q0 39 -44 55t-152 9l78 156q-206 28 -326 140t-135 304h323q21 -105 95.5 -160
t175.5 -55q90 0 149.5 43.5t59.5 114.5q0 76 -59 127t-199 84q-97 24 -168 49.5t-134 62.5t-102 82.5t-61.5 108.5t-22.5 143q0 128 73 224.5t189.5 145t255.5 48.5q128 0 227.5 -34.5t163 -97t100 -142.5t48.5 -179h-324q-12 101 -69 158t-156 57q-78 0 -125 -37.5
t-47 -111.5q0 -81 65.5 -129.5t233.5 -87.5q230 -55 338.5 -165t108.5 -280z" />
    <glyph glyph-name="scedilla" unicode="&#x15f;" horiz-adv-x="1046" 
d="M1006 305q0 -152 -112.5 -236.5t-293.5 -95.5l-31 -57q189 -24 189 -162q0 -65 -44.5 -107.5t-114.5 -59.5t-165 -17q-69 0 -112 14v129q63 -16 116 -16q123 0 123 63q0 39 -44 55t-152 9l75 153q-172 21 -276.5 111.5t-122.5 247.5h317q17 -75 67.5 -116.5t119.5 -41.5
q62 0 100.5 26.5t38.5 76.5q0 58 -58.5 94.5t-203.5 70.5q-164 41 -251 119t-87 211q0 159 124 251.5t331 92.5q192 0 306.5 -95.5t135.5 -250.5h-317q-28 141 -146 141q-51 0 -81.5 -28t-30.5 -72q0 -56 54 -92t199 -72q171 -43 259 -122t88 -224z" />
    <glyph glyph-name="Scaron" unicode="&#x160;" horiz-adv-x="1261" 
d="M528 1505l-129 242h195l68 -145l63 145h193l-130 -242h-260zM772 838q230 -55 338.5 -165t108.5 -280q0 -100 -44 -181t-119.5 -133t-172 -80t-203.5 -28q-266 0 -424 114.5t-176 338.5h323q21 -105 95.5 -160t175.5 -55q90 0 149.5 43.5t59.5 114.5q0 76 -59 127
t-199 84q-97 24 -168 49.5t-134 62.5t-102 82.5t-61.5 108.5t-22.5 143q0 128 73 224.5t189.5 145t255.5 48.5q128 0 227.5 -34.5t163 -97t100 -142.5t48.5 -179h-324q-12 101 -69 158t-156 57q-78 0 -125 -37.5t-47 -111.5q0 -81 65.5 -129.5t233.5 -87.5z" />
    <glyph glyph-name="scaron" unicode="&#x161;" horiz-adv-x="1046" 
d="M664 1174h-261l-129 249h193l70 -147l65 147h191zM659 651q171 -43 259 -122t88 -224q0 -110 -63.5 -187t-165.5 -112t-234 -35q-215 0 -348 92.5t-154 272.5h317q17 -75 67.5 -116.5t119.5 -41.5q62 0 100.5 26.5t38.5 76.5q0 58 -58.5 94.5t-203.5 70.5
q-164 41 -251 119t-87 211q0 159 124 251.5t331 92.5q192 0 306.5 -95.5t135.5 -250.5h-317q-28 141 -146 141q-51 0 -81.5 -28t-30.5 -72q0 -56 54 -92t199 -72z" />
    <glyph glyph-name="Tcedilla" unicode="&#x162;" horiz-adv-x="1284" 
d="M745 0l-43 -84q189 -24 189 -162q0 -65 -44.5 -107.5t-114.5 -59.5t-165 -17q-69 0 -112 14v129q63 -16 116 -16q123 0 123 63q0 39 -44 55t-152 9l88 176h-76v1163h-471v250h1261v-250h-471v-1163h-84z" />
    <glyph glyph-name="tcedilla" unicode="&#x163;" horiz-adv-x="774" 
d="M506 879v-459q0 -74 2 -103q6 -82 46 -105.5t163 -16.5v-205q-112 -17 -199 -17h-18l-31 -57q188 -24 188 -162q0 -65 -44.5 -107.5t-114 -59.5t-164.5 -17q-70 0 -113 14v129q63 -16 117 -16q123 0 123 63q0 39 -44.5 55t-152.5 9l84 170q-79 23 -116.5 76t-43.5 141
q-4 55 -4 166v502h-166v204h166v275h322v-275h231v-204h-231z" />
    <glyph glyph-name="Tcaron" unicode="&#x164;" horiz-adv-x="1284" 
d="M541 1505l-129 242h194l68 -145l63 145h193l-129 -242h-260zM1300 1163h-471v-1163h-319v1163h-471v250h1261v-250z" />
    <glyph glyph-name="tcaron" unicode="&#x165;" horiz-adv-x="761" 
d="M928 1505v-20l-187 -328h-180l156 348h211zM506 1083h231v-204h-231v-459q0 -74 2 -103q6 -82 46 -105.5t163 -16.5v-205q-112 -17 -199 -17q-174 0 -247.5 56.5t-82.5 181.5q-4 55 -4 166v502h-166v204h166v275h322v-275z" />
    <glyph glyph-name="Tbar" unicode="&#x166;" horiz-adv-x="1284" 
d="M829 1163v-381h197v-176h-197v-606h-319v606h-197v176h197v381h-471v250h1261v-250h-471z" />
    <glyph glyph-name="tbar" unicode="&#x167;" horiz-adv-x="774" 
d="M506 879v-172h145v-175h-145v-112q0 -74 2 -103q6 -82 46 -105.5t163 -16.5v-205q-112 -17 -199 -17q-174 0 -247.5 56.5t-82.5 181.5q-4 55 -4 166v155h-116v175h116v172h-166v204h166v275h322v-275h231v-204h-231z" />
    <glyph glyph-name="Umacron" unicode="&#x16a;" horiz-adv-x="1452" 
d="M1049 1554h-584v175h584v-175zM1358 1413v-817q0 -106 -6 -180q-6 -93 -42.5 -170.5t-105.5 -140.5t-183.5 -98.5t-264.5 -35.5t-264.5 35.5t-184 98.5t-106 140.5t-43.5 170.5q-4 74 -4 180v817h319v-864q0 -65 2 -94q9 -118 80 -182t201 -64t200 64t78 182q4 29 4 94
v864h320z" />
    <glyph glyph-name="umacron" unicode="&#x16b;" horiz-adv-x="1286" 
d="M926 1210h-584v174h584v-174zM1163 1092v-1092h-319v186l-92 -145q-106 -70 -254 -70q-162 0 -263.5 79t-121.5 198q-11 76 -11 203v641h320v-572q0 -76 8 -149q22 -176 197 -176q100 0 158.5 82t58.5 231v584h319z" />
    <glyph glyph-name="Uring" unicode="&#x16e;" horiz-adv-x="1452" 
d="M756 1880q101 0 165 -57t64 -146t-64 -144.5t-165 -55.5q-102 0 -166 55.5t-64 144.5t64.5 146t165.5 57zM756 1759q-34 0 -55 -22.5t-21 -59.5q0 -36 21.5 -59t54.5 -23t54 23t21 59q0 37 -20.5 59.5t-54.5 22.5zM1358 1413v-817q0 -106 -6 -180q-6 -93 -42.5 -170.5
t-105.5 -140.5t-183.5 -98.5t-264.5 -35.5t-264.5 35.5t-184 98.5t-106 140.5t-43.5 170.5q-4 74 -4 180v817h319v-864q0 -65 2 -94q9 -118 80 -182t201 -64t200 64t78 182q4 29 4 94v864h320z" />
    <glyph glyph-name="uring" unicode="&#x16f;" horiz-adv-x="1286" 
d="M633 1161q-102 0 -166 57.5t-64 149.5t64 149.5t166 57.5q101 0 165 -57.5t64 -149.5t-64 -149.5t-165 -57.5zM633 1456q-34 0 -55 -23.5t-21 -64.5t21 -64.5t55 -23.5t55 23.5t21 64.5t-21 64.5t-55 23.5zM1163 1092v-1092h-319v186l-92 -145q-106 -70 -254 -70
q-162 0 -263.5 79t-121.5 198q-11 76 -11 203v641h320v-572q0 -76 8 -149q22 -176 197 -176q100 0 158.5 82t58.5 231v584h319z" />
    <glyph glyph-name="Uhungarumlaut" unicode="&#x170;" horiz-adv-x="1452" 
d="M606 1507h-176l168 240h287zM971 1507h-176l168 240h286zM1358 1413v-817q0 -106 -6 -180q-6 -93 -42.5 -170.5t-105.5 -140.5t-183.5 -98.5t-264.5 -35.5t-264.5 35.5t-184 98.5t-106 140.5t-43.5 170.5q-4 74 -4 180v817h319v-864q0 -65 2 -94q9 -118 80 -182t201 -64
t200 64t78 182q4 29 4 94v864h320z" />
    <glyph glyph-name="uhungarumlaut" unicode="&#x171;" horiz-adv-x="1286" 
d="M500 1174h-176l170 249h286zM678 1174l172 249h287l-283 -249h-176zM1163 1092v-1092h-319v186l-92 -145q-106 -70 -254 -70q-162 0 -263.5 79t-121.5 198q-11 76 -11 203v641h320v-572q0 -76 8 -149q22 -176 197 -176q100 0 158.5 82t58.5 231v584h319z" />
    <glyph glyph-name="Uogonek" unicode="&#x172;" horiz-adv-x="1452" 
d="M1358 1413v-817q0 -106 -6 -180q-10 -155 -105 -268.5t-282 -155.5q-37 -15 -61.5 -59.5t-24.5 -100.5q0 -104 86 -104q47 0 96 43v-138q-97 -90 -254 -90q-223 0 -223 176q0 73 35 139t92 113q-138 5 -243.5 42.5t-170 100t-98.5 138t-41 164.5q-4 74 -4 180v817h319
v-864q0 -65 2 -94q9 -118 80 -182t201 -64t200 64t78 182q4 29 4 94v864h320z" />
    <glyph glyph-name="uogonek" unicode="&#x173;" horiz-adv-x="1286" 
d="M1163 0h-98q-48 -3 -82.5 -52t-34.5 -116q0 -104 86 -104q47 0 96 43v-138q-97 -90 -253 -90q-224 0 -224 176q0 93 56 173.5t135 121.5v172l-92 -145q-106 -70 -254 -70q-162 0 -263.5 79t-121.5 198q-11 76 -11 203v641h320v-572q0 -76 8 -149q22 -176 197 -176
q100 0 158.5 82t58.5 231v584h319v-1092z" />
    <glyph glyph-name="Wcircumflex" unicode="&#x174;" horiz-adv-x="2048" 
d="M995 1505h-192l129 242h260l129 -242h-195l-67 146zM2064 1413l-368 -1413h-426l-213 1145l-228 -1145h-428l-348 1413h344l217 -1163l220 1143h456l213 -1153l232 1173h329z" />
    <glyph glyph-name="wcircumflex" unicode="&#x175;" horiz-adv-x="1734" 
d="M807 1174h-191l129 249h261l129 -249h-193l-68 147zM1745 1092l-346 -1092h-361l-164 793l-165 -793h-363l-346 1092h356l170 -824l158 817h383l166 -819l166 826h346z" />
    <glyph glyph-name="Ycircumflex" unicode="&#x176;" horiz-adv-x="1316" 
d="M625 1505h-193l129 242h260l129 -242h-194l-68 146zM850 545v-545h-320v541l-499 872h362l307 -590l295 590h353z" />
    <glyph glyph-name="ycircumflex" unicode="&#x177;" horiz-adv-x="1196" 
d="M524 1174h-190l129 249h260l129 -249h-193l-67 147zM1206 1092l-436 -1115q-93 -235 -196.5 -321t-284.5 -86q-79 0 -139 8v215q29 -4 90 -4q71 0 117.5 29t76.5 98l15 35l-449 1141h358l250 -844l248 844h350z" />
    <glyph glyph-name="Ydieresis" unicode="&#x178;" horiz-adv-x="1316" 
d="M502 1487q-62 0 -101 37t-39 98t39 98t101 37t99.5 -37t37.5 -98t-37.5 -98t-99.5 -37zM881 1487q-62 0 -101 37t-39 98t39 98t101 37t99.5 -37t37.5 -98t-37.5 -98t-99.5 -37zM850 545v-545h-320v541l-499 872h362l307 -590l295 590h353z" />
    <glyph glyph-name="Zacute" unicode="&#x179;" horiz-adv-x="1298" 
d="M756 1505h-176l168 242h286zM1241 252v-252h-1137v244l742 919h-684v250h1069v-248l-733 -913h743z" />
    <glyph glyph-name="zacute" unicode="&#x17a;" horiz-adv-x="1044" 
d="M618 1174h-176l172 249h287zM985 207v-207h-922v195l574 682h-541v206h883v-204l-569 -672h575z" />
    <glyph glyph-name="Zdotaccent" unicode="&#x17b;" horiz-adv-x="1298" 
d="M680 1491q-74 0 -120 44t-46 116q0 70 46 113.5t120 43.5t120 -43.5t46 -113.5q0 -72 -46 -116t-120 -44zM1241 252v-252h-1137v244l742 919h-684v250h1069v-248l-733 -913h743z" />
    <glyph glyph-name="zdotaccent" unicode="&#x17c;" horiz-adv-x="1044" 
d="M543 1188q-77 0 -123.5 44.5t-46.5 119.5q0 73 46.5 117t123.5 44t124.5 -44t47.5 -117q0 -75 -47.5 -119.5t-124.5 -44.5zM985 207v-207h-922v195l574 682h-541v206h883v-204l-569 -672h575z" />
    <glyph glyph-name="Zcaron" unicode="&#x17d;" horiz-adv-x="1298" 
d="M551 1505l-129 242h194l68 -145l64 145h192l-129 -242h-260zM1241 252v-252h-1137v244l742 919h-684v250h1069v-248l-733 -913h743z" />
    <glyph glyph-name="zcaron" unicode="&#x17e;" horiz-adv-x="1044" 
d="M414 1174l-129 249h192l70 -147l65 147h191l-129 -249h-260zM985 207v-207h-922v195l574 682h-541v206h883v-204l-569 -672h575z" />
    <glyph glyph-name="Scommaaccent" unicode="&#x218;" horiz-adv-x="1261" 
d="M655 1442q128 0 227.5 -34.5t163 -97t100 -142.5t48.5 -179h-324q-12 101 -69 158t-156 57q-78 0 -125 -37.5t-47 -111.5q0 -81 65.5 -129.5t233.5 -87.5q230 -55 338.5 -165t108.5 -280q0 -100 -44 -181t-119.5 -133t-172 -80t-203.5 -28q-266 0 -424 114.5t-176 338.5
h323q21 -105 95.5 -160t175.5 -55q90 0 149.5 43.5t59.5 114.5q0 76 -59 127t-199 84q-97 24 -168 49.5t-134 62.5t-102 82.5t-61.5 108.5t-22.5 143q0 128 73 224.5t189.5 145t255.5 48.5zM772 -104l-186 -328h-180l155 348h211v-20z" />
    <glyph glyph-name="scommaaccent" unicode="&#x219;" horiz-adv-x="1046" 
d="M539 1120q192 0 306.5 -95.5t135.5 -250.5h-317q-28 141 -146 141q-51 0 -81.5 -28t-30.5 -72q0 -56 54 -92t199 -72q171 -43 259 -122t88 -224q0 -110 -63.5 -187t-165.5 -112t-234 -35q-215 0 -348 92.5t-154 272.5h317q17 -75 67.5 -116.5t119.5 -41.5
q62 0 100.5 26.5t38.5 76.5q0 58 -58.5 94.5t-203.5 70.5q-164 41 -251 119t-87 211q0 159 124 251.5t331 92.5zM670 -84v-20l-187 -328h-180l156 348h211z" />
    <glyph glyph-name="uni021A" unicode="&#x21a;" horiz-adv-x="1284" 
d="M1300 1163h-471v-1163h-319v1163h-471v250h1261v-250zM596 -84h211v-20l-186 -328h-181z" />
    <glyph glyph-name="uni021B" unicode="&#x21b;" horiz-adv-x="774" 
d="M506 879v-459q0 -74 2 -103q6 -82 46 -105.5t163 -16.5v-205q-112 -17 -199 -17q-174 0 -247.5 56.5t-82.5 181.5q-4 55 -4 166v502h-166v204h166v275h322v-275h231v-204h-231zM360 -84h211v-20l-186 -328h-180z" />
    <glyph glyph-name="circumflex" unicode="&#x2c6;" horiz-adv-x="614" 
d="M375 1174l-68 147l-67 -147h-191l129 249h260l129 -249h-192z" />
    <glyph glyph-name="caron" unicode="&#x2c7;" horiz-adv-x="614" 
d="M567 1423l-129 -249h-260l-129 249h193l69 -147l66 147h190z" />
    <glyph glyph-name="breve" unicode="&#x2d8;" horiz-adv-x="614" 
d="M401 1423h166q0 -138 -70.5 -199t-189.5 -61q-260 0 -260 260h166q6 -102 94 -102t94 102z" />
    <glyph glyph-name="dotaccent" unicode="&#x2d9;" horiz-adv-x="614" 
d="M307 1513q77 0 124.5 -44t47.5 -117q0 -75 -47.5 -119.5t-124.5 -44.5t-123.5 44.5t-46.5 119.5q0 73 46.5 117t123.5 44z" />
    <glyph glyph-name="ring" unicode="&#x2da;" horiz-adv-x="614" 
d="M307 1575q102 0 166 -57.5t64 -149.5t-64 -149.5t-166 -57.5q-101 0 -165 57.5t-64 149.5t64 149.5t165 57.5zM307 1456q-34 0 -55 -23.5t-21 -64.5t21 -64.5t55 -23.5t55 23.5t21 64.5t-21 64.5t-55 23.5z" />
    <glyph glyph-name="ogonek" unicode="&#x2db;" horiz-adv-x="614" 
d="M307 14l221 -14q-48 -3 -82 -52t-34 -116q0 -104 86 -104q47 0 96 43v-138q-97 -90 -254 -90q-223 0 -223 176q0 93 55.5 173.5t134.5 121.5z" />
    <glyph glyph-name="tilde" unicode="&#x2dc;" horiz-adv-x="614" 
d="M166 1432q43 0 75 -7t83 -30q71 -29 92 -29q17 0 23.5 13t6.5 46h168q0 -128 -40 -185.5t-125 -57.5q-66 0 -158 37q-76 28 -92 28q-31 0 -31 -57h-166q0 126 40 184t124 58z" />
    <glyph glyph-name="hungarumlaut" unicode="&#x2dd;" horiz-adv-x="614" 
d="M174 1174h-178l172 249h287zM528 1174h-176l172 249h287z" />
    <glyph glyph-name="uni0326" unicode="&#x326;" horiz-adv-x="0" 
d="M444 -104l-186 -328h-180l155 348h211v-20z" />
    <glyph glyph-name="Wgrave" unicode="&#x1e80;" horiz-adv-x="2048" 
d="M995 1505l-278 242h287l167 -242h-176zM2064 1413l-368 -1413h-426l-213 1145l-228 -1145h-428l-348 1413h344l217 -1163l220 1143h456l213 -1153l232 1173h329z" />
    <glyph glyph-name="wgrave" unicode="&#x1e81;" horiz-adv-x="1734" 
d="M821 1174l-282 249h286l172 -249h-176zM1745 1092l-346 -1092h-361l-164 793l-165 -793h-363l-346 1092h356l170 -824l158 817h383l166 -819l166 826h346z" />
    <glyph glyph-name="Wacute" unicode="&#x1e82;" horiz-adv-x="2048" 
d="M1137 1505h-176l167 242h287zM2064 1413l-368 -1413h-426l-213 1145l-228 -1145h-428l-348 1413h344l217 -1163l220 1143h456l213 -1153l232 1173h329z" />
    <glyph glyph-name="wacute" unicode="&#x1e83;" horiz-adv-x="1734" 
d="M950 1174h-176l172 249h287zM1745 1092l-346 -1092h-361l-164 793l-165 -793h-363l-346 1092h356l170 -824l158 817h383l166 -819l166 826h346z" />
    <glyph glyph-name="Wdieresis" unicode="&#x1e84;" horiz-adv-x="2048" 
d="M872 1487q-62 0 -100.5 37t-38.5 98t38.5 98t100.5 37t100 -37t38 -98t-38 -98t-100 -37zM1251 1487q-62 0 -100.5 37t-38.5 98t38.5 98t100.5 37t100 -37t38 -98t-38 -98t-100 -37zM2064 1413l-368 -1413h-426l-213 1145l-228 -1145h-428l-348 1413h344l217 -1163
l220 1143h456l213 -1153l232 1173h329z" />
    <glyph glyph-name="wdieresis" unicode="&#x1e85;" horiz-adv-x="1734" 
d="M684 1174q-62 0 -100.5 37t-38.5 98t38.5 98t100.5 37t100.5 -37t38.5 -98t-38.5 -98t-100.5 -37zM1065 1174q-62 0 -99.5 37t-37.5 98t37.5 98t99.5 37t100.5 -37t38.5 -98t-38.5 -98t-100.5 -37zM1745 1092l-346 -1092h-361l-164 793l-165 -793h-363l-346 1092h356
l170 -824l158 817h383l166 -819l166 826h346z" />
    <glyph glyph-name="Ygrave" unicode="&#x1ef2;" horiz-adv-x="1316" 
d="M625 1505l-279 242h287l168 -242h-176zM850 545v-545h-320v541l-499 872h362l307 -590l295 590h353z" />
    <glyph glyph-name="ygrave" unicode="&#x1ef3;" horiz-adv-x="1196" 
d="M539 1174l-283 249h287l172 -249h-176zM1206 1092l-436 -1115q-93 -235 -196.5 -321t-284.5 -86q-79 0 -139 8v215q29 -4 90 -4q71 0 117.5 29t76.5 98l15 35l-449 1141h358l250 -844l248 844h350z" />
    <glyph glyph-name="endash" unicode="&#x2013;" horiz-adv-x="1024" 
d="M850 508h-676v176h676v-176z" />
    <glyph glyph-name="emdash" unicode="&#x2014;" horiz-adv-x="2048" 
d="M1874 508h-1700v176h1700v-176z" />
    <glyph glyph-name="quoteleft" unicode="&#x2018;" horiz-adv-x="620" 
d="M117 944l215 561h252l-162 -581h-305v20z" />
    <glyph glyph-name="quoteright" unicode="&#x2019;" horiz-adv-x="620" 
d="M504 1485l-215 -561h-252l164 581h303v-20z" />
    <glyph glyph-name="quotesinglbase" unicode="&#x201a;" horiz-adv-x="522" 
d="M412 295l-213 -547h-254l161 567h306v-20z" />
    <glyph glyph-name="quotedblleft" unicode="&#x201c;" horiz-adv-x="1077" 
d="M117 944l215 563h252l-164 -583h-303v20zM573 944l215 563h252l-163 -583h-304v20z" />
    <glyph glyph-name="quotedblright" unicode="&#x201d;" horiz-adv-x="1077" 
d="M504 1485l-215 -561h-252l164 581h303v-20zM961 1485l-216 -561h-251l161 581h306v-20z" />
    <glyph glyph-name="quotedblbase" unicode="&#x201e;" horiz-adv-x="976" 
d="M412 295l-213 -547h-254l161 567h306v-20zM866 295l-213 -547h-254l164 567h303v-20z" />
    <glyph glyph-name="dagger" unicode="&#x2020;" horiz-adv-x="1157" 
d="M1073 711l-366 10l22 -1049h-301l23 1049l-367 -10v270l365 -10l-21 442h301l-20 -442l364 10v-270z" />
    <glyph glyph-name="daggerdbl" unicode="&#x2021;" horiz-adv-x="1157" 
d="M705 721v-356l368 10v-271l-364 11l20 -443h-301l21 443l-365 -11v271l369 -10v356l-369 -10v270l365 -10l-21 442h301l-20 -442l364 10v-270z" />
    <glyph glyph-name="bullet" unicode="&#x2022;" horiz-adv-x="788" 
d="M395 879q112 0 182 -70.5t70 -183.5t-69.5 -182.5t-182.5 -69.5q-114 0 -184 69.5t-70 182.5t70 183.5t184 70.5z" />
    <glyph glyph-name="ellipsis" unicode="&#x2026;" horiz-adv-x="1587" 
d="M266 344q83 0 135 -51.5t52 -134.5q0 -82 -52 -134.5t-135 -52.5q-82 0 -134 52.5t-52 134.5q0 83 52 134.5t134 51.5zM799 344q83 0 134.5 -51.5t51.5 -134.5q0 -82 -51.5 -134.5t-134.5 -52.5q-82 0 -134.5 52.5t-52.5 134.5q0 83 52.5 134.5t134.5 51.5zM1331 344
q83 0 135 -51.5t52 -134.5q0 -82 -52 -134.5t-135 -52.5q-82 0 -134 52.5t-52 134.5q0 83 52 134.5t134 51.5z" />
    <glyph glyph-name="perthousand" unicode="&#x2030;" horiz-adv-x="2289" 
d="M713 1100q0 -161 -86 -251.5t-236 -90.5q-151 0 -236 90.5t-85 251.5t85 250.5t236 89.5q150 0 236 -90t86 -250zM1372 1413l-915 -1413h-234l916 1413h233zM279 1100q0 -182 112 -182q55 0 84 47t29 135q0 180 -113 180q-112 0 -112 -180zM1190 653q151 0 236 -89.5
t85 -250.5t-85 -251.5t-236 -90.5q-150 0 -236 90.5t-86 251.5q0 160 86 250t236 90zM1901 653q150 0 235.5 -90t85.5 -250q0 -161 -85.5 -251.5t-235.5 -90.5q-151 0 -236.5 90.5t-85.5 251.5t85.5 250.5t236.5 89.5zM1190 131q113 0 113 182q0 181 -113 181
q-55 0 -84 -46.5t-29 -134.5t29 -135t84 -47zM1901 131q112 0 112 182q0 181 -112 181q-113 0 -113 -181q0 -182 113 -182z" />
    <glyph glyph-name="guilsinglleft" unicode="&#x2039;" horiz-adv-x="901" 
d="M803 848l-281 -340l281 -340h-236l-280 340l280 340h236z" />
    <glyph glyph-name="guilsinglright" unicode="&#x203a;" horiz-adv-x="849" 
d="M612 508l-280 -340h-236l281 340l-281 340h236z" />
    <glyph glyph-name="fraction" unicode="&#x2044;" horiz-adv-x="688" 
d="M4 0h-235l917 1413h234z" />
    <glyph glyph-name="Euro" unicode="&#x20ac;" 
d="M993 477h-411q31 -147 106 -207.5t199 -60.5q165 0 301 80v-234q-78 -45 -161.5 -64.5t-213.5 -19.5q-494 0 -573 506h-168l37 176h114v47q0 40 2 58h-96l37 176h80q54 253 217.5 380.5t398.5 127.5q271 0 395 -127l-116 -199q-60 47 -122 67.5t-142 20.5
q-233 0 -293 -270h503l-38 -176h-488v-49v-56h467z" />
    <glyph glyph-name="trademark" unicode="&#x2122;" horiz-adv-x="1101" 
d="M459 1352v-90h-148v-328h-118v328h-148v90h414zM1004 1350v-416h-119l4 291l-72 -283h-121l-71 281l2 -289h-119v416h178l74 -297l71 297h173z" />
    <glyph glyph-name="partialdiff" unicode="&#x2202;" 
d="M612 1552q154 0 270.5 -58.5t189.5 -168t109 -260.5t36 -342q0 -378 -154.5 -565t-429.5 -187q-115 0 -212.5 33t-172.5 96.5t-117.5 166t-42.5 233.5q0 256 142.5 399t375.5 143q188 0 266 -106q-18 190 -89.5 285.5t-215.5 95.5q-140 0 -268 -88l-102 203
q101 65 195 92.5t220 27.5zM647 209q122 0 180.5 113t59.5 360q-63 125 -221 125q-116 0 -179 -79.5t-63 -217.5q0 -145 60.5 -223t162.5 -78z" />
    <glyph glyph-name="emptyset" unicode="&#x2205;" horiz-adv-x="1716" 
d="M1677 1389l-164 -164q164 -220 164 -498q0 -171 -65 -324.5t-175.5 -263t-261.5 -173.5t-317 -64q-278 0 -498 168l-192 -193l-127 129l188 189q-190 228 -190 532q0 171 65 324.5t175.5 263t261.5 173.5t317 64q150 0 287 -51t246 -145l159 160zM236 727
q0 -226 129 -397l895 895q-173 149 -402 149q-169 0 -311.5 -84t-226.5 -233t-84 -330zM1481 727q0 197 -103 360l-886 -886q162 -121 366 -121q127 0 241.5 49.5t198.5 135t133.5 206t49.5 256.5z" />
    <glyph glyph-name="product" unicode="&#x220f;" 
d="M1241 1163h-119v-1388h-319v1388h-291v-1388h-319v1388h-119v250h1167v-250z" />
    <glyph glyph-name="summation" unicode="&#x2211;" 
d="M1212 27v-252h-1108v207l517 634l-455 590v207h1034v-250h-637l428 -549l-485 -587h706z" />
    <glyph glyph-name="minus" unicode="&#x2212;" 
d="M1110 563h-905v176h905v-176z" />
    <glyph glyph-name="radical" unicode="&#x221a;" 
d="M1227 1597l-457 -1925h-242l-260 799h-159v164h307l229 -758l387 1720h195z" />
    <glyph glyph-name="infinity" unicode="&#x221e;" horiz-adv-x="2074" 
d="M1503 1114q232 0 376 -157.5t144 -413.5t-146 -414t-388 -158q-158 0 -273 59.5t-192 194.5q-76 -136 -185 -195t-268 -59q-232 0 -375 158.5t-143 413.5q0 258 145.5 414.5t389.5 156.5q160 0 276.5 -59t192.5 -195q75 138 181 196t265 58zM604 193q199 0 236 350
q-28 188 -86 269t-150 81q-100 0 -160.5 -95.5t-60.5 -254.5q0 -158 60.5 -254t160.5 -96zM1470 193q101 0 161.5 95.5t60.5 254.5q0 160 -60.5 255t-161.5 95q-192 0 -229 -350q29 -188 83.5 -269t145.5 -81z" />
    <glyph glyph-name="integral" unicode="&#x222b;" horiz-adv-x="1312" 
d="M754 1544q116 0 184 -45l-31 -166q-56 35 -129 35q-66 0 -108.5 -44t-42.5 -132q0 -99 24 -213t105 -356q73 -222 100 -348t27 -238q0 -163 -89 -264t-237 -101q-116 0 -184 45l30 166q56 -35 132 -35q65 0 108 45t43 134q0 99 -24 212t-105 355q-73 222 -100 348.5
t-27 239.5q0 161 88 261.5t236 100.5z" />
    <glyph glyph-name="approxequal" unicode="&#x2248;" 
d="M436 987q58 0 105 -17.5t143 -66.5q78 -43 115.5 -57.5t74.5 -14.5q49 0 89 23t81 72l111 -113q-58 -95 -126 -134.5t-155 -39.5q-57 0 -105 17.5t-140 66.5q-84 44 -119.5 58t-71.5 14q-95 0 -170 -97l-110 115q58 94 125 134t153 40zM436 598q58 0 105 -17.5t143 -66.5
q78 -43 115.5 -57.5t74.5 -14.5q49 0 89 23t81 72l111 -113q-58 -95 -126 -134.5t-155 -39.5q-57 0 -105 17.5t-140 66.5q-84 44 -119.5 58t-71.5 14q-95 0 -170 -97l-110 115q58 94 125 134t153 40z" />
    <glyph glyph-name="notequal" unicode="&#x2260;" 
d="M817 772l-125 -246h449v-164h-533l-110 -215h-195l111 215h-240v164h324l125 246h-449v164h533l110 215h195l-111 -215h240v-164h-324z" />
    <glyph glyph-name="lessequal" unicode="&#x2264;" 
d="M1122 858l-704 -209l704 -217v-194l-891 290v244l891 289v-203zM231 176h891v-176h-891v176z" />
    <glyph glyph-name="greaterequal" unicode="&#x2265;" 
d="M1069 772v-244l-876 -290v202l692 209l-692 217v195zM193 176h876v-176h-876v176z" />
    <glyph glyph-name="lozenge" unicode="&#x25ca;" horiz-adv-x="1114" 
d="M1018 707l-328 -707h-266l-328 707l328 706h266zM780 707l-223 501l-223 -501l223 -502z" />
    </font>
</defs>
</svg>
