<?xml version="1.0" standalone="no"?>
<!DOCTYPE svg PUBLIC "-//W3C//DTD SVG 1.1//EN" "http://www.w3.org/Graphics/SVG/1.1/DTD/svg11.dtd" >
<svg xmlns="http://www.w3.org/2000/svg" xmlns:xlink="http://www.w3.org/1999/xlink" version="1.1">
<metadata>
Created by FontForge 20170731 at Wed Dec 14 12:20:10 2022
 By Aleksey,,,
No Rights Reserved.
</metadata>
<defs>
<font id="Aileron-HeavyItalic" horiz-adv-x="1314" >
  <font-face 
    font-family="Aileron Heavy"
    font-weight="900"
    font-style="italic"
    font-stretch="normal"
    units-per-em="2048"
    panose-1="0 0 10 0 0 0 0 0 0 0"
    ascent="1577"
    descent="-471"
    x-height="1083"
    cap-height="1413"
    bbox="-410 -457 2398 1880"
    underline-thickness="102"
    underline-position="-307"
    slope="-10"
    unicode-range="U+0020-FB02"
  />
<missing-glyph horiz-adv-x="1173" 
d="M150 0v1434h1024v-1434h-1024zM662 809l348 522h-697zM723 717l348 -522v1044zM313 102h697l-348 523zM252 1239v-1044l348 522z" />
    <glyph glyph-name="fi" unicode="fi" horiz-adv-x="1234" 
d="M1208 1083l-190 -1083h-320l154 879h-338l-156 -879h-319l154 879h-97l35 204h98l2 15q13 78 25 121q41 155 178 240t365 85q79 0 168 -14l-39 -217q-163 22 -248 -10t-109 -113q-11 -39 -18 -88l-4 -19h659z" />
    <glyph glyph-name="fl" unicode="fl" horiz-adv-x="1288" 
d="M1081 264q0 -42 25 -56t86 -11l-37 -203q-79 -12 -178 -12q-119 0 -175.5 37t-56.5 122q0 75 29 226l168 942q-59 14 -137 14q-198 0 -234 -133q-11 -39 -18 -88l-4 -19h223l-37 -204h-221l-158 -879h-319l156 879h-99l37 204h98l2 15q4 31 23 121q42 160 185 242.5
t421 82.5q241 0 418 -47h18l-200 -1124q-15 -88 -15 -109z" />
    <glyph glyph-name=".notdef" horiz-adv-x="1173" 
d="M150 0v1434h1024v-1434h-1024zM662 809l348 522h-697zM723 717l348 -522v1044zM313 102h697l-348 523zM252 1239v-1044l348 522z" />
    <glyph glyph-name=".null" horiz-adv-x="0" 
 />
    <glyph glyph-name="nonmarkingreturn" horiz-adv-x="682" 
 />
    <glyph glyph-name="space" unicode=" " horiz-adv-x="296" 
 />
    <glyph glyph-name="exclam" unicode="!" horiz-adv-x="610" 
d="M406 416h-252l182 997h301zM256 311q71 0 112.5 -38.5t41.5 -104.5q0 -78 -54 -137.5t-145 -59.5q-72 0 -113 39t-41 105q0 79 53.5 137.5t145.5 58.5z" />
    <glyph glyph-name="quotedbl" unicode="&#x22;" horiz-adv-x="786" 
d="M307 924h-217l105 581h260zM672 924h-217l102 581h262z" />
    <glyph glyph-name="numbersign" unicode="#" 
d="M1008 817l-86 -219h196l-31 -176h-235l-164 -422h-186l164 422h-181l-163 -422h-187l164 422h-174l31 176h213l86 219h-201l33 176h235l164 420h186l-163 -420h180l164 420h186l-164 -420h174l-32 -176h-209zM821 817h-180l-86 -219h180z" />
    <glyph glyph-name="dollar" unicode="$" 
d="M856 1194l-65 -369q139 -60 220 -116t125 -134.5t44 -185.5q0 -187 -148.5 -298.5t-392.5 -119.5l-27 -155h-182l29 166q-201 29 -295 138t-109 283h307q12 -147 138 -192l67 383q-186 69 -275 163.5t-89 246.5q0 175 137.5 297t376.5 139l28 157h183l-29 -163
q173 -30 269.5 -143t105.5 -281h-309q1 61 -28.5 109t-80.5 75zM506 1028q0 -55 27.5 -90.5t84.5 -63.5l60 340q-82 -14 -127 -62.5t-45 -123.5zM739 530l-59 -331q186 19 186 166q0 58 -30 96.5t-97 68.5z" />
    <glyph glyph-name="percent" unicode="%" horiz-adv-x="1611" 
d="M440 760q-132 0 -210 76.5t-78 210.5q0 61 15 118.5t45.5 107.5t74 87.5t104.5 59.5t133 22q131 0 209 -76t78 -211q0 -77 -24 -147t-69.5 -126t-117.5 -89t-160 -33zM1550 1413l-1163 -1413h-266l1161 1413h268zM504 1282q-62 0 -102 -67.5t-40 -167.5q0 -63 25.5 -95
t71.5 -32q62 0 102.5 68.5t40.5 166.5q0 127 -98 127zM1229 653q131 0 209 -75.5t78 -210.5q0 -77 -24 -147t-69 -126t-117 -89.5t-161 -33.5q-130 0 -208.5 76.5t-78.5 210.5q0 77 24 147t69 126t117 89t161 33zM1163 131q63 0 103.5 68.5t40.5 167.5q0 63 -25.5 95
t-71.5 32q-63 0 -103 -68t-40 -168q0 -63 25.5 -95t70.5 -32z" />
    <glyph glyph-name="ampersand" unicode="&#x26;" horiz-adv-x="1392" 
d="M1393 842l-45 -250h-191l-98 -567q-249 -54 -527 -54q-514 0 -514 326q0 175 112.5 286t299.5 140q-98 31 -154.5 104t-56.5 172q0 205 165.5 324t451.5 119q122 0 211 -21l-41 -235q-92 18 -207 18q-244 0 -244 -215q0 -70 41.5 -105t110.5 -40q37 -2 116 -2h58l30 176
h322l-31 -176h191zM367 362q0 -84 54.5 -118.5t160.5 -34.5q101 0 190 16l66 367h-82q-70 0 -111 -2q-137 -9 -207.5 -67.5t-70.5 -160.5z" />
    <glyph glyph-name="quotesingle" unicode="'" horiz-adv-x="421" 
d="M307 924h-217l105 581h260z" />
    <glyph glyph-name="parenleft" unicode="(" horiz-adv-x="780" 
d="M582 -164h-166q-174 231 -174 623q0 140 27.5 285t83.5 294.5t152 294.5t222 264h166q-234 -273 -343.5 -564.5t-109.5 -569.5q0 -362 142 -627z" />
    <glyph glyph-name="parenright" unicode=")" horiz-adv-x="780" 
d="M260 1597h166q174 -231 174 -622q0 -139 -27.5 -284t-83.5 -294.5t-152 -295t-222 -265.5h-166q233 273 342.5 565.5t109.5 569.5q0 368 -141 626z" />
    <glyph glyph-name="asterisk" unicode="*" horiz-adv-x="1132" 
d="M664 662l286 114l29 -201l-297 -65l168 -244l-193 -123l-114 265l-215 -265l-148 123l252 244l-272 65l98 201l248 -114l29 311h208z" />
    <glyph glyph-name="plus" unicode="+" 
d="M1108 567h-360l-72 -407h-184l71 407h-362l30 164h361l72 408h182l-72 -408h363z" />
    <glyph glyph-name="comma" unicode="," horiz-adv-x="555" 
d="M367 295l-314 -547h-254l264 567h306z" />
    <glyph glyph-name="hyphen" unicode="-" horiz-adv-x="622" 
d="M543 492h-492l29 176h491z" />
    <glyph glyph-name="period" unicode="." horiz-adv-x="555" 
d="M207 344q67 0 111 -38.5t44 -106.5q0 -102 -62 -165t-161 -63q-67 0 -111 39t-44 107q0 102 62 164.5t161 62.5z" />
    <glyph glyph-name="slash" unicode="/" horiz-adv-x="686" 
d="M55 -61h-194l786 1536h193z" />
    <glyph glyph-name="zero" unicode="0" 
d="M750 1442q262 0 394 -145t132 -400q0 -101 -14.5 -202t-44.5 -207.5t-83 -197.5t-124 -163.5t-174 -114t-226 -41.5q-262 0 -394 146t-132 399q0 88 10 176t33.5 180t59 174.5t89.5 155.5t120.5 125.5t157.5 83.5t196 31zM610 209q72 0 131 54.5t94 136t59 183t33 187.5
t9 158q0 276 -186 276q-72 0 -131 -53.5t-94 -134t-59 -181.5t-33 -188t-9 -162q0 -276 186 -276z" />
    <glyph glyph-name="one" unicode="1" 
d="M1114 1413l-248 -1413h-319l188 1077l-459 -225l52 293l370 196q141 72 269 72h147z" />
    <glyph glyph-name="two" unicode="2" 
d="M559 252h563l-45 -252h-1059l27 145l541 445q199 163 275.5 262t76.5 205q0 73 -40 112t-116 39q-94 0 -152.5 -58t-90.5 -181l-7 -21h-319l4 21q64 239 218 358t417 119q208 0 319 -92t111 -252q0 -141 -95.5 -274.5t-359.5 -352.5z" />
    <glyph glyph-name="three" unicode="3" 
d="M956 745q244 -56 244 -272q0 -147 -82 -261.5t-229 -177.5t-334 -63q-251 0 -377.5 116.5t-111.5 332.5l2 20h321l-2 -20q-2 -96 54 -153.5t165 -57.5q106 0 179 64.5t73 164.5q0 163 -227 172h-49l36 215l50 2q122 7 196 72.5t74 163.5q0 65 -41.5 103t-114.5 38
q-89 0 -148.5 -56.5t-82.5 -148.5l-4 -20h-320l4 20q20 76 52.5 140t85 121t121 96.5t162.5 62.5t206 23q207 0 315.5 -90t108.5 -230q0 -145 -83 -243t-243 -134z" />
    <glyph glyph-name="four" unicode="4" 
d="M1204 326h-174l-57 -326h-320l58 326h-674l31 174l825 913h344l-160 -835h170zM756 578l94 477q-75 -99 -105 -131l-319 -346h330z" />
    <glyph glyph-name="five" unicode="5" 
d="M614 1163l-112 -356l80 94q98 53 229 53q187 0 290 -103t103 -284q0 -114 -35 -211t-96 -167t-143 -120t-176.5 -74t-196.5 -24q-235 0 -358.5 104t-106.5 316v21h320v-21q-6 -182 168 -182q129 0 204.5 87t75.5 218q0 93 -47.5 148t-136.5 55q-77 0 -133.5 -35
t-100.5 -111h-297l256 842h902l-43 -250h-646z" />
    <glyph glyph-name="six" unicode="6" 
d="M858 1442q219 0 327 -107t97 -295l-2 -20h-324v20q-8 85 -46 124.5t-113 39.5q-120 0 -206.5 -116t-131.5 -349l96 131q63 44 125 61t141 17q194 0 292.5 -103.5t98.5 -269.5q0 -139 -55.5 -255.5t-147 -191t-206.5 -116t-238 -41.5q-224 0 -343.5 127.5t-119.5 362.5
q0 222 59 408t161.5 310.5t240.5 193.5t295 69zM684 711q-105 0 -183.5 -83t-78.5 -218q0 -91 46.5 -146t131.5 -55q117 0 190.5 88t73.5 213q0 92 -46 146.5t-134 54.5z" />
    <glyph glyph-name="seven" unicode="7" 
d="M1370 1413l-33 -174l-884 -1239h-355l842 1163h-727l45 250h1112z" />
    <glyph glyph-name="eight" unicode="8" 
d="M979 750q95 -37 154 -111.5t59 -183.5q0 -123 -51 -218t-140.5 -152.5t-203 -86.5t-246.5 -29q-230 0 -357.5 86.5t-127.5 268.5q0 86 29 159t79 124t109 86.5t127 56.5q-160 64 -160 239q0 200 158.5 326.5t425.5 126.5q210 0 324 -91.5t114 -244.5q0 -75 -24 -136
t-67 -103.5t-92.5 -70.5t-109.5 -46zM723 856q95 0 155 57t60 152q0 64 -40 101.5t-112 37.5q-90 0 -149 -57t-59 -150q0 -67 38 -104t107 -37zM598 207q129 0 194.5 66.5t65.5 175.5q0 79 -48 126.5t-140 47.5q-115 0 -188.5 -69.5t-73.5 -178.5q0 -79 49 -123.5t141 -44.5
z" />
    <glyph glyph-name="nine" unicode="9" 
d="M795 1442q224 0 343 -126.5t119 -361.5q0 -223 -59 -409.5t-161 -311t-239.5 -193.5t-293.5 -69q-219 0 -328 107t-98 297l2 20h323v-20q7 -86 46 -126t114 -40q120 0 207 116t133 353l-98 -135q-114 -78 -266 -78q-192 0 -290.5 104t-98.5 269q0 139 55 255t146 191
t206 116.5t238 41.5zM676 702q105 0 183.5 83.5t78.5 220.5q0 91 -46.5 144.5t-131.5 53.5q-116 0 -190 -87.5t-74 -213.5q0 -92 46 -146.5t134 -54.5z" />
    <glyph glyph-name="colon" unicode=":" horiz-adv-x="555" 
d="M362 1120q68 0 112 -38.5t44 -106.5q0 -102 -61.5 -164.5t-159.5 -62.5q-68 0 -113 38.5t-45 106.5q0 102 62.5 164.5t160.5 62.5zM225 344q69 0 113.5 -38.5t44.5 -106.5q0 -102 -62.5 -165t-160.5 -63q-67 0 -111.5 39t-44.5 107q0 102 61.5 164.5t159.5 62.5z" />
    <glyph glyph-name="semicolon" unicode=";" horiz-adv-x="555" 
d="M362 1120q68 0 112 -38.5t44 -106.5q0 -102 -61.5 -164.5t-159.5 -62.5q-68 0 -113 38.5t-45 106.5q0 102 62.5 164.5t160.5 62.5zM362 279l-307 -531h-254l265 567h303z" />
    <glyph glyph-name="less" unicode="&#x3c;" 
d="M1192 821l-772 -280l676 -279l-39 -215l-862 375l43 244l993 374z" />
    <glyph glyph-name="equal" unicode="=" 
d="M1176 772h-969l29 164h966zM1102 362h-967l29 164h966z" />
    <glyph glyph-name="greater" unicode="&#x3e;" 
d="M1092 666l-43 -244l-996 -375l39 217l774 281l-678 278l39 217z" />
    <glyph glyph-name="question" unicode="?" horiz-adv-x="1284" 
d="M834 1442q202 0 312.5 -86t110.5 -238q0 -135 -62.5 -230.5t-227.5 -221.5q-93 -69 -135 -120.5t-66 -129.5h-268q24 111 66 179.5t134 154.5q128 118 172.5 183t44.5 138q0 64 -37 98.5t-106 34.5q-169 0 -217 -223h-322q39 215 201.5 338t399.5 123zM612 311
q71 0 112.5 -38.5t41.5 -104.5q0 -78 -54 -137.5t-145 -59.5q-72 0 -112.5 39t-40.5 105q0 79 53 137.5t145 58.5z" />
    <glyph glyph-name="at" unicode="@" horiz-adv-x="1865" 
d="M1389 963l-82 -338q-31 -127 -31 -187q0 -119 82 -119q85 0 144 99t59 276q0 258 -154.5 402.5t-415.5 144.5q-108 0 -211 -29t-193.5 -89t-159 -144t-108.5 -202t-40 -255q0 -283 159.5 -443.5t446.5 -160.5q279 0 471 141l69 -155q-128 -83 -275.5 -123.5t-287.5 -40.5
q-114 0 -222.5 26.5t-211 86t-179 147t-123 219t-46.5 291.5q0 197 74 368t199 288.5t293 185t353 67.5q143 0 265.5 -37.5t212 -104t153.5 -155.5t95.5 -193.5t31.5 -217.5q0 -149 -38 -261.5t-104.5 -178t-148 -97t-178.5 -31.5q-112 0 -185 48.5t-99 142.5l-60 -119
q-85 -68 -186 -68q-44 0 -82.5 10t-75.5 35t-63 63t-42 98t-16 136q0 218 113 364t289 146q116 0 163 -57l29 -108l41 129h275zM866 369q47 0 79.5 39.5t47.5 101.5l29 129q15 68 -5.5 103.5t-68.5 35.5q-73 0 -121.5 -76.5t-48.5 -189.5q0 -143 88 -143z" />
    <glyph glyph-name="A" unicode="A" horiz-adv-x="1417" 
d="M934 399h-467l-199 -399h-344l750 1413h420l245 -1413h-348zM895 651l-68 471l-235 -471h303z" />
    <glyph glyph-name="B" unicode="B" horiz-adv-x="1361" 
d="M1055 762q221 -72 221 -311q0 -82 -29 -152t-76.5 -119t-111 -86t-128.5 -57.5t-132 -28.5q-74 -8 -203 -8h-537l250 1413h539q110 0 180 -8q146 -18 224.5 -99t78.5 -202q0 -128 -70.5 -215t-205.5 -127zM586 1163l-58 -319h193q49 0 98 6q166 24 166 184
q0 107 -115 123q-46 6 -98 6h-186zM741 254q77 5 136 61t59 146q0 65 -37.5 101t-99.5 42q-31 4 -97 4h-215l-63 -356h223q65 0 94 2z" />
    <glyph glyph-name="C" unicode="C" horiz-adv-x="1546" 
d="M944 1442q143 0 254 -37t178.5 -103.5t99 -155t23.5 -194.5l-2 -20h-319v20q-3 129 -69.5 190.5t-197.5 61.5q-191 0 -317.5 -169.5t-126.5 -454.5q0 -189 75 -280t201 -91q122 0 209 69.5t135 198.5l9 21h319l-6 -21q-67 -243 -250.5 -374.5t-453.5 -131.5
q-268 0 -423.5 153.5t-154.5 430.5q-1 197 64 365t176.5 281.5t260.5 177t316 63.5z" />
    <glyph glyph-name="D" unicode="D" horiz-adv-x="1503" 
d="M977 1405q108 -12 197 -53.5t157 -112.5t106 -180.5t38 -247.5q0 -122 -28.5 -233.5t-89 -209.5t-146.5 -173.5t-208 -125t-268 -63.5q-74 -6 -182 -6h-494l250 1413h475q123 0 193 -8zM713 256q106 12 188 60.5t132.5 123.5t76 167t25.5 196q0 167 -71 254t-198 100
q-67 6 -137 6h-143l-162 -911h147q95 0 142 4z" />
    <glyph glyph-name="E" unicode="E" horiz-adv-x="1267" 
d="M584 1163l-58 -329h662l-45 -250h-662l-57 -332h727l-45 -252h-1047l250 1413h1026l-45 -250h-706z" />
    <glyph glyph-name="F" unicode="F" horiz-adv-x="1222" 
d="M584 1163l-58 -329h641l-45 -250h-641l-102 -584h-320l250 1413h1026l-45 -250h-706z" />
    <glyph glyph-name="G" unicode="G" horiz-adv-x="1583" 
d="M979 1442q144 0 252.5 -37t172.5 -103.5t93 -155t21 -194.5l-2 -20h-322v20q-1 129 -66 190.5t-194 61.5q-93 0 -177.5 -42.5t-149 -120.5t-102.5 -197t-38 -262q0 -185 78.5 -279t208.5 -94q124 0 218 71t146 205h-289l45 250h594l-131 -735h-254l15 221l-88 -145
q-69 -55 -154 -80t-201 -25q-248 0 -389 151.5t-141 422.5q0 206 71 378t190 284t272 173.5t321 61.5z" />
    <glyph glyph-name="H" unicode="H" horiz-adv-x="1544" 
d="M1569 1413l-250 -1413h-322l101 567h-619l-100 -567h-320l250 1413h320l-105 -594h619l104 594h322z" />
    <glyph glyph-name="I" unicode="I" horiz-adv-x="604" 
d="M379 0h-320l250 1413h320z" />
    <glyph glyph-name="J" unicode="J" horiz-adv-x="1245" 
d="M1253 1413l-143 -819q-17 -101 -41 -203q-97 -420 -590 -420q-240 0 -355.5 131.5t-82.5 356.5l8 67h322l-9 -67q-14 -134 29 -192t139 -58q169 0 224 201q8 33 30 143l150 860h319z" />
    <glyph glyph-name="K" unicode="K" horiz-adv-x="1421" 
d="M823 725l496 -725h-395l-346 563l-119 -108l-80 -455h-320l250 1413h320l-115 -643l692 643h383z" />
    <glyph glyph-name="L" unicode="L" horiz-adv-x="1243" 
d="M1155 270l-49 -270h-1047l250 1413h320l-203 -1143h729z" />
    <glyph glyph-name="M" unicode="M" horiz-adv-x="1849" 
d="M1874 1413l-250 -1413h-321l196 1092l-469 -1092h-377l-84 1098l-190 -1098h-320l250 1413h522l74 -1073l434 1073h535z" />
    <glyph glyph-name="N" unicode="N" horiz-adv-x="1574" 
d="M1599 1413l-249 -1413h-428l-365 1012l-178 -1012h-320l250 1413h412l375 -1042l182 1042h321z" />
    <glyph glyph-name="O" unicode="O" horiz-adv-x="1624" 
d="M946 1442q153 0 277 -47t205 -130t124 -194.5t43 -241.5q0 -249 -103 -444.5t-288.5 -304.5t-423.5 -109q-153 0 -277 47t-205 130t-124 194.5t-43 241.5q0 250 103 445.5t288.5 304t423.5 108.5zM799 209q89 0 165.5 37t129 98t89.5 141t54.5 165t17.5 171
q0 174 -85.5 278.5t-241.5 104.5q-90 0 -166.5 -37t-129 -98t-89.5 -141t-54.5 -165t-17.5 -171q0 -173 86 -278t242 -105z" />
    <glyph glyph-name="P" unicode="P" horiz-adv-x="1306" 
d="M1014 1403q143 -16 237.5 -110t94.5 -249q0 -92 -26.5 -172t-72 -139t-106 -103.5t-128.5 -70t-141 -33.5q-93 -10 -213 -10h-188l-92 -516h-320l250 1413h494q121 0 211 -10zM807 772q91 11 145 71t54 163q0 69 -34.5 107t-94.5 44q-31 4 -115 4h-178l-70 -393h178
q82 0 115 4z" />
    <glyph glyph-name="Q" unicode="Q" horiz-adv-x="1613" 
d="M1579 846q0 -201 -74 -367t-202 -254q94 -31 198 -121l-164 -204q-102 64 -161.5 88t-122.5 24q-72 0 -150 -22q-74 -19 -143 -19q-152 0 -272.5 44.5t-198.5 124.5t-119 189t-41 240q0 255 101 453.5t287 309t429 110.5q152 0 273 -44.5t199.5 -124t119.5 -188.5
t41 -239zM469 575q0 -171 78.5 -268.5t224.5 -97.5q95 0 174 39t132.5 102t90.5 146t53.5 169.5t16.5 172.5q0 171 -79.5 268.5t-225.5 97.5q-94 0 -173 -39t-132 -102t-90 -146t-53.5 -169.5t-16.5 -172.5z" />
    <glyph glyph-name="R" unicode="R" horiz-adv-x="1341" 
d="M1374 1096q0 -164 -94 -270t-268 -150q92 -35 129 -129.5t37 -284.5q0 -169 43 -262h-349q-13 97 -16 332q0 212 -137 221q-39 2 -113 2h-129l-98 -555h-320l250 1413h537q121 0 211 -10q92 -10 161 -44t112.5 -101t43.5 -162zM797 793q100 8 163.5 61t63.5 162
q0 129 -152 143q-58 4 -108 4h-180l-66 -372h170q78 0 109 2z" />
    <glyph glyph-name="S" unicode="S" horiz-adv-x="1253" 
d="M768 1442q129 0 224.5 -34.5t151.5 -96.5t81 -143t20 -179h-323q6 101 -42 158t-147 57q-89 0 -145 -46.5t-56 -131.5q0 -66 61 -109.5t206 -78.5q375 -92 375 -381q0 -92 -33 -171t-91 -136.5t-136.5 -98t-170 -60.5t-190.5 -20q-125 0 -224.5 28.5t-169.5 83.5
t-103.5 142t-22.5 199h323q1 -104 66.5 -159.5t167.5 -55.5q101 0 169 51t68 135q0 129 -227 189q-208 53 -311 137t-103 233q0 150 83 263t214 169t285 56z" />
    <glyph glyph-name="T" unicode="T" horiz-adv-x="1284" 
d="M1407 1163h-469l-205 -1163h-319l204 1163h-471l46 250h1261z" />
    <glyph glyph-name="U" unicode="U" horiz-adv-x="1454" 
d="M1511 1413l-137 -786q-18 -101 -41 -197q-26 -107 -72.5 -188t-122.5 -143.5t-190 -95t-264 -32.5q-268 0 -405.5 111.5t-137.5 298.5q0 90 31 264l135 768h320l-152 -860q-14 -80 -14 -133q0 -99 68.5 -155t179.5 -56q127 0 202 56t109 190q3 10 20 94l152 864h319z" />
    <glyph glyph-name="V" unicode="V" horiz-adv-x="1474" 
d="M885 0h-420l-246 1413h348l154 -1165l569 1165h344z" />
    <glyph glyph-name="W" unicode="W" horiz-adv-x="2048" 
d="M2218 1413l-614 -1413h-426l-23 1098l-410 -1098h-430l-108 1413h334l39 -1141l399 1121h461v-1131l424 1151h354z" />
    <glyph glyph-name="X" unicode="X" horiz-adv-x="1402" 
d="M895 707l403 -707h-368l-266 506l-398 -506h-385l645 721l-360 692h362l228 -491l397 491h371z" />
    <glyph glyph-name="Y" unicode="Y" horiz-adv-x="1347" 
d="M864 535l-94 -535h-321l96 545l-344 868h342l213 -598l403 598h359z" />
    <glyph glyph-name="Z" unicode="Z" horiz-adv-x="1298" 
d="M1341 1165l-886 -913h735l-45 -252h-1137l43 244l895 919h-676l45 250h1069z" />
    <glyph glyph-name="bracketleft" unicode="[" horiz-adv-x="786" 
d="M383 1597h504l-31 -176h-319l-250 -1409h319l-31 -176h-503z" />
    <glyph glyph-name="backslash" unicode="\" horiz-adv-x="686" 
d="M569 -61h-192l-244 1536h193z" />
    <glyph glyph-name="bracketright" unicode="]" horiz-adv-x="786" 
d="M444 -164h-503l32 176h320l248 1409h-320l33 176h502z" />
    <glyph glyph-name="asciicircum" unicode="^" 
d="M862 440l-139 643l-363 -643h-206l489 822h215l207 -822h-203z" />
    <glyph glyph-name="underscore" unicode="_" horiz-adv-x="1024" 
d="M907 -180h-819l29 176h819z" />
    <glyph glyph-name="grave" unicode="`" horiz-adv-x="614" 
d="M408 1171h-177l-237 248h287z" />
    <glyph glyph-name="a" unicode="a" horiz-adv-x="1163" 
d="M682 1120q215 0 314.5 -79.5t99.5 -215.5q0 -59 -29 -223l-57 -326q-22 -126 -29 -276h-313l4 158l-68 -109q-109 -78 -274 -78q-133 0 -219 75t-86 216q0 201 197 313t538 93l2 12q10 62 10 106q0 50 -30 81.5t-93 31.5q-161 0 -203 -170h-307q34 183 184.5 287
t358.5 104zM711 397l14 84q-162 18 -264.5 -29.5t-102.5 -146.5q0 -56 34.5 -84t94.5 -28q72 0 139 54.5t85 145.5v4z" />
    <glyph glyph-name="b" unicode="b" horiz-adv-x="1357" 
d="M893 1120q204 0 314 -113.5t110 -320.5q0 -140 -41 -266.5t-119 -227.5t-204 -161t-283 -60q-69 0 -138.5 17.5t-103.5 46.5l-53 119l-27 -154h-321l266 1505h321l-102 -575l104 119q103 71 277 71zM649 193q95 0 171.5 63.5t116.5 165t40 217.5q0 127 -55.5 193.5
t-153.5 66.5q-118 0 -204 -82t-118 -258l-10 -49l-4 -18l6 18q-7 -49 -7.5 -95t14 -86.5t38.5 -70.5t66.5 -47.5t99.5 -17.5z" />
    <glyph glyph-name="c" unicode="c" horiz-adv-x="1202" 
d="M707 1114q235 0 352 -117.5t117 -314.5h-314q-1 105 -48.5 158t-133.5 53q-88 0 -156.5 -64t-103.5 -169t-35 -232q0 -113 48.5 -174t125.5 -61q88 0 152 49.5t98 144.5h319q-152 -416 -596 -416q-144 0 -251.5 47.5t-171.5 152.5t-64 259q0 190 80.5 345t232.5 247
t349 92z" />
    <glyph glyph-name="d" unicode="d" horiz-adv-x="1355" 
d="M1405 1505l-266 -1505h-322l29 162l-103 -119q-104 -72 -276 -72q-203 0 -313.5 113.5t-110.5 321.5q0 140 41 266t118.5 227t203.5 161t282 60q69 0 138.5 -17t105.5 -44l53 -119l98 565h322zM911 532l11 52q13 60 5.5 116.5t-28.5 101t-69.5 71t-118.5 26.5
q-96 0 -172.5 -63.5t-116 -165t-39.5 -217.5q0 -127 55.5 -193.5t153.5 -66.5q117 0 202 81.5t117 255.5v2z" />
    <glyph glyph-name="e" unicode="e" horiz-adv-x="1216" 
d="M371 463v-43q0 -227 184 -227q85 0 147.5 43t88.5 120h317q-64 -187 -215 -286t-363 -99q-103 0 -189 26t-153.5 79t-105 141t-37.5 203q0 198 80 357t228.5 251t340.5 92q232 0 354.5 -124t122.5 -316q0 -111 -36 -217h-764zM664 899q-90 0 -155.5 -62.5t-100.5 -170.5
h436q2 16 2 36q0 93 -46.5 145t-135.5 52z" />
    <glyph glyph-name="f" unicode="f" horiz-adv-x="675" 
d="M575 1206q-14 -51 -20 -88l-6 -35h223l-35 -204h-223l-154 -879h-321l156 879h-99l35 204h100l5 29q11 67 26 123q82 309 389 309q130 0 219 -14l-39 -217q-33 8 -69 8q-71 0 -119.5 -30t-67.5 -85z" />
    <glyph glyph-name="g" unicode="g" horiz-adv-x="1357" 
d="M1333 1092l-145 -816q-24 -138 -39 -210q-56 -264 -221 -388t-469 -124q-237 0 -360.5 97t-110.5 279l2 21h313l-2 -19q-4 -66 51.5 -103.5t155.5 -37.5q120 0 202 60t111 178q23 114 27 137l2 8l-107 -121q-106 -73 -276 -73q-202 0 -313 114.5t-111 311.5q0 140 41 266
t118.5 227t203.5 161t282 60q69 0 138.5 -17t105.5 -44l53 -119l27 152h321zM592 203q57 0 105.5 17.5t91.5 54.5t74.5 102.5t47.5 154.5l-2 -14l13 68v-2q13 60 5.5 116.5t-28.5 101t-69.5 71t-118.5 26.5q-96 0 -172.5 -63.5t-116 -165t-39.5 -217.5q0 -126 54.5 -188
t154.5 -62z" />
    <glyph glyph-name="h" unicode="h" horiz-adv-x="1292" 
d="M893 1120q162 0 246 -76t84 -204q0 -74 -25 -213l-113 -627h-319l100 561q21 136 21 174q0 164 -162 164q-103 -2 -178.5 -99.5t-112.5 -299.5l-86 -500h-321l266 1516h321l-104 -586l115 121q115 69 268 69z" />
    <glyph glyph-name="i" unicode="i" horiz-adv-x="565" 
d="M455 1513q69 0 109 -37t40 -100q0 -75 -51 -131.5t-141 -56.5q-69 0 -109.5 37.5t-40.5 101.5q0 74 52 130t141 56zM348 0h-321l194 1092h320z" />
    <glyph glyph-name="j" unicode="j" horiz-adv-x="518" 
d="M406 1513q77 0 119 -36.5t42 -98.5q0 -93 -49 -141.5t-139 -48.5q-77 0 -119.5 36.5t-42.5 98.5q0 93 49.5 141.5t139.5 48.5zM508 1092l-193 -1090q-8 -61 -28 -133q-35 -146 -142.5 -222.5t-310.5 -76.5q-64 0 -113 6l39 223q93 -11 142.5 13t68.5 88q8 23 25 102
l190 1090h322z" />
    <glyph glyph-name="k" unicode="k" horiz-adv-x="1249" 
d="M772 582l406 -582h-390l-268 428l-114 -100l-58 -328h-321l266 1505h321l-157 -889l497 476h381z" />
    <glyph glyph-name="l" unicode="l" horiz-adv-x="598" 
d="M606 1505l-200 -1132q-15 -71 -15 -109q0 -44 24 -57t87 -10l-37 -203q-80 -12 -178 -12q-119 0 -175.5 37t-56.5 122q0 70 27 226l205 1138h319z" />
    <glyph glyph-name="m" unicode="m" horiz-adv-x="1923" 
d="M1532 1120q162 0 244 -75t82 -193q0 -55 -27 -207l-113 -645h-321l100 563q21 132 21 185q0 72 -35 111.5t-99 39.5q-83 0 -151.5 -86.5t-97.5 -228.5l-2 -17l-101 -567h-319l98 563q20 140 20 185q0 151 -141 151q-82 0 -147.5 -87.5t-93.5 -238.5v-6l-101 -567h-321
l192 1092h320l-27 -154l104 119q108 63 246 63q127 0 203.5 -54t97.5 -144l109 122q106 76 260 76z" />
    <glyph glyph-name="n" unicode="n" horiz-adv-x="1292" 
d="M893 1120q162 0 246 -76t84 -204q0 -74 -25 -213l-113 -627h-319l100 561q21 136 21 174q0 164 -162 164q-103 -2 -178.5 -99.5t-112.5 -299.5l-86 -500h-321l192 1092h320l-29 -162l115 121q115 69 268 69z" />
    <glyph glyph-name="o" unicode="o" horiz-adv-x="1282" 
d="M717 1120q252 0 385 -133.5t133 -351.5q0 -103 -26 -199t-80.5 -180.5t-132 -148t-187.5 -100t-240 -36.5q-253 0 -386.5 134t-133.5 352q0 103 26 199t80.5 180.5t132 147.5t188 99.5t241.5 36.5zM594 193q73 0 131.5 37.5t95 99.5t55.5 139t19 160q0 122 -51.5 196
t-153.5 74q-72 0 -130.5 -37t-95 -99t-56 -138.5t-19.5 -159.5q0 -122 52.5 -197t152.5 -75z" />
    <glyph glyph-name="p" unicode="p" horiz-adv-x="1357" 
d="M893 1120q204 0 314 -113.5t110 -320.5q0 -140 -41 -266.5t-119 -227.5t-204 -161t-283 -60q-69 0 -138.5 17.5t-103.5 46.5l-53 119l-99 -555h-321l266 1493h320l-29 -162l104 119q103 71 277 71zM649 193q95 0 171.5 63.5t116.5 165t40 217.5q0 127 -55.5 193.5
t-153.5 66.5q-118 0 -204 -82t-118 -258l-8 -49q-7 -49 -7.5 -95t14 -86.5t38.5 -70.5t66.5 -47.5t99.5 -17.5z" />
    <glyph glyph-name="q" unicode="q" horiz-adv-x="1357" 
d="M1333 1092l-266 -1493h-322l101 563l-103 -119q-104 -72 -276 -72q-203 0 -313.5 113.5t-110.5 321.5q0 140 41 266t118.5 227t203.5 161t282 60q69 0 138.5 -17t105.5 -44l53 -119l27 152h321zM911 532l11 52q13 60 5.5 116.5t-28.5 101t-69.5 71t-118.5 26.5
q-96 0 -172.5 -63.5t-116 -165t-39.5 -217.5q0 -127 55.5 -193.5t153.5 -66.5q117 0 202 81.5t117 253.5v4z" />
    <glyph glyph-name="r" unicode="r" horiz-adv-x="804" 
d="M827 1120q30 0 80 -8l-45 -260q-59 3 -113 0t-104 -28t-91 -68t-74 -119t-52 -180l-80 -457h-321l190 1085h322l-37 -204l112 153q46 41 103.5 63.5t109.5 22.5z" />
    <glyph glyph-name="s" unicode="s" horiz-adv-x="1021" 
d="M563 1114q214 0 320 -93.5t114 -252.5h-315q-16 141 -131 141q-58 0 -89.5 -28.5t-31.5 -71.5q0 -58 44 -91t171 -75q162 -53 234.5 -129.5t72.5 -200.5q0 -165 -135.5 -259.5t-357.5 -94.5q-225 0 -350 96.5t-134 268.5h320q7 -82 54.5 -120t121.5 -38q65 0 105 30
t40 85t-49.5 93t-183.5 83q-72 25 -120.5 49.5t-89 60.5t-60 85.5t-19.5 115.5q0 147 123.5 246.5t345.5 99.5z" />
    <glyph glyph-name="t" unicode="t" horiz-adv-x="761" 
d="M551 879l-82 -459q-14 -69 -14 -123q0 -66 46.5 -86t153.5 -6l-37 -207q-116 -25 -225 -25q-147 0 -211.5 48.5t-64.5 150.5q0 68 22 205l88 502h-157l36 204h158l49 275h322l-49 -275h225l-37 -204h-223z" />
    <glyph glyph-name="u" unicode="u" horiz-adv-x="1282" 
d="M1257 1092l-192 -1092h-320l29 162l-115 -121q-117 -70 -268 -70q-161 0 -245.5 76.5t-84.5 204.5q0 73 25 215l113 625h321l-102 -562q-21 -133 -21 -174q0 -164 162 -161q103 0 179.5 98t111.5 299l88 500h319z" />
    <glyph glyph-name="v" unicode="v" horiz-adv-x="1150" 
d="M1274 1092l-617 -1092h-362l-229 1092h358l102 -830l396 830h352z" />
    <glyph glyph-name="w" unicode="w" horiz-adv-x="1685" 
d="M1810 1092l-538 -1092h-363l-24 795l-303 -795h-363l-153 1092h354l31 -809l294 802h385l25 -806l309 813h346z" />
    <glyph glyph-name="x" unicode="x" horiz-adv-x="1132" 
d="M731 545l305 -545h-374l-154 330l-256 -330h-371l488 545l-279 547h375l131 -332l260 332h371z" />
    <glyph glyph-name="y" unicode="y" horiz-adv-x="1150" 
d="M1274 1092l-617 -1092q-137 -242 -259 -336t-300 -94q-62 0 -137 10l35 211q46 -6 94 -6q132 0 205 141l12 23l-241 1143h358l102 -828l396 828h352z" />
    <glyph glyph-name="z" unicode="z" horiz-adv-x="1077" 
d="M1065 879l-686 -672h584l-35 -207h-969l33 195l694 682h-526l35 206h907z" />
    <glyph glyph-name="braceleft" unicode="{" horiz-adv-x="815" 
d="M834 1597l-31 -176h-41q-49 0 -77.5 -9t-50.5 -37.5t-30 -82.5t-8 -145q1 -100 -8.5 -169.5t-34 -125t-69.5 -88t-113 -45.5q141 -30 141 -160q0 -106 -66 -272q-40 -103 -51.5 -140t-11.5 -67q0 -39 30 -53.5t101 -14.5h39l-31 -176h-84q-122 0 -181.5 55.5t-59.5 151.5
q0 52 13 98.5t60 165.5q54 144 54 223q0 91 -146 99l29 176q87 6 129 32t60 91t18 198q0 142 15.5 230t55.5 143.5t102.5 76.5t162.5 21h84z" />
    <glyph glyph-name="bar" unicode="|" horiz-adv-x="638" 
d="M238 -410h-207l360 2048h207z" />
    <glyph glyph-name="braceright" unicode="}" horiz-adv-x="815" 
d="M508 903q0 -88 147 -98l-30 -176q-87 -5 -129 -31.5t-59.5 -92t-16.5 -198.5q0 -142 -15.5 -230t-55.5 -143.5t-102.5 -76.5t-162.5 -21h-84l31 176h41q49 0 77 9t50 37.5t30 83t7 145.5q0 202 47.5 303t177.5 127q-139 34 -139 157q0 110 65 273q42 109 53 143.5
t11 63.5q0 39 -30.5 53t-101.5 14h-38l30 176h84q122 0 182 -55t60 -151q0 -50 -13 -95.5t-61 -169.5q-55 -139 -55 -223z" />
    <glyph glyph-name="asciitilde" unicode="~" 
d="M991 807h176q-63 -350 -321 -350q-41 0 -81.5 11.5t-68.5 25.5t-88 47q-67 40 -104 55.5t-70 15.5q-52 0 -79.5 -38t-41.5 -117h-176q60 350 320 350q43 0 84.5 -12t68.5 -25.5t84 -46.5q51 -29 73 -41t50 -21.5t51 -9.5q50 0 79 36t44 120z" />
    <glyph glyph-name="exclamdown" unicode="&#xa1;" horiz-adv-x="563" 
d="M307 782q-70 0 -111.5 38.5t-41.5 103.5q0 78 53.5 137t144.5 59q72 0 113 -38.5t41 -104.5q0 -78 -53.5 -136.5t-145.5 -58.5zM158 678h252l-183 -1000h-301z" />
    <glyph glyph-name="cent" unicode="&#xa2;" 
d="M809 872l-119 -661q106 41 154 176h319q-136 -378 -514 -412l-28 -159h-185l29 161q-178 26 -281.5 139.5t-103.5 313.5q0 177 70.5 324.5t205 242.5t310.5 113l28 160h185l-29 -164q181 -25 271.5 -138t90.5 -286h-313q-3 146 -90 190zM420 428q0 -153 88 -211l117 657
q-95 -44 -150 -166t-55 -280z" />
    <glyph glyph-name="sterling" unicode="&#xa3;" horiz-adv-x="1265" 
d="M608 606l2 -37q0 -99 -54 -184.5t-163 -132.5h713l-45 -252h-1079l38 223q76 14 130.5 46.5t83.5 76.5t42 89t13 95q0 37 -8 76h-175l29 164h98q-28 103 -28 199q0 97 36.5 182t104 150t171.5 103t231 38q100 0 178.5 -24t128.5 -63.5t83.5 -96t48.5 -114.5t19 -126h-323
q-3 87 -43 136.5t-113 49.5q-87 0 -137.5 -63.5t-50.5 -155.5q0 -41 5.5 -79.5t12 -63t21.5 -72.5h409l-26 -164h-353z" />
    <glyph glyph-name="currency" unicode="&#xa4;" 
d="M1122 922l-131 -115q35 -75 35 -162q0 -128 -90 -244l88 -108l-117 -98l-90 104q-90 -51 -201 -51q-121 0 -204 67l-127 -104l-88 104l129 111q-35 75 -35 162q0 129 86 241l-86 107l123 104l86 -102q92 50 200 47q120 -3 203 -70l133 111zM635 422q96 0 149.5 65.5
t53.5 147.5q0 80 -42.5 128t-115.5 48q-95 0 -148 -65t-53 -146q0 -82 41.5 -130t114.5 -48z" />
    <glyph glyph-name="yen" unicode="&#xa5;" 
d="M922 766h221l-33 -176h-311l-23 -119h314l-31 -176h-314l-51 -295h-321l51 295h-313l32 176h312l22 119h-313l31 176h225l-244 647h340l164 -631l383 631h330z" />
    <glyph glyph-name="brokenbar" unicode="&#xa6;" horiz-adv-x="614" 
d="M412 717h-183l123 696h183zM227 -328h-182l123 697h182z" />
    <glyph glyph-name="section" unicode="&#xa7;" horiz-adv-x="1304" 
d="M1223 502q0 -99 -64.5 -188.5t-185.5 -141.5q43 -70 43 -154q0 -171 -141 -272.5t-373 -101.5q-197 0 -321 92.5t-142 273.5h317q6 -76 51 -119t111 -43q74 0 119 34.5t45 105.5q0 72 -58.5 120.5t-217.5 104.5q-164 57 -248 140t-84 212q0 109 60 204t179 149
q-32 60 -32 153q0 65 31.5 129.5t88.5 119t149.5 88.5t203.5 34q199 0 305.5 -95.5t126.5 -263.5h-320q-4 75 -36.5 114.5t-86.5 39.5q-62 0 -95.5 -45t-33.5 -109q0 -70 50.5 -110t179.5 -78q195 -59 287 -152.5t92 -240.5zM600 422q120 -44 195 -86q94 39 94 145
q0 62 -49 103.5t-166 83.5q-119 44 -178 75q-46 -20 -67 -59.5t-21 -83.5q0 -58 47.5 -100.5t144.5 -77.5z" />
    <glyph glyph-name="dieresis" unicode="&#xa8;" horiz-adv-x="614" 
d="M119 1444q57 0 90 -29.5t33 -83.5q0 -71 -47 -114t-107 -43t-92.5 29t-32.5 83q0 70 48 114t108 44zM502 1444q57 0 90 -29.5t33 -83.5q0 -71 -48 -114t-108 -43q-59 0 -91 29t-32 83q0 70 48 114t108 44z" />
    <glyph glyph-name="copyright" unicode="&#xa9;" horiz-adv-x="1751" 
d="M874 1546q179 0 334 -61.5t264.5 -169t172.5 -260t63 -328.5t-63 -328.5t-172.5 -260t-264.5 -169t-334 -61.5q-238 0 -427.5 104.5t-296.5 292t-107 422.5t107 422.5t296.5 292t427.5 104.5zM874 1370q-181 0 -325.5 -82.5t-225.5 -229.5t-81 -331q0 -278 178.5 -458.5
t453.5 -180.5q182 0 327 82t226.5 228t81.5 329q0 184 -81.5 331t-226.5 229.5t-327 82.5zM893 1194q186 0 296 -100.5t128 -270.5h-273q-17 181 -161 181q-168 0 -168 -275q0 -139 45.5 -209.5t128.5 -70.5q63 0 105 45.5t48 134.5h273q-27 -174 -137.5 -272.5
t-300.5 -98.5q-201 0 -325 126t-124 343q0 212 127 339.5t338 127.5z" />
    <glyph glyph-name="guillemotleft" unicode="&#xab;" horiz-adv-x="1318" 
d="M467 489l209 -321h-227l-222 340l340 340h258zM918 489l208 -321h-227l-221 340l340 340h258z" />
    <glyph glyph-name="logicalnot" unicode="&#xac;" 
d="M1014 373h-183l46 260h-639l32 176h822z" />
    <glyph glyph-name="registered" unicode="&#xae;" horiz-adv-x="1007" 
d="M557 1565q179 0 284 -110t105 -271q0 -130 -61 -239t-175 -174.5t-259 -65.5q-179 0 -284.5 109.5t-105.5 270.5q0 129 61 238t176 175.5t259 66.5zM471 815q165 0 260.5 103.5t95.5 261.5q0 124 -77 200t-211 76q-167 0 -263 -104t-96 -262q0 -124 77.5 -199.5
t213.5 -75.5zM575 1360q62 -6 96 -36t34 -79q0 -43 -28.5 -73t-80.5 -42q53 -16 53 -90q-3 -58 21 -110h-133q-11 54 -9 94q0 47 -49 47h-33l-24 -141h-117l76 432h139q37 0 55 -2zM463 1163h29q24 0 38 2q50 10 50 60q0 38 -35 45q-12 2 -37 2h-25z" />
    <glyph glyph-name="macron" unicode="&#xaf;" horiz-adv-x="614" 
d="M584 1204h-584l31 174h583z" />
    <glyph glyph-name="degree" unicode="&#xb0;" horiz-adv-x="653" 
d="M483 1534q115 0 183.5 -67t68.5 -173q0 -130 -88.5 -213.5t-218.5 -83.5q-117 0 -185.5 67.5t-68.5 172.5q0 132 88.5 214.5t220.5 82.5zM467 1370q-50 0 -82.5 -32.5t-32.5 -84.5q0 -43 25 -67.5t63 -24.5q51 0 84 33t33 84q0 44 -25 68t-65 24z" />
    <glyph glyph-name="plusminus" unicode="&#xb1;" 
d="M1100 739l-33 -176h-324l-55 -313h-182l55 313h-323l32 176h322l55 310h182l-55 -310h326zM168 164h829l-28 -164h-830z" />
    <glyph glyph-name="acute" unicode="&#xb4;" horiz-adv-x="614" 
d="M360 1171h-176l215 248h287z" />
    <glyph glyph-name="paragraph" unicode="&#xb6;" horiz-adv-x="1239" 
d="M1272 1413l-291 -1638h-184l260 1462h-221l-261 -1462h-182l156 880h-12q-80 0 -115 2q-83 5 -144 54.5t-89.5 120.5t-28.5 153q0 54 14 109.5t45 111t76 99t112.5 72.5t147.5 34q37 2 117 2h600z" />
    <glyph glyph-name="periodcentered" unicode="&#xb7;" horiz-adv-x="534" 
d="M317 813q70 0 115 -38.5t45 -106.5q0 -103 -64 -167.5t-163 -64.5q-68 0 -113 39.5t-45 108.5q0 102 63 165.5t162 63.5z" />
    <glyph glyph-name="cedilla" unicode="&#xb8;" horiz-adv-x="614" 
d="M432 18l-72 -104q164 -24 164 -143q0 -99 -87.5 -150t-221.5 -51q-111 0 -160 14l25 127q46 -14 113 -14q64 0 99.5 18.5t35.5 51.5q0 37 -51 51t-136 6l129 194h162z" />
    <glyph glyph-name="guillemotright" unicode="&#xbb;" horiz-adv-x="1337" 
d="M629 508l-340 -340h-260l358 358l-209 322h230zM1079 508l-340 -340h-260l359 358l-209 322h229z" />
    <glyph glyph-name="questiondown" unicode="&#xbf;" horiz-adv-x="1067" 
d="M541 782q-70 0 -112 38.5t-42 103.5q0 78 53.5 137t145.5 59q72 0 112.5 -38.5t40.5 -104.5q0 -78 -53 -136.5t-145 -58.5zM319 -350q-201 0 -312 85.5t-111 237.5q0 94 29 165.5t89.5 137t173.5 150.5q92 71 133.5 122.5t65.5 129.5h268q-23 -112 -65 -180.5
t-135 -153.5q-128 -117 -172.5 -184t-44.5 -140q0 -65 37.5 -99t107.5 -34q80 0 136 56t79 168h324q-41 -215 -203 -338t-400 -123z" />
    <glyph glyph-name="Agrave" unicode="&#xc0;" horiz-adv-x="1417" 
d="M840 1505l-238 242h287l127 -242h-176zM934 399h-467l-199 -399h-344l750 1413h420l245 -1413h-348zM895 651l-68 471l-235 -471h303z" />
    <glyph glyph-name="Aacute" unicode="&#xc1;" horiz-adv-x="1417" 
d="M981 1505h-176l209 242h286zM934 399h-467l-199 -399h-344l750 1413h420l245 -1413h-348zM895 651l-68 471l-235 -471h303z" />
    <glyph glyph-name="Acircumflex" unicode="&#xc2;" horiz-adv-x="1417" 
d="M838 1505h-193l172 242h260l86 -242h-192l-41 140zM934 399h-467l-199 -399h-344l750 1413h420l245 -1413h-348zM895 651l-68 471l-235 -471h303z" />
    <glyph glyph-name="Atilde" unicode="&#xc3;" horiz-adv-x="1417" 
d="M813 1581q-37 0 -45 -57h-168q23 130 67 185.5t126 55.5q69 0 159 -39q63 -24 95 -24q17 0 27 13t16 44h165q-24 -131 -67 -186t-125 -55q-73 0 -160 38q-60 25 -90 25zM934 399h-467l-199 -399h-344l750 1413h420l245 -1413h-348zM895 651l-68 471l-235 -471h303z" />
    <glyph glyph-name="Adieresis" unicode="&#xc4;" horiz-adv-x="1417" 
d="M719 1487q-60 0 -92.5 29.5t-32.5 82.5q0 71 48 114.5t108 43.5q57 0 89.5 -29t32.5 -83q0 -70 -47 -114t-106 -44zM1098 1487q-60 0 -92.5 29.5t-32.5 82.5q0 71 47.5 114.5t107.5 43.5q58 0 90.5 -29.5t32.5 -82.5q0 -70 -47 -114t-106 -44zM934 399h-467l-199 -399
h-344l750 1413h420l245 -1413h-348zM895 651l-68 471l-235 -471h303z" />
    <glyph glyph-name="Aring" unicode="&#xc5;" horiz-adv-x="1417" 
d="M903 1477q-91 0 -147 49.5t-56 124.5q0 102 74.5 165.5t190.5 63.5q89 0 145.5 -50.5t56.5 -125.5q0 -102 -74 -164.5t-190 -62.5zM948 1759q-38 0 -65 -28t-27 -72q0 -28 17.5 -46t46.5 -18q38 0 65 29t27 72q0 28 -17.5 45.5t-46.5 17.5zM934 399h-467l-199 -399h-344
l750 1413h420l245 -1413h-348zM895 651l-68 471l-235 -471h303z" />
    <glyph glyph-name="AE" unicode="&#xc6;" horiz-adv-x="2007" 
d="M1268 1163l-25 -329h684l-45 -250h-657l-25 -332h690l-45 -252h-985l35 446h-420l-303 -446h-350l1012 1413h1241l-45 -250h-762zM913 696l35 447l-303 -447h268z" />
    <glyph glyph-name="Ccedilla" unicode="&#xc7;" horiz-adv-x="1546" 
d="M944 1442q143 0 254 -37t178.5 -103.5t99 -155t23.5 -194.5l-2 -20h-319v20q-3 129 -69.5 190.5t-197.5 61.5q-191 0 -317.5 -169.5t-126.5 -454.5q0 -189 75 -280t201 -91q122 0 209 69.5t135 198.5l9 21h319l-6 -21q-67 -243 -250.5 -374.5t-453.5 -131.5
q-268 0 -423.5 153.5t-154.5 430.5q-1 197 64 365t176.5 281.5t260.5 177t316 63.5zM227 18l-71 -104q163 -24 163 -143q0 -99 -87.5 -150t-221.5 -51q-111 0 -160 14l23 127q48 -14 115 -14q64 0 99.5 18.5t35.5 51.5q0 37 -51 51t-138 6l132 194h161z" />
    <glyph glyph-name="Egrave" unicode="&#xc8;" horiz-adv-x="1267" 
d="M780 1505l-237 242h286l127 -242h-176zM584 1163l-58 -329h662l-45 -250h-662l-57 -332h727l-45 -252h-1047l250 1413h1026l-45 -250h-706z" />
    <glyph glyph-name="Eacute" unicode="&#xc9;" horiz-adv-x="1267" 
d="M922 1505h-177l209 242h287zM584 1163l-58 -329h662l-45 -250h-662l-57 -332h727l-45 -252h-1047l250 1413h1026l-45 -250h-706z" />
    <glyph glyph-name="Ecircumflex" unicode="&#xca;" horiz-adv-x="1267" 
d="M780 1505h-192l172 242h260l86 -242h-193l-41 140zM584 1163l-58 -329h662l-45 -250h-662l-57 -332h727l-45 -252h-1047l250 1413h1026l-45 -250h-706z" />
    <glyph glyph-name="Edieresis" unicode="&#xcb;" horiz-adv-x="1267" 
d="M659 1487q-60 0 -92 29.5t-32 82.5q0 71 47.5 114.5t107.5 43.5q58 0 90.5 -29.5t32.5 -82.5q0 -70 -47.5 -114t-106.5 -44zM1038 1487q-60 0 -92.5 29.5t-32.5 82.5q0 71 48 114.5t108 43.5q58 0 90.5 -29.5t32.5 -82.5q0 -70 -47.5 -114t-106.5 -44zM584 1163l-58 -329
h662l-45 -250h-662l-57 -332h727l-45 -252h-1047l250 1413h1026l-45 -250h-706z" />
    <glyph glyph-name="Igrave" unicode="&#xcc;" horiz-adv-x="604" 
d="M596 1505h-176l-238 242h287zM379 0h-320l250 1413h320z" />
    <glyph glyph-name="Iacute" unicode="&#xcd;" horiz-adv-x="604" 
d="M561 1505h-176l209 242h287zM379 0h-320l250 1413h320z" />
    <glyph glyph-name="Icircumflex" unicode="&#xce;" horiz-adv-x="604" 
d="M420 1505h-193l172 242h260l86 -242h-192l-41 140zM309 1413h320l-250 -1413h-320z" />
    <glyph glyph-name="Idieresis" unicode="&#xcf;" horiz-adv-x="604" 
d="M332 1757q58 0 90.5 -29.5t32.5 -82.5q0 -70 -47.5 -114t-106.5 -44q-60 0 -92.5 29.5t-32.5 82.5q0 71 48 114.5t108 43.5zM711 1757q58 0 90.5 -29.5t32.5 -82.5q0 -70 -47.5 -114t-106.5 -44q-60 0 -92.5 29.5t-32.5 82.5q0 71 48 114.5t108 43.5zM379 0h-320
l250 1413h320z" />
    <glyph glyph-name="Eth" unicode="&#xd0;" horiz-adv-x="1503" 
d="M977 1405q108 -12 197 -53.5t157 -112.5t106 -180.5t38 -247.5q0 -122 -28.5 -233.5t-89 -209.5t-146.5 -173.5t-208 -125t-268 -63.5q-74 -6 -182 -6h-494l107 606h-139l30 176h142l110 631h475q123 0 193 -8zM713 256q106 12 188 60.5t132.5 123.5t76 167t25.5 196
q0 167 -71 254t-198 100q-67 6 -137 6h-143l-68 -381h217l-30 -176h-218l-63 -354h147q95 0 142 4z" />
    <glyph glyph-name="Ntilde" unicode="&#xd1;" horiz-adv-x="1574" 
d="M887 1581q-37 0 -45 -57h-168q24 131 67 186t125 55q70 0 160 -39q63 -24 94 -24q17 0 27 13t16 44h166q-24 -131 -67 -186t-125 -55q-73 0 -160 38q-60 25 -90 25zM1599 1413l-249 -1413h-428l-365 1012l-178 -1012h-320l250 1413h412l375 -1042l182 1042h321z" />
    <glyph glyph-name="Ograve" unicode="&#xd2;" horiz-adv-x="1624" 
d="M944 1505l-237 242h286l127 -242h-176zM946 1442q153 0 277 -47t205 -130t124 -194.5t43 -241.5q0 -249 -103 -444.5t-288.5 -304.5t-423.5 -109q-153 0 -277 47t-205 130t-124 194.5t-43 241.5q0 250 103 445.5t288.5 304t423.5 108.5zM799 209q89 0 165.5 37t129 98
t89.5 141t54.5 165t17.5 171q0 174 -85.5 278.5t-241.5 104.5q-90 0 -166.5 -37t-129 -98t-89.5 -141t-54.5 -165t-17.5 -171q0 -173 86 -278t242 -105z" />
    <glyph glyph-name="Oacute" unicode="&#xd3;" horiz-adv-x="1624" 
d="M1085 1505h-176l209 242h287zM946 1442q153 0 277 -47t205 -130t124 -194.5t43 -241.5q0 -249 -103 -444.5t-288.5 -304.5t-423.5 -109q-153 0 -277 47t-205 130t-124 194.5t-43 241.5q0 250 103 445.5t288.5 304t423.5 108.5zM799 209q89 0 165.5 37t129 98t89.5 141
t54.5 165t17.5 171q0 174 -85.5 278.5t-241.5 104.5q-90 0 -166.5 -37t-129 -98t-89.5 -141t-54.5 -165t-17.5 -171q0 -173 86 -278t242 -105z" />
    <glyph glyph-name="Ocircumflex" unicode="&#xd4;" horiz-adv-x="1624" 
d="M942 1505h-192l172 242h260l86 -242h-193l-41 140zM946 1442q153 0 277 -47t205 -130t124 -194.5t43 -241.5q0 -249 -103 -444.5t-288.5 -304.5t-423.5 -109q-153 0 -277 47t-205 130t-124 194.5t-43 241.5q0 250 103 445.5t288.5 304t423.5 108.5zM799 209
q89 0 165.5 37t129 98t89.5 141t54.5 165t17.5 171q0 174 -85.5 278.5t-241.5 104.5q-90 0 -166.5 -37t-129 -98t-89.5 -141t-54.5 -165t-17.5 -171q0 -173 86 -278t242 -105z" />
    <glyph glyph-name="Otilde" unicode="&#xd5;" horiz-adv-x="1624" 
d="M918 1581q-38 0 -46 -57h-167q24 131 67 186t125 55q70 0 160 -39q63 -24 94 -24q17 0 27 13t16 44h166q-23 -130 -67 -185.5t-126 -55.5q-72 0 -159 38q-60 25 -90 25zM946 1442q153 0 277 -47t205 -130t124 -194.5t43 -241.5q0 -249 -103 -444.5t-288.5 -304.5
t-423.5 -109q-153 0 -277 47t-205 130t-124 194.5t-43 241.5q0 250 103 445.5t288.5 304t423.5 108.5zM799 209q89 0 165.5 37t129 98t89.5 141t54.5 165t17.5 171q0 174 -85.5 278.5t-241.5 104.5q-90 0 -166.5 -37t-129 -98t-89.5 -141t-54.5 -165t-17.5 -171
q0 -173 86 -278t242 -105z" />
    <glyph glyph-name="Odieresis" unicode="&#xd6;" horiz-adv-x="1624" 
d="M823 1487q-60 0 -92.5 29.5t-32.5 82.5q0 71 48 114.5t108 43.5q58 0 90.5 -29.5t32.5 -82.5q0 -70 -47.5 -114t-106.5 -44zM1202 1487q-60 0 -92.5 29.5t-32.5 82.5q0 71 48 114.5t108 43.5q58 0 90.5 -29.5t32.5 -82.5q0 -70 -47.5 -114t-106.5 -44zM946 1442
q153 0 277 -47t205 -130t124 -194.5t43 -241.5q0 -249 -103 -444.5t-288.5 -304.5t-423.5 -109q-153 0 -277 47t-205 130t-124 194.5t-43 241.5q0 250 103 445.5t288.5 304t423.5 108.5zM799 209q89 0 165.5 37t129 98t89.5 141t54.5 165t17.5 171q0 174 -85.5 278.5
t-241.5 104.5q-90 0 -166.5 -37t-129 -98t-89.5 -141t-54.5 -165t-17.5 -171q0 -173 86 -278t242 -105z" />
    <glyph glyph-name="multiply" unicode="&#xd7;" 
d="M805 655l231 -280l-153 -129l-232 280l-342 -290l-125 149l344 293l-231 280l152 129l231 -280l342 289l125 -150z" />
    <glyph glyph-name="Oslash" unicode="&#xd8;" horiz-adv-x="1615" 
d="M1675 1298l-164 -139q86 -142 86 -330q0 -249 -103 -444.5t-289.5 -304.5t-424.5 -109q-295 0 -471 168l-180 -153l-106 129l184 155q-76 143 -76 314q0 250 103 445.5t289 304t425 108.5q282 0 457 -154l164 139zM471 592q0 -46 6 -90l699 592q-86 110 -246 110
q-90 0 -167 -37t-129.5 -98t-90 -141t-55 -165t-17.5 -171zM1257 821q0 55 -10 113l-706 -598q87 -127 258 -127q112 0 202 56t144.5 146t83 196t28.5 214z" />
    <glyph glyph-name="Ugrave" unicode="&#xd9;" horiz-adv-x="1454" 
d="M1036 1505h-176l-237 242h286zM1511 1413l-137 -786q-18 -101 -41 -197q-26 -107 -72.5 -188t-122.5 -143.5t-190 -95t-264 -32.5q-268 0 -405.5 111.5t-137.5 298.5q0 90 31 264l135 768h320l-152 -860q-14 -80 -14 -133q0 -99 68.5 -155t179.5 -56q127 0 202 56
t109 190q3 10 20 94l152 864h319z" />
    <glyph glyph-name="Uacute" unicode="&#xda;" horiz-adv-x="1454" 
d="M1001 1505h-176l209 242h287zM1511 1413l-137 -786q-18 -101 -41 -197q-26 -107 -72.5 -188t-122.5 -143.5t-190 -95t-264 -32.5q-268 0 -405.5 111.5t-137.5 298.5q0 90 31 264l135 768h320l-152 -860q-14 -80 -14 -133q0 -99 68.5 -155t179.5 -56q127 0 202 56t109 190
q3 10 20 94l152 864h319z" />
    <glyph glyph-name="Ucircumflex" unicode="&#xdb;" horiz-adv-x="1454" 
d="M860 1505h-192l172 242h260l86 -242h-193l-41 140zM1511 1413l-137 -786q-18 -101 -41 -197q-26 -107 -72.5 -188t-122.5 -143.5t-190 -95t-264 -32.5q-268 0 -405.5 111.5t-137.5 298.5q0 90 31 264l135 768h320l-152 -860q-14 -80 -14 -133q0 -99 68.5 -155t179.5 -56
q127 0 202 56t109 190q3 10 20 94l152 864h319z" />
    <glyph glyph-name="Udieresis" unicode="&#xdc;" horiz-adv-x="1454" 
d="M772 1757q58 0 90.5 -29.5t32.5 -82.5q0 -70 -47.5 -114t-106.5 -44q-60 0 -92.5 29.5t-32.5 82.5q0 71 48 114.5t108 43.5zM1151 1757q58 0 90.5 -29.5t32.5 -82.5q0 -70 -47.5 -114t-106.5 -44q-60 0 -92.5 29.5t-32.5 82.5q0 71 48 114.5t108 43.5zM1511 1413
l-137 -786q-18 -101 -41 -197q-26 -107 -72.5 -188t-122.5 -143.5t-190 -95t-264 -32.5q-268 0 -405.5 111.5t-137.5 298.5q0 90 31 264l135 768h320l-152 -860q-14 -80 -14 -133q0 -99 68.5 -155t179.5 -56q127 0 202 56t109 190q3 10 20 94l152 864h319z" />
    <glyph glyph-name="Yacute" unicode="&#xdd;" horiz-adv-x="1347" 
d="M952 1505h-176l209 242h287zM864 535l-94 -535h-321l96 545l-344 868h342l213 -598l403 598h359z" />
    <glyph glyph-name="Thorn" unicode="&#xde;" horiz-adv-x="1306" 
d="M1012 1223q138 -16 221.5 -98t83.5 -226q0 -50 -8 -94q-34 -187 -156 -293.5t-289 -126.5q-92 -10 -213 -10h-207l-65 -375h-320l250 1413h320l-33 -180h205q121 0 211 -10zM973 805q4 28 4 39q0 117 -137 133q-27 4 -111 4h-176l-64 -354h179q50 0 112 4q162 20 193 174
z" />
    <glyph glyph-name="germandbls" unicode="&#xdf;" horiz-adv-x="1292" 
d="M840 1544q219 0 337.5 -95t118.5 -247q0 -128 -96 -248q-78 -37 -111.5 -75t-33.5 -91q0 -76 75 -159q64 -68 90.5 -133t26.5 -140q0 -157 -122.5 -260.5t-350.5 -103.5q-154 0 -258 24l43 240q101 -27 180 -27q83 0 125.5 39t42.5 101q0 74 -71 159q-62 75 -88.5 130.5
t-26.5 127.5q0 85 48 148.5t149 118.5q38 60 38 118q0 136 -163 136q-118 0 -182.5 -90.5t-100.5 -292.5l-162 -924h-321l159 907q22 129 52 223t80 175.5t119.5 132t170 78.5t232.5 28z" />
    <glyph glyph-name="agrave" unicode="&#xe0;" horiz-adv-x="1163" 
d="M647 1171l-237 248h286l127 -248h-176zM682 1120q215 0 314.5 -79.5t99.5 -215.5q0 -59 -29 -223l-57 -326q-22 -126 -29 -276h-313l4 158l-68 -109q-109 -78 -274 -78q-133 0 -219 75t-86 216q0 201 197 313t538 93l2 12q10 62 10 106q0 50 -30 81.5t-93 31.5
q-161 0 -203 -170h-307q34 183 184.5 287t358.5 104zM711 397l14 84q-162 18 -264.5 -29.5t-102.5 -146.5q0 -56 34.5 -84t94.5 -28q72 0 139 54.5t85 145.5v4z" />
    <glyph glyph-name="aacute" unicode="&#xe1;" horiz-adv-x="1163" 
d="M776 1171h-176l215 248h287zM682 1120q215 0 314.5 -79.5t99.5 -215.5q0 -59 -29 -223l-57 -326q-22 -126 -29 -276h-313l4 158l-68 -109q-109 -78 -274 -78q-133 0 -219 75t-86 216q0 201 197 313t538 93l2 12q10 62 10 106q0 50 -30 81.5t-93 31.5q-161 0 -203 -170
h-307q34 183 184.5 287t358.5 104zM711 397l14 84q-162 18 -264.5 -29.5t-102.5 -146.5q0 -56 34.5 -84t94.5 -28q72 0 139 54.5t85 145.5v4z" />
    <glyph glyph-name="acircumflex" unicode="&#xe2;" horiz-adv-x="1163" 
d="M641 1171h-190l174 248h258l86 -248h-193l-41 148zM682 1120q215 0 314.5 -79.5t99.5 -215.5q0 -59 -29 -223l-57 -326q-22 -126 -29 -276h-313l4 158l-68 -109q-109 -78 -274 -78q-133 0 -219 75t-86 216q0 201 197 313t538 93l2 12q10 62 10 106q0 50 -30 81.5
t-93 31.5q-161 0 -203 -170h-307q34 183 184.5 287t358.5 104zM711 397l14 84q-162 18 -264.5 -29.5t-102.5 -146.5q0 -56 34.5 -84t94.5 -28q72 0 139 54.5t85 145.5v4z" />
    <glyph glyph-name="atilde" unicode="&#xe3;" horiz-adv-x="1163" 
d="M610 1243q-37 0 -45 -57h-168q23 130 67 185.5t126 55.5q72 0 160 -38q65 -25 94 -25q17 0 27 13t16 44h166q-23 -130 -67 -185.5t-126 -55.5q-71 0 -160 39q-57 24 -90 24zM682 1120q215 0 314.5 -79.5t99.5 -215.5q0 -59 -29 -223l-57 -326q-22 -126 -29 -276h-313
l4 158l-68 -109q-109 -78 -274 -78q-133 0 -219 75t-86 216q0 201 197 313t538 93l2 12q10 62 10 106q0 50 -30 81.5t-93 31.5q-161 0 -203 -170h-307q34 183 184.5 287t358.5 104zM711 397l14 84q-162 18 -264.5 -29.5t-102.5 -146.5q0 -56 34.5 -84t94.5 -28
q72 0 139 54.5t85 145.5v4z" />
    <glyph glyph-name="adieresis" unicode="&#xe4;" horiz-adv-x="1163" 
d="M510 1174q-60 0 -92.5 29t-32.5 83q0 70 48 114t108 44q57 0 90 -29.5t33 -83.5q0 -71 -47 -114t-107 -43zM891 1174q-59 0 -91 29t-32 83q0 70 48 114t108 44q57 0 90 -29.5t33 -83.5q0 -71 -48 -114t-108 -43zM682 1120q215 0 314.5 -79.5t99.5 -215.5q0 -59 -29 -223
l-57 -326q-22 -126 -29 -276h-313l4 158l-68 -109q-109 -78 -274 -78q-133 0 -219 75t-86 216q0 201 197 313t538 93l2 12q10 62 10 106q0 50 -30 81.5t-93 31.5q-161 0 -203 -170h-307q34 183 184.5 287t358.5 104zM711 397l14 84q-162 18 -264.5 -29.5t-102.5 -146.5
q0 -56 34.5 -84t94.5 -28q72 0 139 54.5t85 145.5v4z" />
    <glyph glyph-name="aring" unicode="&#xe5;" horiz-adv-x="1163" 
d="M705 1161q-94 0 -148.5 46.5t-54.5 129.5q0 103 74 170.5t194 67.5q92 0 145.5 -46.5t53.5 -129.5q0 -104 -73.5 -171t-190.5 -67zM750 1456q-45 0 -69 -35t-24 -75q0 -31 17.5 -48.5t46.5 -17.5q45 0 68.5 34.5t23.5 76.5q0 31 -17 48t-46 17zM682 1120
q215 0 314.5 -79.5t99.5 -215.5q0 -59 -29 -223l-57 -326q-22 -126 -29 -276h-313l4 158l-68 -109q-109 -78 -274 -78q-133 0 -219 75t-86 216q0 201 197 313t538 93l2 12q10 62 10 106q0 50 -30 81.5t-93 31.5q-161 0 -203 -170h-307q34 183 184.5 287t358.5 104zM711 397
l14 84q-162 18 -264.5 -29.5t-102.5 -146.5q0 -56 34.5 -84t94.5 -28q72 0 139 54.5t85 145.5v4z" />
    <glyph glyph-name="ae" unicode="&#xe6;" horiz-adv-x="1961" 
d="M1880 463h-766q-4 -36 -4 -49q0 -221 184 -221q86 0 149 43t89 120h317q-75 -185 -234.5 -285t-363.5 -100q-303 0 -399 230l-123 -142q-137 -88 -326 -88q-177 0 -277.5 76.5t-100.5 208.5q0 84 37 155.5t114 129.5t210 91.5t310 33.5h101q10 61 10 92q0 68 -34.5 101.5
t-110.5 33.5q-78 0 -134.5 -44.5t-76.5 -125.5h-308q34 182 189 286.5t364 104.5q289 0 353 -182q161 182 440 182q106 0 188.5 -33.5t134.5 -92.5t78.5 -137t26.5 -169q0 -110 -37 -219zM1421 893q-186 0 -262 -227h430q10 227 -168 227zM760 422l8 41q-33 2 -88 2
q-162 0 -240 -40.5t-78 -129.5q0 -102 144 -102q93 0 164 63t90 166z" />
    <glyph glyph-name="ccedilla" unicode="&#xe7;" horiz-adv-x="1202" 
d="M559 193q88 0 152 49.5t98 144.5h319q-143 -396 -548 -414l-41 -59q163 -24 163 -143q0 -99 -87.5 -150t-221.5 -51q-111 0 -160 14l25 127q46 -14 113 -14q64 0 99.5 18.5t35.5 51.5q0 37 -51 51t-136 6l103 156q-175 26 -276 139t-101 311q0 190 80.5 345t232.5 247
t349 92q235 0 352 -117.5t117 -314.5h-314q-1 105 -48.5 158t-133.5 53q-88 0 -156.5 -64t-103.5 -169t-35 -232q0 -113 48.5 -174t125.5 -61z" />
    <glyph glyph-name="egrave" unicode="&#xe8;" horiz-adv-x="1216" 
d="M676 1171l-238 248h287l127 -248h-176zM371 463v-43q0 -227 184 -227q85 0 147.5 43t88.5 120h317q-64 -187 -215 -286t-363 -99q-103 0 -189 26t-153.5 79t-105 141t-37.5 203q0 198 80 357t228.5 251t340.5 92q232 0 354.5 -124t122.5 -316q0 -111 -36 -217h-764z
M664 899q-90 0 -155.5 -62.5t-100.5 -170.5h436q2 16 2 36q0 93 -46.5 145t-135.5 52z" />
    <glyph glyph-name="eacute" unicode="&#xe9;" horiz-adv-x="1216" 
d="M805 1171h-176l215 248h286zM371 463v-43q0 -227 184 -227q85 0 147.5 43t88.5 120h317q-64 -187 -215 -286t-363 -99q-103 0 -189 26t-153.5 79t-105 141t-37.5 203q0 198 80 357t228.5 251t340.5 92q232 0 354.5 -124t122.5 -316q0 -111 -36 -217h-764zM664 899
q-90 0 -155.5 -62.5t-100.5 -170.5h436q2 16 2 36q0 93 -46.5 145t-135.5 52z" />
    <glyph glyph-name="ecircumflex" unicode="&#xea;" horiz-adv-x="1216" 
d="M668 1171h-191l174 248h258l86 -248h-192l-41 148zM371 463v-43q0 -227 184 -227q85 0 147.5 43t88.5 120h317q-64 -187 -215 -286t-363 -99q-103 0 -189 26t-153.5 79t-105 141t-37.5 203q0 198 80 357t228.5 251t340.5 92q232 0 354.5 -124t122.5 -316q0 -111 -36 -217
h-764zM664 899q-90 0 -155.5 -62.5t-100.5 -170.5h436q2 16 2 36q0 93 -46.5 145t-135.5 52z" />
    <glyph glyph-name="edieresis" unicode="&#xeb;" horiz-adv-x="1216" 
d="M539 1174q-60 0 -92.5 29t-32.5 83q0 70 47.5 114t107.5 44q57 0 90 -29.5t33 -83.5q0 -71 -46.5 -114t-106.5 -43zM920 1174q-59 0 -91 29t-32 83q0 70 47.5 114t107.5 44q57 0 90 -29.5t33 -83.5q0 -71 -47.5 -114t-107.5 -43zM371 463v-43q0 -227 184 -227
q85 0 147.5 43t88.5 120h317q-64 -187 -215 -286t-363 -99q-103 0 -189 26t-153.5 79t-105 141t-37.5 203q0 198 80 357t228.5 251t340.5 92q232 0 354.5 -124t122.5 -316q0 -111 -36 -217h-764zM664 899q-90 0 -155.5 -62.5t-100.5 -170.5h436q2 16 2 36q0 93 -46.5 145
t-135.5 52z" />
    <glyph glyph-name="igrave" unicode="&#xec;" horiz-adv-x="565" 
d="M520 1171h-176l-238 248h287zM348 0h-321l194 1092h320z" />
    <glyph glyph-name="iacute" unicode="&#xed;" horiz-adv-x="565" 
d="M473 1171h-176l215 248h287zM348 0h-321l194 1092h320z" />
    <glyph glyph-name="icircumflex" unicode="&#xee;" horiz-adv-x="565" 
d="M338 1171h-191l175 248h258l86 -248h-193l-41 148zM221 1092h320l-193 -1092h-321z" />
    <glyph glyph-name="idieresis" unicode="&#xef;" horiz-adv-x="565" 
d="M238 1444q57 0 89.5 -29.5t32.5 -83.5q0 -71 -46.5 -114t-106.5 -43t-92.5 29t-32.5 83q0 70 48 114t108 44zM621 1444q57 0 89.5 -29.5t32.5 -83.5q0 -71 -47.5 -114t-107.5 -43q-59 0 -91 29t-32 83q0 70 48 114t108 44zM348 0h-321l194 1092h320z" />
    <glyph glyph-name="eth" unicode="&#xf0;" horiz-adv-x="1333" 
d="M1311 1303l-156 -35q88 -198 88 -494q0 -98 -16 -191.5t-49 -185t-88 -167.5t-128 -134.5t-175.5 -91.5t-223.5 -33q-245 0 -380.5 127.5t-135.5 331.5q0 101 23 198t72.5 186.5t120.5 157t174.5 108t226.5 40.5q65 0 110 -13t96 -46l74 -121q-7 162 -65 266l-254 -55
l-27 131l188 43q-54 51 -137 98l273 103q92 -43 161 -135l199 45zM586 209q72 0 130 30t93 76t58.5 106.5t32.5 117t9 112.5q0 104 -56.5 169t-147.5 65q-71 0 -128 -29.5t-92.5 -75t-60 -104.5t-34 -115t-9.5 -110q0 -123 53.5 -182.5t151.5 -59.5z" />
    <glyph glyph-name="ntilde" unicode="&#xf1;" horiz-adv-x="1292" 
d="M668 1243q-37 0 -45 -57h-168q24 131 67 186t125 55q72 0 160 -38q65 -25 94 -25q17 0 27 13t16 44h166q-24 -131 -67 -186t-125 -55q-71 0 -160 39q-57 24 -90 24zM893 1120q162 0 246 -76t84 -204q0 -74 -25 -213l-113 -627h-319l100 561q21 136 21 174q0 164 -162 164
q-103 -2 -178.5 -99.5t-112.5 -299.5l-86 -500h-321l192 1092h320l-29 -162l115 121q115 69 268 69z" />
    <glyph glyph-name="ograve" unicode="&#xf2;" horiz-adv-x="1282" 
d="M698 1171l-237 248h287l126 -248h-176zM717 1120q252 0 385 -133.5t133 -351.5q0 -103 -26 -199t-80.5 -180.5t-132 -148t-187.5 -100t-240 -36.5q-253 0 -386.5 134t-133.5 352q0 103 26 199t80.5 180.5t132 147.5t188 99.5t241.5 36.5zM594 193q73 0 131.5 37.5
t95 99.5t55.5 139t19 160q0 122 -51.5 196t-153.5 74q-72 0 -130.5 -37t-95 -99t-56 -138.5t-19.5 -159.5q0 -122 52.5 -197t152.5 -75z" />
    <glyph glyph-name="oacute" unicode="&#xf3;" horiz-adv-x="1282" 
d="M827 1171h-176l215 248h287zM717 1120q252 0 385 -133.5t133 -351.5q0 -103 -26 -199t-80.5 -180.5t-132 -148t-187.5 -100t-240 -36.5q-253 0 -386.5 134t-133.5 352q0 103 26 199t80.5 180.5t132 147.5t188 99.5t241.5 36.5zM594 193q73 0 131.5 37.5t95 99.5t55.5 139
t19 160q0 122 -51.5 196t-153.5 74q-72 0 -130.5 -37t-95 -99t-56 -138.5t-19.5 -159.5q0 -122 52.5 -197t152.5 -75z" />
    <glyph glyph-name="ocircumflex" unicode="&#xf4;" horiz-adv-x="1282" 
d="M692 1171h-190l174 248h258l86 -248h-193l-41 148zM717 1120q252 0 385 -133.5t133 -351.5q0 -103 -26 -199t-80.5 -180.5t-132 -148t-187.5 -100t-240 -36.5q-253 0 -386.5 134t-133.5 352q0 103 26 199t80.5 180.5t132 147.5t188 99.5t241.5 36.5zM594 193
q73 0 131.5 37.5t95 99.5t55.5 139t19 160q0 122 -51.5 196t-153.5 74q-72 0 -130.5 -37t-95 -99t-56 -138.5t-19.5 -159.5q0 -122 52.5 -197t152.5 -75z" />
    <glyph glyph-name="otilde" unicode="&#xf5;" horiz-adv-x="1282" 
d="M662 1243q-38 0 -46 -57h-167q24 131 67 186t125 55q72 0 160 -38q65 -25 94 -25q17 0 27 13t16 44h166q-23 -130 -67 -185.5t-126 -55.5q-70 0 -159 39q-57 24 -90 24zM717 1120q252 0 385 -133.5t133 -351.5q0 -103 -26 -199t-80.5 -180.5t-132 -148t-187.5 -100
t-240 -36.5q-253 0 -386.5 134t-133.5 352q0 103 26 199t80.5 180.5t132 147.5t188 99.5t241.5 36.5zM594 193q73 0 131.5 37.5t95 99.5t55.5 139t19 160q0 122 -51.5 196t-153.5 74q-72 0 -130.5 -37t-95 -99t-56 -138.5t-19.5 -159.5q0 -122 52.5 -197t152.5 -75z" />
    <glyph glyph-name="odieresis" unicode="&#xf6;" horiz-adv-x="1282" 
d="M561 1174q-60 0 -92.5 29t-32.5 83q0 70 48 114t108 44q57 0 90 -29.5t33 -83.5q0 -71 -47 -114t-107 -43zM942 1174q-59 0 -91 29t-32 83q0 70 48 114t108 44q57 0 90 -29.5t33 -83.5q0 -71 -48 -114t-108 -43zM717 1120q252 0 385 -133.5t133 -351.5q0 -103 -26 -199
t-80.5 -180.5t-132 -148t-187.5 -100t-240 -36.5q-253 0 -386.5 134t-133.5 352q0 103 26 199t80.5 180.5t132 147.5t188 99.5t241.5 36.5zM594 193q73 0 131.5 37.5t95 99.5t55.5 139t19 160q0 122 -51.5 196t-153.5 74q-72 0 -130.5 -37t-95 -99t-56 -138.5t-19.5 -159.5
q0 -122 52.5 -197t152.5 -75z" />
    <glyph glyph-name="divide" unicode="&#xf7;" 
d="M762 1171q56 0 91.5 -34.5t35.5 -87.5q0 -73 -54.5 -127t-125.5 -54q-56 0 -91.5 35t-35.5 88q0 74 54 127t126 53zM1139 563h-969l31 176h966zM631 430q57 0 92 -35t35 -88q0 -73 -54 -126.5t-126 -53.5q-56 0 -91.5 35t-35.5 88q0 73 54.5 126.5t125.5 53.5z" />
    <glyph glyph-name="oslash" unicode="&#xf8;" horiz-adv-x="1308" 
d="M1337 1018l-151 -129q59 -109 59 -254q0 -103 -26 -199t-80 -181t-131.5 -148t-187.5 -99.5t-240 -36.5q-216 0 -353 105l-159 -137l-107 129l160 135q-60 108 -60 254q0 103 26 199t80.5 180.5t132 147.5t187.5 99.5t240 36.5q214 0 350 -102l154 129zM401 465v-23
l453 383q-55 74 -152 74q-73 0 -131.5 -37t-95 -99t-55.5 -138.5t-19 -159.5zM905 629l-2 20l-450 -383q54 -73 153 -73q95 0 165 65t102 161.5t32 209.5z" />
    <glyph glyph-name="ugrave" unicode="&#xf9;" horiz-adv-x="1282" 
d="M723 1171l-238 248h287l127 -248h-176zM1257 1092l-192 -1092h-320l29 162l-115 -121q-117 -70 -268 -70q-161 0 -245.5 76.5t-84.5 204.5q0 73 25 215l113 625h321l-102 -562q-21 -133 -21 -174q0 -164 162 -161q103 0 179.5 98t111.5 299l88 500h319z" />
    <glyph glyph-name="uacute" unicode="&#xfa;" horiz-adv-x="1282" 
d="M852 1171h-176l215 248h287zM1257 1092l-192 -1092h-320l29 162l-115 -121q-117 -70 -268 -70q-161 0 -245.5 76.5t-84.5 204.5q0 73 25 215l113 625h321l-102 -562q-21 -133 -21 -174q0 -164 162 -161q103 0 179.5 98t111.5 299l88 500h319z" />
    <glyph glyph-name="ucircumflex" unicode="&#xfb;" horiz-adv-x="1282" 
d="M717 1171h-191l174 248h258l86 -248h-192l-41 148zM1257 1092l-192 -1092h-320l29 162l-115 -121q-117 -70 -268 -70q-161 0 -245.5 76.5t-84.5 204.5q0 73 25 215l113 625h321l-102 -562q-21 -133 -21 -174q0 -164 162 -161q103 0 179.5 98t111.5 299l88 500h319z" />
    <glyph glyph-name="udieresis" unicode="&#xfc;" horiz-adv-x="1282" 
d="M586 1174q-60 0 -92.5 29t-32.5 83q0 70 47.5 114t107.5 44q57 0 90 -29.5t33 -83.5q0 -71 -46.5 -114t-106.5 -43zM967 1174q-59 0 -91 29t-32 83q0 70 47.5 114t107.5 44q57 0 90 -29.5t33 -83.5q0 -71 -47.5 -114t-107.5 -43zM1257 1092l-192 -1092h-320l29 162
l-115 -121q-117 -70 -268 -70q-161 0 -245.5 76.5t-84.5 204.5q0 73 25 215l113 625h321l-102 -562q-21 -133 -21 -174q0 -164 162 -161q103 0 179.5 98t111.5 299l88 500h319z" />
    <glyph glyph-name="yacute" unicode="&#xfd;" horiz-adv-x="1150" 
d="M745 1171h-176l215 248h287zM1274 1092l-617 -1092q-137 -242 -259 -336t-300 -94q-62 0 -137 10l35 211q46 -6 94 -6q132 0 205 141l12 23l-241 1143h358l102 -828l396 828h352z" />
    <glyph glyph-name="thorn" unicode="&#xfe;" horiz-adv-x="1359" 
d="M893 1120q202 0 313 -119.5t111 -330.5q0 -138 -41 -262t-119 -222.5t-204 -156.5t-283 -58q-69 0 -138.5 17.5t-103.5 46.5l-53 119l-99 -555h-321l340 1906h321l-102 -575l102 119q103 71 277 71zM649 193q146 0 240 128.5t94 317.5q0 128 -55.5 194t-159.5 66
q-118 0 -204 -82t-118 -258l-8 -49q-7 -49 -7.5 -95t14 -86.5t38.5 -70.5t66.5 -47.5t99.5 -17.5z" />
    <glyph glyph-name="ydieresis" unicode="&#xff;" horiz-adv-x="1150" 
d="M479 1174q-60 0 -92.5 29t-32.5 83q0 70 48 114t108 44q57 0 90 -29.5t33 -83.5q0 -71 -47 -114t-107 -43zM860 1174q-59 0 -91 29t-32 83q0 70 48 114t108 44q57 0 90 -29.5t33 -83.5q0 -71 -48 -114t-108 -43zM1274 1092l-617 -1092q-137 -242 -259 -336t-300 -94
q-62 0 -137 10l35 211q46 -6 94 -6q132 0 205 141l12 23l-241 1143h358l102 -828l396 828h352z" />
    <glyph glyph-name="Amacron" unicode="&#x100;" horiz-adv-x="1417" 
d="M1204 1554h-583l30 175h584zM934 399h-467l-199 -399h-344l750 1413h420l245 -1413h-348zM895 651l-68 471l-235 -471h303z" />
    <glyph glyph-name="amacron" unicode="&#x101;" horiz-adv-x="1163" 
d="M999 1204h-583l30 174h584zM682 1120q215 0 314.5 -79.5t99.5 -215.5q0 -59 -29 -223l-57 -326q-22 -126 -29 -276h-313l4 158l-68 -109q-109 -78 -274 -78q-133 0 -219 75t-86 216q0 201 197 313t538 93l2 12q10 62 10 106q0 50 -30 81.5t-93 31.5q-161 0 -203 -170
h-307q34 183 184.5 287t358.5 104zM711 397l14 84q-162 18 -264.5 -29.5t-102.5 -146.5q0 -56 34.5 -84t94.5 -28q72 0 139 54.5t85 145.5v4z" />
    <glyph glyph-name="Abreve" unicode="&#x102;" horiz-adv-x="1417" 
d="M903 1489q-70 0 -118 22t-69.5 58t-29 82.5t3.5 95.5h166q-16 -100 74 -100t114 100h164q-22 -126 -106 -192t-199 -66zM934 399h-467l-199 -399h-344l750 1413h420l245 -1413h-348zM895 651l-68 471l-235 -471h303z" />
    <glyph glyph-name="abreve" unicode="&#x103;" horiz-adv-x="1163" 
d="M698 1161q-71 0 -119.5 22t-69 59t-27.5 84t5 97h166q-15 -104 72 -104q90 0 117 104h166q-24 -130 -109 -196t-201 -66zM682 1120q215 0 314.5 -79.5t99.5 -215.5q0 -59 -29 -223l-57 -326q-22 -126 -29 -276h-313l4 158l-68 -109q-109 -78 -274 -78q-133 0 -219 75
t-86 216q0 201 197 313t538 93l2 12q10 62 10 106q0 50 -30 81.5t-93 31.5q-161 0 -203 -170h-307q34 183 184.5 287t358.5 104zM711 397l14 84q-162 18 -264.5 -29.5t-102.5 -146.5q0 -56 34.5 -84t94.5 -28q72 0 139 54.5t85 145.5v4z" />
    <glyph glyph-name="Aogonek" unicode="&#x104;" horiz-adv-x="1417" 
d="M1063 -190q0 -82 74 -82q53 0 100 32l-25 -127q-107 -90 -268 -90q-91 0 -143.5 38t-52.5 120q0 195 241 311l-55 387h-467l-199 -399h-344l750 1413h420l245 -1413h-127q-64 -4 -106.5 -65.5t-42.5 -124.5zM895 651l-68 471l-235 -471h303z" />
    <glyph glyph-name="aogonek" unicode="&#x105;" horiz-adv-x="1163" 
d="M682 1120q215 0 314.5 -79.5t99.5 -215.5q0 -59 -29 -223l-57 -326q-22 -126 -29 -276h-92q-64 -4 -107 -65.5t-43 -124.5q0 -82 74 -82q53 0 100 32l-24 -127q-107 -90 -268 -90q-91 0 -144 38t-53 120q0 96 62.5 176t181.5 137l4 144l-68 -109q-109 -78 -274 -78
q-133 0 -219 75t-86 216q0 201 197 313t538 93l2 12q10 62 10 106q0 50 -30 81.5t-93 31.5q-161 0 -203 -170h-307q34 183 184.5 287t358.5 104zM487 193q72 0 139 54.5t85 145.5v4l14 84q-162 18 -264.5 -29.5t-102.5 -146.5q0 -56 34.5 -84t94.5 -28z" />
    <glyph glyph-name="Cacute" unicode="&#x106;" horiz-adv-x="1546" 
d="M944 1442q143 0 254 -37t178.5 -103.5t99 -155t23.5 -194.5l-2 -20h-319v20q-3 129 -69.5 190.5t-197.5 61.5q-172 0 -293.5 -139t-144.5 -379h166l-172 -129q6 -178 80 -263t196 -85t209 69.5t135 198.5l9 21h319l-6 -21q-67 -243 -250.5 -374.5t-453.5 -131.5
q-268 0 -423.5 153.5t-154.5 430.5q-1 197 64 365t176.5 281.5t260.5 177t316 63.5z" />
    <glyph glyph-name="cacute" unicode="&#x107;" horiz-adv-x="1202" 
d="M799 1171h-176l215 248h286zM707 1114q235 0 352 -117.5t117 -314.5h-314q-1 105 -48.5 158t-133.5 53q-88 0 -156.5 -64t-103.5 -169t-35 -232q0 -113 48.5 -174t125.5 -61q88 0 152 49.5t98 144.5h319q-152 -416 -596 -416q-144 0 -251.5 47.5t-171.5 152.5t-64 259
q0 190 80.5 345t232.5 247t349 92z" />
    <glyph glyph-name="Cdotaccent" unicode="&#x10a;" horiz-adv-x="1546" 
d="M944 1442q143 0 254 -37t178.5 -103.5t99 -155t23.5 -194.5l-2 -20h-319v20q-3 129 -69.5 190.5t-197.5 61.5q-191 0 -317.5 -169.5t-126.5 -454.5q0 -189 75 -280t201 -91q122 0 209 69.5t135 198.5l9 21h319l-6 -21q-67 -243 -250.5 -374.5t-453.5 -131.5
q-247 0 -399.5 131t-174.5 371q-29 37 -29 88t29 101q22 233 137 412t291.5 273.5t384.5 94.5z" />
    <glyph glyph-name="cdotaccent" unicode="&#x10b;" horiz-adv-x="1202" 
d="M780 1513q69 0 109.5 -37t40.5 -100q0 -75 -51.5 -131.5t-141.5 -56.5q-69 0 -109 37.5t-40 101.5q0 74 51.5 130t140.5 56zM707 1114q235 0 352 -117.5t117 -314.5h-314q-1 105 -48.5 158t-133.5 53q-88 0 -156.5 -64t-103.5 -169t-35 -232q0 -113 48.5 -174t125.5 -61
q88 0 152 49.5t98 144.5h319q-152 -416 -596 -416q-144 0 -251.5 47.5t-171.5 152.5t-64 259q0 190 80.5 345t232.5 247t349 92z" />
    <glyph glyph-name="Ccaron" unicode="&#x10c;" horiz-adv-x="1546" 
d="M944 1442q143 0 254 -37t178.5 -103.5t99 -155t23.5 -194.5l-2 -20h-319v20q-3 129 -69.5 190.5t-197.5 61.5q-172 0 -293.5 -139t-144.5 -379h74l-80 -113q1 -186 76 -275t200 -89q122 0 209 69.5t135 198.5l9 21h319l-6 -21q-67 -243 -250.5 -374.5t-453.5 -131.5
q-239 0 -390.5 123t-181.5 350h-18l-86 242h106q26 227 141 400t289 264.5t379 91.5z" />
    <glyph glyph-name="ccaron" unicode="&#x10d;" horiz-adv-x="1202" 
d="M596 1171l-86 248h192l41 -141l95 141h190l-174 -248h-258zM559 193q88 0 152 49.5t98 144.5h319q-152 -416 -596 -416q-144 0 -251.5 47.5t-171.5 152.5t-64 259q0 190 80.5 345t232.5 247t349 92q235 0 352 -117.5t117 -314.5h-314q-1 105 -48.5 158t-133.5 53
q-88 0 -156.5 -64t-103.5 -169t-35 -232q0 -113 48.5 -174t125.5 -61z" />
    <glyph glyph-name="Dcaron" unicode="&#x10e;" horiz-adv-x="1503" 
d="M752 1505l-86 242h192l41 -139l92 139h193l-172 -242h-260zM977 1405q108 -12 197 -53.5t157 -112.5t106 -180.5t38 -247.5q0 -122 -28.5 -233.5t-89 -209.5t-146.5 -173.5t-208 -125t-268 -63.5q-74 -6 -182 -6h-494l250 1413h475q123 0 193 -8zM713 256
q106 12 188 60.5t132.5 123.5t76 167t25.5 196q0 167 -71 254t-198 100q-67 6 -137 6h-143l-162 -911h147q95 0 142 4z" />
    <glyph glyph-name="dcaron" unicode="&#x10f;" horiz-adv-x="1355" 
d="M1804 1507v-20l-231 -330h-172l178 350h225zM1405 1505l-266 -1505h-322l29 162l-103 -119q-104 -72 -276 -72q-203 0 -313.5 113.5t-110.5 321.5q0 140 41 266t118.5 227t203.5 161t282 60q69 0 138.5 -17t105.5 -44l53 -119l98 565h322zM911 532l11 52q13 60 5.5 116.5
t-28.5 101t-69.5 71t-118.5 26.5q-96 0 -172.5 -63.5t-116 -165t-39.5 -217.5q0 -127 55.5 -193.5t153.5 -66.5q117 0 202 81.5t117 255.5v2z" />
    <glyph glyph-name="Dcroat" unicode="&#x110;" horiz-adv-x="1503" 
d="M977 1405q108 -12 197 -53.5t157 -112.5t106 -180.5t38 -247.5q0 -122 -28.5 -233.5t-89 -209.5t-146.5 -173.5t-208 -125t-268 -63.5q-74 -6 -182 -6h-494l107 606h-139l30 176h142l110 631h475q123 0 193 -8zM713 256q106 12 188 60.5t132.5 123.5t76 167t25.5 196
q0 167 -71 254t-198 100q-67 6 -137 6h-143l-68 -381h217l-30 -176h-218l-63 -354h147q95 0 142 4z" />
    <glyph glyph-name="dcroat" unicode="&#x111;" horiz-adv-x="1357" 
d="M1432 1188h-82l-211 -1188h-322l29 162l-103 -119q-104 -72 -276 -72q-203 0 -313.5 113.5t-110.5 321.5q0 140 41 266t118.5 227t203.5 161t282 60q69 0 138.5 -17t105.5 -44l53 -119l43 248h-244l31 176h244l24 141h322l-25 -141h82zM911 532l11 52q13 60 5.5 116.5
t-28.5 101t-69.5 71t-118.5 26.5q-96 0 -172.5 -63.5t-116 -165t-39.5 -217.5q0 -127 55.5 -193.5t153.5 -66.5q117 0 202 81.5t117 255.5v2z" />
    <glyph glyph-name="Emacron" unicode="&#x112;" horiz-adv-x="1267" 
d="M1147 1554h-584l31 175h584zM584 1163l-58 -329h662l-45 -250h-662l-57 -332h727l-45 -252h-1047l250 1413h1026l-45 -250h-706z" />
    <glyph glyph-name="emacron" unicode="&#x113;" horiz-adv-x="1216" 
d="M1028 1204h-584l31 174h584zM371 463v-43q0 -227 184 -227q85 0 147.5 43t88.5 120h317q-64 -187 -215 -286t-363 -99q-103 0 -189 26t-153.5 79t-105 141t-37.5 203q0 198 80 357t228.5 251t340.5 92q232 0 354.5 -124t122.5 -316q0 -111 -36 -217h-764zM664 899
q-90 0 -155.5 -62.5t-100.5 -170.5h436q2 16 2 36q0 93 -46.5 145t-135.5 52z" />
    <glyph glyph-name="Edotaccent" unicode="&#x116;" horiz-adv-x="1267" 
d="M850 1487q-68 0 -106.5 36t-38.5 99q0 73 50 127.5t136 54.5q68 0 107.5 -36t39.5 -99q0 -72 -50.5 -127t-137.5 -55zM584 1163l-58 -329h662l-45 -250h-662l-57 -332h727l-45 -252h-1047l250 1413h1026l-45 -250h-706z" />
    <glyph glyph-name="edotaccent" unicode="&#x117;" horiz-adv-x="1216" 
d="M741 1188q-69 0 -109 37.5t-40 101.5q0 74 51.5 130t140.5 56q69 0 109.5 -37t40.5 -100q0 -75 -51.5 -131.5t-141.5 -56.5zM371 463v-43q0 -227 184 -227q85 0 147.5 43t88.5 120h317q-64 -187 -215 -286t-363 -99q-103 0 -189 26t-153.5 79t-105 141t-37.5 203
q0 198 80 357t228.5 251t340.5 92q232 0 354.5 -124t122.5 -316q0 -111 -36 -217h-764zM664 899q-90 0 -155.5 -62.5t-100.5 -170.5h436q2 16 2 36q0 93 -46.5 145t-135.5 52z" />
    <glyph glyph-name="Eogonek" unicode="&#x118;" horiz-adv-x="1267" 
d="M584 1163l-58 -329h662l-45 -250h-662l-57 -332h727l-45 -252h-76q-64 -4 -106.5 -65.5t-42.5 -124.5q0 -82 73 -82q54 0 101 32l-25 -127q-107 -90 -268 -90q-91 0 -144 38t-53 120q0 182 217 299h-723l250 1413h1026l-45 -250h-706z" />
    <glyph glyph-name="eogonek" unicode="&#x119;" horiz-adv-x="1216" 
d="M371 463v-43q0 -227 184 -227q85 0 147.5 43t88.5 120h317q-55 -159 -174 -255t-287 -121q-41 -27 -65.5 -76t-24.5 -94q0 -82 74 -82q53 0 100 32l-24 -127q-107 -90 -269 -90q-91 0 -143.5 38t-52.5 120q0 165 180 279q-83 13 -150 45t-118.5 85t-80 132t-28.5 178
q0 198 80 357t228.5 251t340.5 92q232 0 354.5 -124t122.5 -316q0 -111 -36 -217h-764zM664 899q-90 0 -155.5 -62.5t-100.5 -170.5h436q2 16 2 36q0 93 -46.5 145t-135.5 52z" />
    <glyph glyph-name="Ecaron" unicode="&#x11a;" horiz-adv-x="1267" 
d="M719 1505l-86 242h192l41 -139l92 139h193l-172 -242h-260zM584 1163l-58 -329h662l-45 -250h-662l-57 -332h727l-45 -252h-1047l250 1413h1026l-45 -250h-706z" />
    <glyph glyph-name="ecaron" unicode="&#x11b;" horiz-adv-x="1216" 
d="M602 1171l-86 248h193l41 -141l94 141h190l-174 -248h-258zM371 463v-43q0 -227 184 -227q85 0 147.5 43t88.5 120h317q-64 -187 -215 -286t-363 -99q-103 0 -189 26t-153.5 79t-105 141t-37.5 203q0 198 80 357t228.5 251t340.5 92q232 0 354.5 -124t122.5 -316
q0 -111 -36 -217h-764zM664 899q-90 0 -155.5 -62.5t-100.5 -170.5h436q2 16 2 36q0 93 -46.5 145t-135.5 52z" />
    <glyph glyph-name="Gbreve" unicode="&#x11e;" horiz-adv-x="1583" 
d="M1032 1489q-70 0 -118 22t-69.5 58t-29 82.5t3.5 95.5h166q-16 -100 74 -100q91 0 115 100h163q-22 -126 -106 -192t-199 -66zM979 1442q144 0 252.5 -37t172.5 -103.5t93 -155t21 -194.5l-2 -20h-322v20q-1 129 -66 190.5t-194 61.5q-93 0 -177.5 -42.5t-149 -120.5
t-102.5 -197t-38 -262q0 -185 78.5 -279t208.5 -94q124 0 218 71t146 205h-289l45 250h594l-131 -735h-254l15 221l-88 -145q-69 -55 -154 -80t-201 -25q-248 0 -389 151.5t-141 422.5q0 206 71 378t190 284t272 173.5t321 61.5z" />
    <glyph glyph-name="gbreve" unicode="&#x11f;" horiz-adv-x="1357" 
d="M807 1161q-71 0 -119.5 22t-69 59t-27.5 84t5 97h166q-15 -104 72 -104q89 0 116 104h166q-24 -130 -108.5 -196t-200.5 -66zM1333 1092l-145 -816q-24 -138 -39 -210q-56 -264 -221 -388t-469 -124q-237 0 -360.5 97t-110.5 279l2 21h313l-2 -19q-4 -66 51.5 -103.5
t155.5 -37.5q120 0 202 60t111 178q23 114 27 137l2 8l-107 -121q-106 -73 -276 -73q-202 0 -313 114.5t-111 311.5q0 140 41 266t118.5 227t203.5 161t282 60q69 0 138.5 -17t105.5 -44l53 -119l27 152h321zM592 203q57 0 105.5 17.5t91.5 54.5t74.5 102.5t47.5 154.5
l-2 -14l13 68v-2q13 60 5.5 116.5t-28.5 101t-69.5 71t-118.5 26.5q-96 0 -172.5 -63.5t-116 -165t-39.5 -217.5q0 -126 54.5 -188t154.5 -62z" />
    <glyph glyph-name="Gdotaccent" unicode="&#x120;" horiz-adv-x="1583" 
d="M1038 1487q-68 0 -106.5 36t-38.5 99q0 73 50 127.5t136 54.5q68 0 108 -36t40 -99q0 -72 -51 -127t-138 -55zM979 1442q144 0 252.5 -37t172.5 -103.5t93 -155t21 -194.5l-2 -20h-322v20q-1 129 -66 190.5t-194 61.5q-93 0 -177.5 -42.5t-149 -120.5t-102.5 -197
t-38 -262q0 -185 78.5 -279t208.5 -94q124 0 218 71t146 205h-289l45 250h594l-131 -735h-254l15 221l-88 -145q-69 -55 -154 -80t-201 -25q-248 0 -389 151.5t-141 422.5q0 206 71 378t190 284t272 173.5t321 61.5z" />
    <glyph glyph-name="gdotaccent" unicode="&#x121;" horiz-adv-x="1357" 
d="M823 1188q-69 0 -109 37.5t-40 101.5q0 74 51.5 130t140.5 56q69 0 109.5 -37t40.5 -100q0 -75 -51.5 -131.5t-141.5 -56.5zM1333 1092l-145 -816q-24 -138 -39 -210q-56 -264 -221 -388t-469 -124q-237 0 -360.5 97t-110.5 279l2 21h313l-2 -19q-4 -66 51.5 -103.5
t155.5 -37.5q120 0 202 60t111 178q23 114 27 137l2 8l-107 -121q-106 -73 -276 -73q-202 0 -313 114.5t-111 311.5q0 140 41 266t118.5 227t203.5 161t282 60q69 0 138.5 -17t105.5 -44l53 -119l27 152h321zM592 203q57 0 105.5 17.5t91.5 54.5t74.5 102.5t47.5 154.5
l-2 -14l13 68v-2q13 60 5.5 116.5t-28.5 101t-69.5 71t-118.5 26.5q-96 0 -172.5 -63.5t-116 -165t-39.5 -217.5q0 -126 54.5 -188t154.5 -62z" />
    <glyph glyph-name="Gcommaaccent" unicode="&#x122;" horiz-adv-x="1583" 
d="M979 1442q144 0 252.5 -37t172.5 -103.5t93 -155t21 -194.5l-2 -20h-322v20q-1 129 -66 190.5t-194 61.5q-93 0 -177.5 -42.5t-149 -120.5t-102.5 -197t-38 -262q0 -185 78.5 -279t208.5 -94q124 0 218 71t146 205h-289l45 250h594l-131 -735h-254l15 221l-88 -145
q-69 -55 -154 -80t-201 -25q-248 0 -389 151.5t-141 422.5q0 206 71 378t190 284t272 173.5t321 61.5zM565 -84h226v-18l-232 -330h-172z" />
    <glyph glyph-name="gcommaaccent" unicode="&#x123;" horiz-adv-x="1357" 
d="M901 1169h-227v19l233 330h172zM1333 1092l-145 -816q-24 -138 -39 -210q-56 -264 -221 -388t-469 -124q-237 0 -360.5 97t-110.5 279l2 21h313l-2 -19q-4 -66 51.5 -103.5t155.5 -37.5q120 0 202 60t111 178q23 114 27 137l2 8l-107 -121q-106 -73 -276 -73
q-202 0 -313 114.5t-111 311.5q0 140 41 266t118.5 227t203.5 161t282 60q69 0 138.5 -17t105.5 -44l53 -119l27 152h321zM592 203q57 0 105.5 17.5t91.5 54.5t74.5 102.5t47.5 154.5l-2 -14l13 68v-2q13 60 5.5 116.5t-28.5 101t-69.5 71t-118.5 26.5q-96 0 -172.5 -63.5
t-116 -165t-39.5 -217.5q0 -126 54.5 -188t154.5 -62z" />
    <glyph glyph-name="Hbar" unicode="&#x126;" horiz-adv-x="1542" 
d="M1575 997h-82l-176 -997h-320l101 567h-619l-100 -567h-322l176 997h-79l30 177h80l43 239h322l-43 -239h618l43 239h320l-43 -239h82zM1174 997h-619l-31 -178h619z" />
    <glyph glyph-name="hbar" unicode="&#x127;" horiz-adv-x="1320" 
d="M922 1120q162 0 245.5 -76t83.5 -204q0 -80 -24 -213l-113 -627h-319l100 561q20 111 20 174q0 164 -161 164q-102 -2 -178 -100t-113 -299l-86 -500h-322l209 1188h-110l30 176h111l27 152h321l-27 -152h213l-30 -176h-213l-47 -258l114 121q118 69 269 69z" />
    <glyph glyph-name="Imacron" unicode="&#x12a;" horiz-adv-x="604" 
d="M786 1554h-583l30 175h584zM379 0h-320l250 1413h320z" />
    <glyph glyph-name="imacron" unicode="&#x12b;" horiz-adv-x="565" 
d="M696 1204h-583l30 174h584zM348 0h-321l194 1092h320z" />
    <glyph glyph-name="Iogonek" unicode="&#x12e;" horiz-adv-x="604" 
d="M379 0h-100q-64 -4 -107 -65.5t-43 -124.5q0 -82 74 -82q53 0 100 32l-24 -127q-107 -90 -269 -90q-91 0 -143.5 38t-52.5 120q0 198 245 313h2l248 1399h320z" />
    <glyph glyph-name="iogonek" unicode="&#x12f;" horiz-adv-x="565" 
d="M455 1513q69 0 109 -37t40 -100q0 -75 -51 -131.5t-141 -56.5q-69 0 -109.5 37.5t-40.5 101.5q0 74 52 130t141 56zM221 1092h320l-193 -1092h-100q-64 -4 -107 -65.5t-43 -124.5q0 -82 74 -82q53 0 100 32l-24 -127q-107 -90 -268 -90q-91 0 -144 38t-53 120
q0 198 246 313z" />
    <glyph glyph-name="Idotaccent" unicode="&#x130;" horiz-adv-x="604" 
d="M532 1804q68 0 108 -36t40 -99q0 -72 -50.5 -127t-137.5 -55q-68 0 -107 36t-39 99q0 73 50 127.5t136 54.5zM379 0h-320l250 1413h320z" />
    <glyph glyph-name="dotlessi" unicode="&#x131;" horiz-adv-x="565" 
d="M348 0h-321l194 1092h320z" />
    <glyph glyph-name="IJ" unicode="&#x132;" horiz-adv-x="1849" 
d="M379 0h-320l250 1413h320zM1858 1413l-144 -819q-17 -101 -41 -203q-97 -420 -590 -420q-240 0 -355.5 131.5t-82.5 356.5l8 67h322l-8 -67q-14 -134 29 -192t139 -58q168 0 223 201q13 50 31 143l149 860h320z" />
    <glyph glyph-name="ij" unicode="&#x133;" horiz-adv-x="1083" 
d="M455 1513q69 0 109 -37t40 -100q0 -75 -51 -131.5t-141 -56.5q-69 0 -109.5 37.5t-40.5 101.5q0 74 52 130t141 56zM971 1513q77 0 119.5 -36.5t42.5 -98.5q0 -93 -49.5 -141.5t-139.5 -48.5q-77 0 -119.5 36.5t-42.5 98.5q0 93 49.5 141.5t139.5 48.5zM348 0h-321
l194 1092h320zM1073 1092l-192 -1090q-7 -53 -29 -133q-35 -146 -142.5 -222.5t-310.5 -76.5q-63 0 -112 6l39 223q94 -10 143.5 13t69.5 88q13 48 22 102l191 1090h321z" />
    <glyph glyph-name="Kcommaaccent" unicode="&#x136;" horiz-adv-x="1421" 
d="M823 725l496 -725h-395l-346 563l-119 -108l-80 -455h-320l250 1413h320l-115 -643l692 643h383zM514 -84h225v-18l-231 -330h-172z" />
    <glyph glyph-name="kcommaaccent" unicode="&#x137;" horiz-adv-x="1249" 
d="M772 582l406 -582h-390l-268 428l-114 -100l-58 -328h-321l266 1505h321l-157 -889l497 476h381zM438 -84h226v-18l-232 -330h-172z" />
    <glyph glyph-name="Lacute" unicode="&#x139;" horiz-adv-x="1243" 
d="M561 1505h-176l209 242h287zM1155 270l-49 -270h-1047l250 1413h320l-203 -1143h729z" />
    <glyph glyph-name="lacute" unicode="&#x13a;" horiz-adv-x="598" 
d="M522 1595h-176l215 248h287zM606 1505l-200 -1132q-15 -71 -15 -109q0 -44 24 -57t87 -10l-37 -203q-80 -12 -178 -12q-119 0 -175.5 37t-56.5 122q0 70 27 226l205 1138h319z" />
    <glyph glyph-name="Lcommaaccent" unicode="&#x13b;" horiz-adv-x="1243" 
d="M1155 270l-49 -270h-1047l250 1413h320l-203 -1143h729zM473 -84h225v-18l-231 -330h-172z" />
    <glyph glyph-name="lcommaaccent" unicode="&#x13c;" horiz-adv-x="598" 
d="M606 1505l-200 -1132q-15 -71 -15 -109q0 -44 24 -57t87 -10l-37 -203q-80 -12 -178 -12q-119 0 -175.5 37t-56.5 122q0 70 27 226l205 1138h319zM340 -102l-231 -330h-175l181 348h225v-18z" />
    <glyph glyph-name="Lcaron" unicode="&#x13d;" horiz-adv-x="1243" 
d="M1155 270l-49 -270h-1047l250 1413h320l-203 -1143h729z" />
    <glyph glyph-name="lcaron" unicode="&#x13e;" horiz-adv-x="598" 
d="M606 1505l-200 -1132q-15 -71 -15 -109q0 -44 24 -57t87 -10l-37 -203q-80 -12 -178 -12q-119 0 -175.5 37t-56.5 122q0 70 27 226l205 1138h319z" />
    <glyph glyph-name="Ldot" unicode="&#x13f;" horiz-adv-x="1243" 
d="M1155 270l-49 -270h-1047l250 1413h320l-203 -1143h729zM858 655q-66 0 -105.5 38t-39.5 102q0 80 57.5 134t147.5 54q66 0 105.5 -37.5t39.5 -101.5q0 -80 -57.5 -134.5t-147.5 -54.5z" />
    <glyph glyph-name="ldot" unicode="&#x140;" horiz-adv-x="905" 
d="M606 1505l-200 -1132q-15 -71 -15 -109q0 -44 24 -57t87 -10l-37 -203q-80 -12 -178 -12q-119 0 -175.5 37t-56.5 122q0 70 27 226l205 1138h319zM793 1004q67 0 110 -37.5t43 -104.5q0 -99 -60.5 -160t-156.5 -61q-66 0 -110 37.5t-44 103.5q0 99 61 160.5t157 61.5z
" />
    <glyph glyph-name="Lslash" unicode="&#x141;" horiz-adv-x="1327" 
d="M1239 270l-47 -270h-1049l103 580l-209 -105l37 209l209 104l110 625h322l-80 -450l223 110l-37 -209l-223 -110l-86 -484h727z" />
    <glyph glyph-name="lslash" unicode="&#x142;" horiz-adv-x="665" 
d="M504 653l-51 -280q-15 -88 -15 -109q0 -44 24.5 -57t88.5 -10l-37 -203q-80 -12 -180 -12q-118 0 -175 37.5t-57 121.5q0 58 29 226l14 86l-139 -80l37 217l141 80l150 835h321l-112 -633l135 76l-39 -217z" />
    <glyph glyph-name="Nacute" unicode="&#x143;" horiz-adv-x="1574" 
d="M1055 1505h-176l208 242h287zM1599 1413l-249 -1413h-428l-365 1012l-178 -1012h-320l250 1413h412l375 -1042l182 1042h321z" />
    <glyph glyph-name="nacute" unicode="&#x144;" horiz-adv-x="1292" 
d="M836 1171h-177l215 248h287zM893 1120q162 0 246 -76t84 -204q0 -74 -25 -213l-113 -627h-319l100 561q21 136 21 174q0 164 -162 164q-103 -2 -178.5 -99.5t-112.5 -299.5l-86 -500h-321l192 1092h320l-29 -162l115 121q115 69 268 69z" />
    <glyph glyph-name="Ncommaaccent" unicode="&#x145;" horiz-adv-x="1574" 
d="M1599 1413l-249 -1413h-428l-365 1012l-178 -1012h-320l250 1413h412l375 -1042l182 1042h321zM610 -84h226v-18l-232 -330h-172z" />
    <glyph glyph-name="ncommaaccent" unicode="&#x146;" horiz-adv-x="1292" 
d="M893 1120q162 0 246 -76t84 -204q0 -74 -25 -213l-113 -627h-319l100 561q21 136 21 174q0 164 -162 164q-103 -2 -178.5 -99.5t-112.5 -299.5l-86 -500h-321l192 1092h320l-29 -162l115 121q115 69 268 69zM449 -84h225v-18l-232 -330h-172z" />
    <glyph glyph-name="Ncaron" unicode="&#x147;" horiz-adv-x="1574" 
d="M850 1505l-86 242h192l41 -139l93 139h192l-172 -242h-260zM1599 1413l-249 -1413h-428l-365 1012l-178 -1012h-320l250 1413h412l375 -1042l182 1042h321z" />
    <glyph glyph-name="ncaron" unicode="&#x148;" horiz-adv-x="1292" 
d="M633 1171l-86 248h192l41 -141l94 141h191l-174 -248h-258zM893 1120q162 0 246 -76t84 -204q0 -74 -25 -213l-113 -627h-319l100 561q21 136 21 174q0 164 -162 164q-103 -2 -178.5 -99.5t-112.5 -299.5l-86 -500h-321l192 1092h320l-29 -162l115 121q115 69 268 69z
" />
    <glyph glyph-name="Eng" unicode="&#x14a;" horiz-adv-x="1574" 
d="M1599 1413l-270 -1536q-12 -69 -26.5 -115.5t-41 -86.5t-62 -63t-92.5 -39.5t-130.5 -23t-177.5 -6.5l41 238q88 7 125.5 36.5t48.5 88.5l8 47l-471 1055l-170 -1008h-320l248 1413h412l397 -958l160 958h321z" />
    <glyph glyph-name="eng" unicode="&#x14b;" horiz-adv-x="1292" 
d="M893 1120q162 0 246 -76t84 -204q0 -74 -25 -213l-119 -664q-11 -57 -24 -96q-51 -134 -157.5 -178.5t-344.5 -44.5l41 237q86 0 121.5 23t46.5 78l104 579q21 136 21 174q0 164 -162 164q-103 -2 -178.5 -99.5t-112.5 -299.5l-86 -500h-321l192 1092h320l-29 -162
l115 121q115 69 268 69z" />
    <glyph glyph-name="Omacron" unicode="&#x14c;" horiz-adv-x="1624" 
d="M1309 1554h-584l31 175h583zM946 1442q153 0 277 -47t205 -130t124 -194.5t43 -241.5q0 -249 -103 -444.5t-288.5 -304.5t-423.5 -109q-153 0 -277 47t-205 130t-124 194.5t-43 241.5q0 250 103 445.5t288.5 304t423.5 108.5zM799 209q89 0 165.5 37t129 98t89.5 141
t54.5 165t17.5 171q0 174 -85.5 278.5t-241.5 104.5q-90 0 -166.5 -37t-129 -98t-89.5 -141t-54.5 -165t-17.5 -171q0 -173 86 -278t242 -105z" />
    <glyph glyph-name="omacron" unicode="&#x14d;" horiz-adv-x="1282" 
d="M1051 1204h-584l31 174h583zM717 1120q252 0 385 -133.5t133 -351.5q0 -103 -26 -199t-80.5 -180.5t-132 -148t-187.5 -100t-240 -36.5q-253 0 -386.5 134t-133.5 352q0 103 26 199t80.5 180.5t132 147.5t188 99.5t241.5 36.5zM594 193q73 0 131.5 37.5t95 99.5t55.5 139
t19 160q0 122 -51.5 196t-153.5 74q-72 0 -130.5 -37t-95 -99t-56 -138.5t-19.5 -159.5q0 -122 52.5 -197t152.5 -75z" />
    <glyph glyph-name="Ohungarumlaut" unicode="&#x150;" horiz-adv-x="1624" 
d="M852 1507h-176l211 240h287zM1057 1507l209 240h286l-319 -240h-176zM946 1442q153 0 277 -47t205 -130t124 -194.5t43 -241.5q0 -249 -103 -444.5t-288.5 -304.5t-423.5 -109q-153 0 -277 47t-205 130t-124 194.5t-43 241.5q0 250 103 445.5t288.5 304t423.5 108.5z
M799 209q89 0 165.5 37t129 98t89.5 141t54.5 165t17.5 171q0 174 -85.5 278.5t-241.5 104.5q-90 0 -166.5 -37t-129 -98t-89.5 -141t-54.5 -165t-17.5 -171q0 -173 86 -278t242 -105z" />
    <glyph glyph-name="ohungarumlaut" unicode="&#x151;" horiz-adv-x="1282" 
d="M602 1171h-176l215 248h287zM813 1171l215 248h287l-326 -248h-176zM717 1120q252 0 385 -133.5t133 -351.5q0 -103 -26 -199t-80.5 -180.5t-132 -148t-187.5 -100t-240 -36.5q-253 0 -386.5 134t-133.5 352q0 103 26 199t80.5 180.5t132 147.5t188 99.5t241.5 36.5z
M594 193q73 0 131.5 37.5t95 99.5t55.5 139t19 160q0 122 -51.5 196t-153.5 74q-72 0 -130.5 -37t-95 -99t-56 -138.5t-19.5 -159.5q0 -122 52.5 -197t152.5 -75z" />
    <glyph glyph-name="OE" unicode="&#x152;" horiz-adv-x="2330" 
d="M1647 1163l-58 -329h660l-43 -250h-662l-57 -332h727l-45 -252h-1049l41 227l-86 -137q-91 -68 -178 -93.5t-225 -25.5q-121 0 -220.5 37.5t-172.5 110t-113.5 186.5t-40.5 260q0 127 31 250.5t96.5 237t158.5 200t227.5 138t291.5 51.5q140 0 218 -25t144 -92l39 -137
l39 225h1028l-45 -250h-706zM780 209q175 0 298.5 132.5t166.5 365.5q13 78 13.5 147t-15.5 134.5t-49.5 112.5t-94 75t-143.5 28q-101 0 -185 -38t-140 -100.5t-95.5 -144.5t-57 -168t-17.5 -173q0 -188 84 -279.5t235 -91.5z" />
    <glyph glyph-name="oe" unicode="&#x153;" horiz-adv-x="2035" 
d="M1954 463h-766q-2 -23 -2 -49q0 -221 182 -221q86 0 149 43t89 120h317q-76 -187 -229.5 -286t-360.5 -99q-262 0 -356 203q-163 -203 -442 -203q-233 0 -361.5 123t-128.5 338q0 91 23.5 183t76 182.5t129 160.5t192.5 113t255 43q289 0 389 -207q170 207 451 207
q209 0 319.5 -121t110.5 -311q0 -118 -37 -219zM573 193q83 0 147.5 47t100.5 120t54 150t18 149q0 107 -51.5 170.5t-143.5 63.5q-84 0 -148.5 -44t-100 -114.5t-53 -145.5t-17.5 -149q0 -114 51 -180.5t143 -66.5zM1495 893q-187 0 -260 -227h428q4 18 4 39
q0 93 -44.5 140.5t-127.5 47.5z" />
    <glyph glyph-name="Racute" unicode="&#x154;" horiz-adv-x="1341" 
d="M897 1505h-176l209 242h287zM1374 1096q0 -164 -94 -270t-268 -150q92 -35 129 -129.5t37 -284.5q0 -169 43 -262h-349q-13 97 -16 332q0 212 -137 221q-39 2 -113 2h-129l-98 -555h-320l250 1413h537q121 0 211 -10q92 -10 161 -44t112.5 -101t43.5 -162zM797 793
q100 8 163.5 61t63.5 162q0 129 -152 143q-58 4 -108 4h-180l-66 -372h170q78 0 109 2z" />
    <glyph glyph-name="racute" unicode="&#x155;" horiz-adv-x="804" 
d="M600 1171h-176l215 248h287zM502 881l112 153q46 41 103.5 63.5t109.5 22.5q30 0 80 -8l-45 -260q-59 3 -113 0t-104 -28t-91 -68t-74 -119t-52 -180l-80 -457h-321l190 1085h322z" />
    <glyph glyph-name="Rcommaaccent" unicode="&#x156;" horiz-adv-x="1341" 
d="M1374 1096q0 -164 -94 -270t-268 -150q92 -35 129 -129.5t37 -284.5q0 -169 43 -262h-349q-13 97 -16 332q0 212 -137 221q-39 2 -113 2h-129l-98 -555h-320l250 1413h537q121 0 211 -10q92 -10 161 -44t112.5 -101t43.5 -162zM797 793q100 8 163.5 61t63.5 162
q0 129 -152 143q-58 4 -108 4h-180l-66 -372h170q78 0 109 2zM449 -84h225v-18l-232 -330h-172z" />
    <glyph glyph-name="rcommaaccent" unicode="&#x157;" horiz-adv-x="804" 
d="M827 1120q30 0 80 -8l-45 -260q-59 3 -113 0t-104 -28t-91 -68t-74 -119t-52 -180l-80 -457h-321l190 1085h322l-37 -204l112 153q46 41 103.5 63.5t109.5 22.5zM84 -84h225v-18l-231 -330h-174z" />
    <glyph glyph-name="Rcaron" unicode="&#x158;" horiz-adv-x="1341" 
d="M694 1505l-86 242h193l41 -139l92 139h192l-172 -242h-260zM1374 1096q0 -164 -94 -270t-268 -150q92 -35 129 -129.5t37 -284.5q0 -169 43 -262h-349q-13 97 -16 332q0 212 -137 221q-39 2 -113 2h-129l-98 -555h-320l250 1413h537q121 0 211 -10q92 -10 161 -44
t112.5 -101t43.5 -162zM797 793q100 8 163.5 61t63.5 162q0 129 -152 143q-58 4 -108 4h-180l-66 -372h170q78 0 109 2z" />
    <glyph glyph-name="rcaron" unicode="&#x159;" horiz-adv-x="804" 
d="M397 1171l-86 248h193l41 -141l94 141h190l-174 -248h-258zM827 1120q30 0 80 -8l-45 -260q-59 3 -113 0t-104 -28t-91 -68t-74 -119t-52 -180l-80 -457h-321l190 1085h322l-37 -204l112 153q46 41 103.5 63.5t109.5 22.5z" />
    <glyph glyph-name="Sacute" unicode="&#x15a;" horiz-adv-x="1253" 
d="M850 1505h-176l209 242h286zM768 1442q129 0 224.5 -34.5t151.5 -96.5t81 -143t20 -179h-323q6 101 -42 158t-147 57q-89 0 -145 -46.5t-56 -131.5q0 -66 61 -109.5t206 -78.5q375 -92 375 -381q0 -92 -33 -171t-91 -136.5t-136.5 -98t-170 -60.5t-190.5 -20
q-125 0 -224.5 28.5t-169.5 83.5t-103.5 142t-22.5 199h323q1 -104 66.5 -159.5t167.5 -55.5q101 0 169 51t68 135q0 129 -227 189q-208 53 -311 137t-103 233q0 150 83 263t214 169t285 56z" />
    <glyph glyph-name="sacute" unicode="&#x15b;" horiz-adv-x="1021" 
d="M692 1171h-176l215 248h287zM563 1114q214 0 320 -93.5t114 -252.5h-315q-16 141 -131 141q-58 0 -89.5 -28.5t-31.5 -71.5q0 -58 44 -91t171 -75q162 -53 234.5 -129.5t72.5 -200.5q0 -165 -135.5 -259.5t-357.5 -94.5q-225 0 -350 96.5t-134 268.5h320q7 -82 54.5 -120
t121.5 -38q65 0 105 30t40 85t-49.5 93t-183.5 83q-72 25 -120.5 49.5t-89 60.5t-60 85.5t-19.5 115.5q0 147 123.5 246.5t345.5 99.5z" />
    <glyph glyph-name="Scedilla" unicode="&#x15e;" horiz-adv-x="1253" 
d="M1245 989h-323q6 101 -42 158t-147 57q-89 0 -145 -46.5t-56 -131.5q0 -66 61 -109.5t206 -78.5q375 -92 375 -381q0 -109 -45.5 -199t-124.5 -149.5t-181 -94.5t-219 -41l-39 -59q162 -24 162 -143q0 -99 -87.5 -150t-221.5 -51q-111 0 -160 14l25 127q46 -14 112 -14
q64 0 99.5 18.5t35.5 51.5q0 37 -50.5 51t-135.5 6l102 153q-208 23 -319.5 136.5t-93.5 310.5h323q1 -104 66.5 -159.5t167.5 -55.5q101 0 169 51t68 135q0 129 -227 189q-208 53 -311 137t-103 233q0 150 83 263t214 169t285 56q129 0 224.5 -34.5t151.5 -96.5t81 -143
t20 -179z" />
    <glyph glyph-name="scedilla" unicode="&#x15f;" horiz-adv-x="1021" 
d="M645 643q162 -53 234.5 -129.5t72.5 -200.5q0 -163 -132.5 -257t-350.5 -97l-31 -45q164 -24 164 -143q0 -99 -87.5 -150t-221.5 -51q-111 0 -160 14l25 127q45 -14 112 -14q64 0 100 19t36 51q0 37 -51 51t-136 6l98 147q-160 27 -247 119t-95 234h320q7 -82 54.5 -120
t121.5 -38q65 0 105 30t40 85t-49.5 93t-183.5 83q-72 25 -120.5 49.5t-89 60.5t-60 85.5t-19.5 115.5q0 147 123.5 246.5t345.5 99.5q214 0 320 -93.5t114 -252.5h-315q-16 141 -131 141q-58 0 -89.5 -28.5t-31.5 -71.5q0 -58 44 -91t171 -75z" />
    <glyph glyph-name="Scaron" unicode="&#x160;" horiz-adv-x="1253" 
d="M647 1505l-86 242h193l41 -139l92 139h192l-172 -242h-260zM1245 989h-323q6 101 -42 158t-147 57q-89 0 -145 -46.5t-56 -131.5q0 -66 61 -109.5t206 -78.5q375 -92 375 -381q0 -92 -33 -171t-91 -136.5t-136.5 -98t-170 -60.5t-190.5 -20q-125 0 -224.5 28.5
t-169.5 83.5t-103.5 142t-22.5 199h323q1 -104 66.5 -159.5t167.5 -55.5q101 0 169 51t68 135q0 129 -227 189q-208 53 -311 137t-103 233q0 150 83 263t214 169t285 56q129 0 224.5 -34.5t151.5 -96.5t81 -143t20 -179z" />
    <glyph glyph-name="scaron" unicode="&#x161;" horiz-adv-x="1021" 
d="M489 1171l-86 248h193l41 -141l94 141h191l-174 -248h-259zM645 643q162 -53 234.5 -129.5t72.5 -200.5q0 -165 -135.5 -259.5t-357.5 -94.5q-225 0 -350 96.5t-134 268.5h320q7 -82 54.5 -120t121.5 -38q65 0 105 30t40 85t-49.5 93t-183.5 83q-72 25 -120.5 49.5
t-89 60.5t-60 85.5t-19.5 115.5q0 147 123.5 246.5t345.5 99.5q214 0 320 -93.5t114 -252.5h-315q-16 141 -131 141q-58 0 -89.5 -28.5t-31.5 -71.5q0 -58 44 -91t171 -75z" />
    <glyph glyph-name="Tcedilla" unicode="&#x162;" horiz-adv-x="1284" 
d="M657 0l-59 -86q164 -24 164 -143q0 -99 -87.5 -150t-221.5 -51q-111 0 -160 14l24 127q45 -14 113 -14q64 0 99.5 18.5t35.5 51.5q0 37 -50.5 51t-135.5 6l117 176h-82l204 1163h-471l46 250h1261l-47 -250h-469l-205 -1163h-76z" />
    <glyph glyph-name="tcedilla" unicode="&#x163;" horiz-adv-x="761" 
d="M551 879l-82 -459q-14 -69 -14 -123q0 -66 46.5 -86t153.5 -6l-37 -207q-116 -25 -225 -25l-41 -59q164 -24 164 -143q0 -99 -87.5 -150t-221.5 -51q-111 0 -160 14l25 127q45 -14 112 -14q64 0 99.5 18.5t35.5 51.5q0 37 -50.5 51t-135.5 6l111 168q-127 41 -127 180
q0 68 22 205l88 502h-157l36 204h158l49 275h322l-49 -275h225l-37 -204h-223z" />
    <glyph glyph-name="Tcaron" unicode="&#x164;" horiz-adv-x="1284" 
d="M713 1505l-86 242h192l41 -139l92 139h193l-172 -242h-260zM1407 1163h-469l-205 -1163h-319l204 1163h-471l46 250h1261z" />
    <glyph glyph-name="tcaron" unicode="&#x165;" horiz-adv-x="761" 
d="M1079 1528v-19l-233 -329h-172l178 348h227zM586 1083h225l-37 -204h-223l-82 -459q-14 -69 -14 -123q0 -66 46.5 -86t153.5 -6l-37 -207q-116 -25 -225 -25q-147 0 -211.5 48.5t-64.5 150.5q0 68 22 205l88 502h-157l36 204h158l49 275h322z" />
    <glyph glyph-name="Tbar" unicode="&#x166;" horiz-adv-x="1341" 
d="M938 1163l-66 -381h205l-30 -176h-207l-107 -606h-319l106 606h-186l33 176h186l65 381h-471l46 250h1261l-47 -250h-469z" />
    <glyph glyph-name="tbar" unicode="&#x167;" horiz-adv-x="761" 
d="M551 879l-33 -179h146l-31 -174h-146l-18 -106q-14 -69 -14 -123q0 -66 46.5 -86t153.5 -6l-37 -207q-116 -25 -225 -25q-147 0 -211.5 48.5t-64.5 150.5q0 68 22 205l27 149h-117l31 174h117l30 179h-157l36 204h158l49 275h322l-49 -275h225l-37 -204h-223z" />
    <glyph glyph-name="Umacron" unicode="&#x16a;" horiz-adv-x="1454" 
d="M1227 1554h-584l31 175h583zM1511 1413l-137 -786q-18 -101 -41 -197q-26 -107 -72.5 -188t-122.5 -143.5t-190 -95t-264 -32.5q-268 0 -405.5 111.5t-137.5 298.5q0 90 31 264l135 768h320l-152 -860q-14 -80 -14 -133q0 -99 68.5 -155t179.5 -56q127 0 202 56t109 190
q3 10 20 94l152 864h319z" />
    <glyph glyph-name="umacron" unicode="&#x16b;" horiz-adv-x="1282" 
d="M1075 1204h-583l30 174h584zM1257 1092l-192 -1092h-320l29 162l-115 -121q-117 -70 -268 -70q-161 0 -245.5 76.5t-84.5 204.5q0 73 25 215l113 625h321l-102 -562q-21 -133 -21 -174q0 -164 162 -161q103 0 179.5 98t111.5 299l88 500h319z" />
    <glyph glyph-name="Uring" unicode="&#x16e;" horiz-adv-x="1454" 
d="M987 1880q89 0 146 -50.5t57 -125.5q0 -102 -74 -164.5t-190 -62.5q-91 0 -147 49.5t-56 124.5q0 102 74 165.5t190 63.5zM971 1759q-38 0 -65 -28t-27 -72q0 -28 17 -46t46 -18q38 0 65 29t27 72q0 28 -17 45.5t-46 17.5zM1511 1413l-137 -786q-18 -101 -41 -197
q-26 -107 -72.5 -188t-122.5 -143.5t-190 -95t-264 -32.5q-268 0 -405.5 111.5t-137.5 298.5q0 90 31 264l135 768h320l-152 -860q-14 -80 -14 -133q0 -99 68.5 -155t179.5 -56q127 0 202 56t109 190q3 10 20 94l152 864h319z" />
    <glyph glyph-name="uring" unicode="&#x16f;" horiz-adv-x="1282" 
d="M780 1161q-94 0 -148 46.5t-54 129.5q0 103 74 170.5t194 67.5q91 0 144.5 -46.5t53.5 -129.5q0 -104 -73.5 -171t-190.5 -67zM825 1456q-45 0 -68.5 -35t-23.5 -75q0 -31 17.5 -48.5t46.5 -17.5q45 0 68.5 34.5t23.5 76.5q0 31 -17.5 48t-46.5 17zM1257 1092l-192 -1092
h-320l29 162l-115 -121q-117 -70 -268 -70q-161 0 -245.5 76.5t-84.5 204.5q0 73 25 215l113 625h321l-102 -562q-21 -133 -21 -174q0 -164 162 -161q103 0 179.5 98t111.5 299l88 500h319z" />
    <glyph glyph-name="Uhungarumlaut" unicode="&#x170;" horiz-adv-x="1454" 
d="M768 1507h-176l211 240h287zM1149 1507h-176l209 240h286zM1511 1413l-137 -786q-18 -101 -41 -197q-26 -107 -72.5 -188t-122.5 -143.5t-190 -95t-264 -32.5q-268 0 -405.5 111.5t-137.5 298.5q0 90 31 264l135 768h320l-152 -860q-14 -80 -14 -133q0 -99 68.5 -155
t179.5 -56q127 0 202 56t109 190q3 10 20 94l152 864h319z" />
    <glyph glyph-name="uhungarumlaut" unicode="&#x171;" horiz-adv-x="1282" 
d="M627 1171h-176l215 248h286zM838 1171l215 248h286l-325 -248h-176zM938 1092h319l-192 -1092h-320l29 162l-115 -121q-117 -70 -268 -70q-161 0 -245.5 76.5t-84.5 204.5q0 73 25 215l113 625h321l-102 -562q-21 -133 -21 -174q0 -164 162 -161q103 0 179.5 98
t111.5 299z" />
    <glyph glyph-name="Uogonek" unicode="&#x172;" horiz-adv-x="1454" 
d="M1511 1413l-137 -786q-18 -101 -41 -197q-46 -189 -161.5 -303t-329.5 -145q-41 -25 -66.5 -75t-25.5 -97q0 -82 73 -82q54 0 101 32l-25 -127q-107 -90 -268 -90q-91 0 -144 38t-53 120q0 162 172 272q-229 17 -347 126.5t-118 281.5q0 90 31 264l135 768h320l-152 -860
q-14 -80 -14 -133q0 -99 68.5 -155t179.5 -56q127 0 202 56t109 190q3 10 20 94l152 864h319z" />
    <glyph glyph-name="uogonek" unicode="&#x173;" horiz-adv-x="1282" 
d="M1065 0h-61q-64 -4 -107 -65.5t-43 -124.5q0 -82 74 -82q53 0 100 32l-24 -127q-107 -90 -269 -90q-91 0 -143.5 38t-52.5 120q0 182 217 299h-11l29 162l-115 -121q-117 -70 -268 -70q-161 0 -245.5 76.5t-84.5 204.5q0 73 25 215l113 625h321l-102 -562
q-21 -133 -21 -174q0 -164 162 -161q103 0 179.5 98t111.5 299l88 500h319z" />
    <glyph glyph-name="Wcircumflex" unicode="&#x174;" horiz-adv-x="2048" 
d="M1165 1505h-192l172 242h260l86 -242h-193l-41 140zM2218 1413l-614 -1413h-426l-23 1098l-410 -1098h-430l-108 1413h334l39 -1141l399 1121h461v-1131l424 1151h354z" />
    <glyph glyph-name="wcircumflex" unicode="&#x175;" horiz-adv-x="1685" 
d="M891 1171h-191l174 248h259l86 -248h-193l-41 148zM1810 1092l-538 -1092h-363l-24 795l-303 -795h-363l-153 1092h354l31 -809l294 802h385l25 -806l309 813h346z" />
    <glyph glyph-name="Ycircumflex" unicode="&#x176;" horiz-adv-x="1347" 
d="M809 1505h-193l172 242h261l86 -242h-193l-41 140zM864 535l-94 -535h-321l96 545l-344 868h342l213 -598l403 598h359z" />
    <glyph glyph-name="ycircumflex" unicode="&#x177;" horiz-adv-x="1150" 
d="M608 1171h-190l174 248h258l86 -248h-193l-41 148zM1274 1092l-617 -1092q-137 -242 -259 -336t-300 -94q-62 0 -137 10l35 211q46 -6 94 -6q132 0 205 141l12 23l-241 1143h358l102 -828l396 828h352z" />
    <glyph glyph-name="Ydieresis" unicode="&#x178;" horiz-adv-x="1347" 
d="M690 1487q-60 0 -92.5 29.5t-32.5 82.5q0 71 48 114.5t108 43.5q58 0 90.5 -29.5t32.5 -82.5q0 -70 -47.5 -114t-106.5 -44zM1069 1487q-60 0 -92.5 29.5t-32.5 82.5q0 71 48 114.5t108 43.5q58 0 90.5 -29.5t32.5 -82.5q0 -70 -47.5 -114t-106.5 -44zM864 535l-94 -535
h-321l96 545l-344 868h342l213 -598l403 598h359z" />
    <glyph glyph-name="Zacute" unicode="&#x179;" horiz-adv-x="1298" 
d="M928 1505h-176l209 242h286zM1341 1165l-886 -913h735l-45 -252h-1137l43 244l895 919h-676l45 250h1069z" />
    <glyph glyph-name="zacute" unicode="&#x17a;" horiz-adv-x="1077" 
d="M717 1171h-176l215 248h286zM1065 879l-686 -672h584l-35 -207h-969l33 195l694 682h-526l35 206h907z" />
    <glyph glyph-name="Zdotaccent" unicode="&#x17b;" horiz-adv-x="1298" 
d="M856 1487q-68 0 -106.5 36t-38.5 99q0 73 50 127.5t136 54.5q68 0 107.5 -36t39.5 -99q0 -72 -50.5 -127t-137.5 -55zM1341 1165l-886 -913h735l-45 -252h-1137l43 244l895 919h-676l45 250h1069z" />
    <glyph glyph-name="zdotaccent" unicode="&#x17c;" horiz-adv-x="1077" 
d="M655 1188q-69 0 -109 37.5t-40 101.5q0 74 51.5 130t140.5 56q69 0 109.5 -37t40.5 -100q0 -75 -51.5 -131.5t-141.5 -56.5zM1065 879l-686 -672h584l-35 -207h-969l33 195l694 682h-526l35 206h907z" />
    <glyph glyph-name="Zcaron" unicode="&#x17d;" horiz-adv-x="1298" 
d="M723 1505l-86 242h192l41 -139l93 139h192l-172 -242h-260zM1341 1165l-886 -913h735l-45 -252h-1137l43 244l895 919h-676l45 250h1069z" />
    <glyph glyph-name="zcaron" unicode="&#x17e;" horiz-adv-x="1077" 
d="M514 1171l-86 248h193l41 -141l94 141h190l-174 -248h-258zM1065 879l-686 -672h584l-35 -207h-969l33 195l694 682h-526l35 206h907z" />
    <glyph glyph-name="Scommaaccent" unicode="&#x218;" horiz-adv-x="1253" 
d="M768 1442q129 0 224.5 -34.5t151.5 -96.5t81 -143t20 -179h-323q6 101 -42 158t-147 57q-89 0 -145 -46.5t-56 -131.5q0 -66 61 -109.5t206 -78.5q375 -92 375 -381q0 -92 -33 -171t-91 -136.5t-136.5 -98t-170 -60.5t-190.5 -20q-125 0 -224.5 28.5t-169.5 83.5
t-103.5 142t-22.5 199h323q1 -104 66.5 -159.5t167.5 -55.5q101 0 169 51t68 135q0 129 -227 189q-208 53 -311 137t-103 233q0 150 83 263t214 169t285 56zM662 -102l-232 -330h-172l178 348h226v-18z" />
    <glyph glyph-name="scommaaccent" unicode="&#x219;" horiz-adv-x="1021" 
d="M563 1114q214 0 320 -93.5t114 -252.5h-315q-16 141 -131 141q-58 0 -89.5 -28.5t-31.5 -71.5q0 -58 44 -91t171 -75q162 -53 234.5 -129.5t72.5 -200.5q0 -165 -135.5 -259.5t-357.5 -94.5q-225 0 -350 96.5t-134 268.5h320q7 -82 54.5 -120t121.5 -38q65 0 105 30
t40 85t-49.5 93t-183.5 83q-72 25 -120.5 49.5t-89 60.5t-60 85.5t-19.5 115.5q0 147 123.5 246.5t345.5 99.5zM535 -102l-232 -330h-172l178 348h226v-18z" />
    <glyph glyph-name="uni021A" unicode="&#x21a;" horiz-adv-x="1284" 
d="M1407 1163h-469l-205 -1163h-319l204 1163h-471l46 250h1261zM471 -84h225v-18l-231 -330h-172z" />
    <glyph glyph-name="uni021B" unicode="&#x21b;" horiz-adv-x="761" 
d="M551 879l-82 -459q-14 -69 -14 -123q0 -66 46.5 -86t153.5 -6l-37 -207q-116 -25 -225 -25q-147 0 -211.5 48.5t-64.5 150.5q0 68 22 205l88 502h-157l36 204h158l49 275h322l-49 -275h225l-37 -204h-223zM223 -84h226v-18l-232 -330h-172z" />
    <glyph glyph-name="circumflex" unicode="&#x2c6;" horiz-adv-x="614" 
d="M356 1171l-41 148l-94 -148h-190l174 248h258l86 -248h-193z" />
    <glyph glyph-name="caron" unicode="&#x2c7;" horiz-adv-x="614" 
d="M590 1419l-174 -248h-258l-86 248h192l41 -141l94 141h191z" />
    <glyph glyph-name="breve" unicode="&#x2d8;" horiz-adv-x="614" 
d="M426 1423h166q-24 -130 -108.5 -196t-200.5 -66q-71 0 -119.5 22t-69 59t-27.5 84t5 97h166q-15 -104 71 -104q90 0 117 104z" />
    <glyph glyph-name="dotaccent" unicode="&#x2d9;" horiz-adv-x="614" 
d="M332 1513q69 0 109 -37t40 -100q0 -75 -51 -131.5t-141 -56.5q-69 0 -109.5 37.5t-40.5 101.5q0 74 52 130t141 56z" />
    <glyph glyph-name="ring" unicode="&#x2da;" horiz-adv-x="614" 
d="M342 1575q92 0 145.5 -46.5t53.5 -129.5q0 -104 -73.5 -171t-191.5 -67q-94 0 -148 46.5t-54 129.5q0 103 74 170.5t194 67.5zM322 1456q-45 0 -69 -35t-24 -75q0 -31 17.5 -48.5t46.5 -17.5q45 0 68.5 34.5t23.5 76.5q0 31 -17 48t-46 17z" />
    <glyph glyph-name="ogonek" unicode="&#x2db;" horiz-adv-x="614" 
d="M348 14l219 -14q-64 -4 -106.5 -65.5t-42.5 -124.5q0 -82 74 -82q53 0 100 32l-25 -127q-107 -90 -268 -90q-91 0 -144 38t-53 120q0 196 246 313z" />
    <glyph glyph-name="tilde" unicode="&#x2dc;" horiz-adv-x="614" 
d="M172 1427q72 0 160 -38q65 -25 94 -25q17 0 27 13t16 44h166q-23 -130 -67 -185.5t-126 -55.5q-70 0 -159 39q-57 24 -90 24q-38 0 -46 -57h-167q24 131 67 186t125 55z" />
    <glyph glyph-name="hungarumlaut" unicode="&#x2dd;" horiz-adv-x="614" 
d="M135 1171h-176l215 248h287zM522 1171h-176l215 248h287z" />
    <glyph glyph-name="uni0326" unicode="&#x326;" horiz-adv-x="0" 
d="M475 -102l-231 -330h-172l178 348h225v-18z" />
    <glyph glyph-name="Wgrave" unicode="&#x1e80;" horiz-adv-x="2048" 
d="M1167 1505l-237 242h287l126 -242h-176zM2218 1413l-614 -1413h-426l-23 1098l-410 -1098h-430l-108 1413h334l39 -1141l399 1121h461v-1131l424 1151h354z" />
    <glyph glyph-name="wgrave" unicode="&#x1e81;" horiz-adv-x="1685" 
d="M899 1171l-237 248h286l127 -248h-176zM1810 1092l-538 -1092h-363l-24 795l-303 -795h-363l-153 1092h354l31 -809l294 802h385l25 -806l309 813h346z" />
    <glyph glyph-name="Wacute" unicode="&#x1e82;" horiz-adv-x="2048" 
d="M1309 1505h-176l208 242h287zM2218 1413l-614 -1413h-426l-23 1098l-410 -1098h-430l-108 1413h334l39 -1141l399 1121h461v-1131l424 1151h354z" />
    <glyph glyph-name="wacute" unicode="&#x1e83;" horiz-adv-x="1685" 
d="M1028 1171h-176l215 248h287zM1810 1092l-538 -1092h-363l-24 795l-303 -795h-363l-153 1092h354l31 -809l294 802h385l25 -806l309 813h346z" />
    <glyph glyph-name="Wdieresis" unicode="&#x1e84;" horiz-adv-x="2048" 
d="M1047 1487q-60 0 -92.5 29.5t-32.5 82.5q0 71 47.5 114.5t107.5 43.5q58 0 90.5 -29.5t32.5 -82.5q0 -70 -47 -114t-106 -44zM1425 1487q-60 0 -92.5 29.5t-32.5 82.5q0 71 48 114.5t108 43.5q58 0 90.5 -29.5t32.5 -82.5q0 -70 -47.5 -114t-106.5 -44zM2218 1413
l-614 -1413h-426l-23 1098l-410 -1098h-430l-108 1413h334l39 -1141l399 1121h461v-1131l424 1151h354z" />
    <glyph glyph-name="wdieresis" unicode="&#x1e85;" horiz-adv-x="1685" 
d="M762 1174q-60 0 -92.5 29t-32.5 83q0 70 48 114t108 44q57 0 89.5 -29.5t32.5 -83.5q0 -71 -46.5 -114t-106.5 -43zM1143 1174q-59 0 -91 29t-32 83q0 70 48 114t108 44q57 0 89.5 -29.5t32.5 -83.5q0 -71 -47.5 -114t-107.5 -43zM1810 1092l-538 -1092h-363l-24 795
l-303 -795h-363l-153 1092h354l31 -809l294 802h385l25 -806l309 813h346z" />
    <glyph glyph-name="Ygrave" unicode="&#x1ef2;" horiz-adv-x="1347" 
d="M811 1505l-238 242h287l127 -242h-176zM864 535l-94 -535h-321l96 545l-344 868h342l213 -598l403 598h359z" />
    <glyph glyph-name="ygrave" unicode="&#x1ef3;" horiz-adv-x="1150" 
d="M616 1171l-237 248h287l127 -248h-177zM1274 1092l-617 -1092q-137 -242 -259 -336t-300 -94q-62 0 -137 10l35 211q46 -6 94 -6q132 0 205 141l12 23l-241 1143h358l102 -828l396 828h352z" />
    <glyph glyph-name="endash" unicode="&#x2013;" horiz-adv-x="1024" 
d="M836 508h-676l28 176h676z" />
    <glyph glyph-name="emdash" unicode="&#x2014;" horiz-adv-x="2048" 
d="M1860 508h-1700l28 176h1700z" />
    <glyph glyph-name="quoteleft" unicode="&#x2018;" horiz-adv-x="552" 
d="M129 868l311 545h254l-262 -567h-305z" />
    <glyph glyph-name="quoteright" unicode="&#x2019;" horiz-adv-x="550" 
d="M633 1393l-314 -547h-251l262 567h303v-20z" />
    <glyph glyph-name="quotesinglbase" unicode="&#x201a;" horiz-adv-x="555" 
d="M367 295l-314 -547h-254l264 567h306z" />
    <glyph glyph-name="quotedblleft" unicode="&#x201c;" horiz-adv-x="1024" 
d="M127 868l313 545h254l-264 -567h-303v22zM598 868l313 545h254l-264 -567h-303v22z" />
    <glyph glyph-name="quotedblright" unicode="&#x201d;" horiz-adv-x="1021" 
d="M633 1393l-314 -547h-251l262 567h303v-20zM1104 1393l-313 -547h-252l262 567h303v-20z" />
    <glyph glyph-name="quotedblbase" unicode="&#x201e;" horiz-adv-x="1026" 
d="M367 295l-314 -547h-254l264 567h306zM838 295l-314 -547h-252l263 567h305z" />
    <glyph glyph-name="dagger" unicode="&#x2020;" horiz-adv-x="1208" 
d="M1087 711l-364 10l-162 -1049h-301l209 1049l-371 -10l47 270l367 -10l55 442h301l-98 -442l365 10z" />
    <glyph glyph-name="daggerdbl" unicode="&#x2021;" horiz-adv-x="1146" 
d="M707 721l-66 -356l373 10l-47 -271l-367 11l-55 -443h-301l98 443l-367 -11l50 271l364 -10l66 356l-371 -10l47 270l365 -10l55 442h301l-98 -442l366 10l-47 -270z" />
    <glyph glyph-name="bullet" unicode="&#x2022;" horiz-adv-x="788" 
d="M438 879q98 0 157.5 -52t59.5 -145q0 -134 -84.5 -221.5t-220.5 -87.5q-97 0 -156 50.5t-59 143.5q0 134 83.5 223t219.5 89z" />
    <glyph glyph-name="ellipsis" unicode="&#x2026;" horiz-adv-x="1681" 
d="M207 344q67 0 111 -38.5t44 -106.5q0 -102 -62 -165t-161 -63q-67 0 -111 39t-44 107q0 102 62 164.5t161 62.5zM770 344q67 0 111.5 -38.5t44.5 -106.5q0 -102 -62.5 -165t-161.5 -63q-67 0 -111 39t-44 107q0 102 62 164.5t161 62.5zM1333 344q67 0 111.5 -38.5
t44.5 -106.5q0 -102 -62 -165t-161 -63q-67 0 -111.5 39t-44.5 107q0 102 62 164.5t161 62.5z" />
    <glyph glyph-name="perthousand" unicode="&#x2030;" horiz-adv-x="2299" 
d="M440 760q-132 0 -210 76.5t-78 210.5q0 61 15 118.5t45.5 107.5t74 87.5t104.5 59.5t133 22q131 0 209 -76t78 -211q0 -77 -24 -147t-69.5 -126t-117.5 -89t-160 -33zM1550 1413l-1163 -1413h-266l1161 1413h268zM504 1282q-62 0 -102 -67.5t-40 -167.5q0 -63 25.5 -95
t71.5 -32q62 0 102.5 68.5t40.5 166.5q0 127 -98 127zM1229 653q131 0 209 -75.5t78 -210.5q0 -77 -24 -147t-69 -126t-117 -89.5t-161 -33.5q-130 0 -208.5 76.5t-78.5 210.5q0 77 24 147t69 126t117 89t161 33zM1917 653q132 0 210.5 -75.5t78.5 -210.5q0 -77 -24 -147
t-69.5 -126t-118 -89.5t-161.5 -33.5q-130 0 -208.5 76.5t-78.5 210.5q0 77 24 147t69.5 126t117.5 89t160 33zM1163 131q63 0 103.5 68.5t40.5 167.5q0 63 -25.5 95t-71.5 32q-63 0 -103 -68t-40 -168q0 -63 25.5 -95t70.5 -32zM1853 131q62 0 102 68.5t40 167.5
q0 63 -25.5 95t-71.5 32q-62 0 -102.5 -68t-40.5 -168q0 -127 98 -127z" />
    <glyph glyph-name="guilsinglleft" unicode="&#x2039;" horiz-adv-x="868" 
d="M467 492l209 -324h-230l-221 340l340 340h260z" />
    <glyph glyph-name="guilsinglright" unicode="&#x203a;" horiz-adv-x="886" 
d="M629 508l-340 -340h-260l358 358l-209 322h230z" />
    <glyph glyph-name="fraction" unicode="&#x2044;" horiz-adv-x="571" 
d="M-158 0h-252l1164 1413h252z" />
    <glyph glyph-name="Euro" unicode="&#x20ac;" 
d="M928 1204q-262 0 -353 -270h474l-54 -176h-456q-10 -79 -11 -105h435l-50 -176h-383q13 -146 80.5 -207t182.5 -61q178 0 329 80l-43 -238q-85 -42 -173.5 -61t-211.5 -19q-226 0 -356 123.5t-143 382.5h-172l51 176h123q3 53 12 105h-103l52 176h92q35 110 90.5 198.5
t139 160t204 110.5t268.5 39q262 0 367 -127l-150 -199q-54 47 -110.5 67.5t-130.5 20.5z" />
    <glyph glyph-name="trademark" unicode="&#x2122;" horiz-adv-x="1101" 
d="M332 1262l-58 -328h-118l57 328h-147l16 90h414l-17 -90h-147zM1040 1350l-73 -416h-119l55 291l-121 -283h-120l-23 281l-49 -289h-119l74 416h178l18 -295l119 295h180z" />
    <glyph glyph-name="partialdiff" unicode="&#x2202;" 
d="M780 1552q244 0 364 -145t120 -412q0 -157 -20.5 -298t-71 -276t-127.5 -233t-199 -157.5t-277 -59.5q-225 0 -354 111t-129 340q0 95 20.5 182.5t66.5 168t113 140t168 94.5t224 35q191 0 254 -108q2 29 2 82q0 153 -57 227t-185 74q-142 0 -282 -88l-68 203
q111 65 210.5 92.5t227.5 27.5zM604 209q113 0 187.5 124t109.5 347q-44 127 -205 127q-72 0 -126.5 -34.5t-84.5 -92.5t-44.5 -124t-14.5 -138q0 -102 47 -155.5t131 -53.5z" />
    <glyph glyph-name="emptyset" unicode="&#x2205;" horiz-adv-x="1716" 
d="M1677 1389l-164 -164q164 -220 164 -498q0 -171 -65 -324.5t-175.5 -263t-261.5 -173.5t-317 -64q-278 0 -498 168l-192 -193l-127 129l188 189q-190 228 -190 532q0 171 65 324.5t175.5 263t261.5 173.5t317 64q150 0 287 -51t246 -145l159 160zM236 727
q0 -226 129 -397l895 895q-173 149 -402 149q-169 0 -311.5 -84t-226.5 -233t-84 -330zM1481 727q0 197 -103 360l-886 -886q162 -121 366 -121q127 0 241.5 49.5t198.5 135t133.5 206t49.5 256.5z" />
    <glyph glyph-name="product" unicode="&#x220f;" 
d="M1313 1163h-119l-246 -1388h-321l245 1388h-288l-246 -1388h-322l246 1388h-119l45 250h1170z" />
    <glyph glyph-name="summation" unicode="&#x2211;" 
d="M1280 1163h-672l355 -557l-605 -579h734l-45 -252h-1110l43 231l622 610l-354 566l43 231h1034z" />
    <glyph glyph-name="minus" unicode="&#x2212;" 
d="M1102 563h-907l30 176h905z" />
    <glyph glyph-name="radical" unicode="&#x221a;" 
d="M1405 1597l-797 -1925h-241l-121 799h-160l31 164h307l98 -758l688 1720h195z" />
    <glyph glyph-name="infinity" unicode="&#x221e;" horiz-adv-x="2099" 
d="M1599 1114q214 0 333.5 -127t119.5 -358q0 -96 -23.5 -188.5t-74.5 -178t-123 -150t-177 -103t-229 -38.5q-168 0 -276 59.5t-162 194.5q-100 -136 -214.5 -195t-264.5 -59q-214 0 -336.5 128.5t-122.5 357.5q0 96 24 188.5t75.5 178t125 149.5t179.5 102.5t231 38.5
q169 0 279 -59t165 -195q99 138 210 196t261 58zM872 543q4 186 -45.5 268t-148.5 82q-72 0 -130 -42.5t-91 -108t-50.5 -136.5t-17.5 -137q0 -129 48.5 -202.5t133.5 -73.5q92 0 171.5 85t129.5 265zM1432 193q71 0 127 42t88 108t48.5 136.5t16.5 136.5q0 130 -45 203.5
t-129 73.5q-93 0 -171 -84.5t-126 -265.5q-14 -350 191 -350z" />
    <glyph glyph-name="integral" unicode="&#x222b;" 
d="M930 1544q116 0 176 -45l-62 -166q-48 35 -122 35q-48 0 -83.5 -18.5t-57.5 -48t-35 -73.5t-18 -89t-5 -99q0 -144 43 -417q43 -264 43 -447q0 -82 -13.5 -154.5t-44.5 -137.5t-77.5 -111.5t-116 -73.5t-156.5 -27q-116 0 -176 45l60 166q51 -35 125 -35q59 0 99.5 26.5
t61 75.5t29 103t8.5 123q0 126 -43 418q-43 250 -43 446q0 82 13.5 154.5t44.5 137.5t77.5 111.5t116 73.5t156.5 27z" />
    <glyph glyph-name="approxequal" unicode="&#x2248;" horiz-adv-x="1255" 
d="M475 987q56 0 99.5 -17t132.5 -67q69 -42 104.5 -57t71.5 -15q94 0 186 95l92 -113q-73 -94 -148 -134t-161 -40q-59 0 -104 17.5t-130 66.5q-72 43 -106.5 57.5t-69.5 14.5q-96 0 -186 -97l-92 115q135 174 311 174zM406 598q57 0 101 -17.5t130 -66.5
q71 -43 106.5 -57.5t71.5 -14.5q94 0 186 95l93 -113q-135 -174 -312 -174q-59 0 -103.5 17.5t-127.5 66.5q-76 44 -109 58t-69 14q-94 0 -187 -97l-90 115q73 94 148.5 134t161.5 40z" />
    <glyph glyph-name="notequal" unicode="&#x2260;" 
d="M825 772l-168 -246h473l-28 -164h-559l-148 -215h-194l147 215h-213l29 164h297l170 246h-424l29 164h507l148 215h196l-147 -215h262l-26 -164h-351z" />
    <glyph glyph-name="lessequal" unicode="&#x2264;" 
d="M1165 856l-739 -209l666 -215l-35 -194l-840 290l43 244l942 289zM156 176h891l-33 -176h-891z" />
    <glyph glyph-name="greaterequal" unicode="&#x2265;" 
d="M1112 772l-43 -244l-928 -290l37 204l727 209l-653 217l35 193zM131 176h875l-31 -176h-877z" />
    <glyph glyph-name="lozenge" unicode="&#x25ca;" horiz-adv-x="1114" 
d="M1018 707l-453 -707h-266l-203 707l453 706h266zM780 707l-135 501l-311 -501l135 -502z" />
    <glyph glyph-name="a.alt" horiz-adv-x="1355" 
d="M1329 1092l-190 -1092h-322l29 162l-103 -119q-104 -72 -276 -72q-203 0 -313.5 113.5t-110.5 321.5q0 140 41 266t118.5 227t203.5 161t282 60q69 0 138.5 -17t105.5 -44l51 -117l27 150h319zM911 532l11 52q13 60 5.5 116.5t-28.5 101t-69.5 71t-118.5 26.5
q-96 0 -172.5 -63.5t-116 -165t-39.5 -217.5q0 -129 53 -194.5t156 -65.5q117 0 202 81.5t117 255.5v2z" />
    <glyph glyph-name="braceleft.001" horiz-adv-x="815" 
d="M834 1597l-31 -176h-41q-49 0 -77.5 -9t-50.5 -37.5t-30 -82.5t-8 -145q1 -100 -8.5 -169.5t-34 -125t-69.5 -88t-113 -45.5q141 -30 141 -160q0 -106 -66 -272q-40 -103 -51.5 -140t-11.5 -67q0 -39 30 -53.5t101 -14.5h39l-31 -176h-84q-122 0 -181.5 55.5t-59.5 151.5
q0 52 13 98.5t60 165.5q54 144 54 223q0 91 -146 99l29 176q87 6 129 32t60 91t18 198q0 142 15.5 230t55.5 143.5t102.5 76.5t162.5 21h84z" />
    </font>
</defs>
</svg>
