<?xml version="1.0" standalone="no"?>
<!DOCTYPE svg PUBLIC "-//W3C//DTD SVG 1.1//EN" "http://www.w3.org/Graphics/SVG/1.1/DTD/svg11.dtd" >
<svg xmlns="http://www.w3.org/2000/svg" xmlns:xlink="http://www.w3.org/1999/xlink" version="1.1">
<metadata>
Created by FontForge 20170731 at Wed Dec 14 12:20:10 2022
 By Aleksey,,,
No Rights Reserved.
</metadata>
<defs>
<font id="Aileron-Italic" horiz-adv-x="1187" >
  <font-face 
    font-family="Aileron"
    font-weight="400"
    font-style="italic"
    font-stretch="normal"
    units-per-em="2048"
    panose-1="0 0 5 0 0 0 0 0 0 0"
    ascent="1577"
    descent="-471"
    x-height="1077"
    cap-height="1413"
    bbox="-424 -457 2314 1833"
    underline-thickness="102"
    underline-position="-307"
    slope="-10"
    unicode-range="U+0020-FB02"
  />
<missing-glyph horiz-adv-x="1148" 
d="M125 0v1434h1024v-1434h-1024zM637 809l348 522h-696zM698 717l349 -522v1044zM289 102h696l-348 523zM227 1239v-1044l348 522z" />
    <glyph glyph-name="fi" unicode="fi" horiz-adv-x="1067" 
d="M1010 1077l-189 -1077h-176l164 942h-395l-166 -942h-176l166 942h-97l23 135h98l4 29q8 52 29 131q88 307 496 307q62 0 124 -10l-26 -145q-133 12 -218.5 -1.5t-132 -51t-67.5 -103.5q-13 -36 -27 -111l-8 -45h574z" />
    <glyph glyph-name="fl" unicode="fl" horiz-adv-x="1089" 
d="M846 205q0 -85 119 -76l-23 -129q-55 -8 -127 -8q-76 0 -117 29.5t-41 103.5q0 30 27 180l193 1092q-59 12 -119 12q-231 0 -289 -176q-20 -73 -25 -111l-8 -45h223l-24 -135h-223l-166 -942h-176l166 942h-97l25 135h96l4 29q17 85 29 131q88 307 498 307q168 0 280 -39
l-211 -1194q-14 -77 -14 -106z" />
    <glyph glyph-name=".notdef" horiz-adv-x="1148" 
d="M125 0v1434h1024v-1434h-1024zM637 809l348 522h-696zM698 717l349 -522v1044zM289 102h696l-348 523zM227 1239v-1044l348 522z" />
    <glyph glyph-name=".null" horiz-adv-x="0" 
 />
    <glyph glyph-name="nonmarkingreturn" horiz-adv-x="682" 
 />
    <glyph glyph-name="space" unicode=" " horiz-adv-x="401" 
 />
    <glyph glyph-name="exclam" unicode="!" horiz-adv-x="532" 
d="M313 369h-159l180 1044h209zM211 233q50 0 80.5 -29t30.5 -75q0 -67 -46 -112.5t-110 -45.5q-50 0 -80.5 29.5t-30.5 75.5q0 67 46 112t110 45z" />
    <glyph glyph-name="quotedbl" unicode="&#x22;" horiz-adv-x="567" 
d="M227 993h-143l70 512h184zM514 993h-143l69 512h185z" />
    <glyph glyph-name="numbersign" unicode="#" 
d="M895 850l-113 -287h209l-20 -114h-234l-174 -449h-119l174 449h-186l-174 -449h-119l174 449h-182l21 114h206l113 287h-209l21 115h233l174 448h119l-174 -448h186l174 448h119l-174 -448h182l-20 -115h-207zM776 850h-186l-113 -287h187z" />
    <glyph glyph-name="dollar" unicode="$" 
d="M748 1292l-89 -491q185 -62 274 -161.5t89 -250.5q0 -186 -139.5 -298t-370.5 -120l-27 -155h-118l28 161q-181 22 -268.5 129t-97.5 275h188q16 -223 203 -262l92 522q-80 24 -137.5 52.5t-105 71t-71.5 104.5t-24 143q0 77 29 150t85.5 135t151.5 101.5t215 43.5
l27 155h119l-29 -161q158 -25 241.5 -132t86.5 -262h-189q-3 96 -45.5 161.5t-117.5 88.5zM367 1032q0 -79 45.5 -126t134.5 -77l82 471q-127 -10 -194.5 -86.5t-67.5 -181.5zM629 616l-90 -505q290 16 290 268q0 89 -47.5 144.5t-152.5 92.5z" />
    <glyph glyph-name="percent" unicode="%" horiz-adv-x="1515" 
d="M438 791q-122 0 -194 73t-72 193q0 73 22 140.5t64 123t111.5 88.5t156.5 33q122 0 194.5 -73.5t72.5 -192.5q0 -73 -22 -140.5t-64 -123t-112 -88.5t-157 -33zM1462 1413l-1161 -1413h-190l1161 1413h190zM512 1319q-74 0 -120 -75t-46 -197q0 -62 26 -98t81 -36
q74 0 119.5 75t45.5 198q0 133 -106 133zM1135 623q122 0 194 -73.5t72 -193.5q0 -73 -22 -140.5t-64 -123t-111.5 -88.5t-156.5 -33q-122 0 -194.5 73.5t-72.5 193.5q0 73 22 140.5t64 123t112 88.5t157 33zM1061 94q74 0 120 75.5t46 197.5q0 62 -26 97.5t-81 35.5
q-74 0 -120 -75.5t-46 -197.5q0 -62 26 -97.5t81 -35.5z" />
    <glyph glyph-name="ampersand" unicode="&#x26;" horiz-adv-x="1349" 
d="M1296 788l-26 -143h-197l-110 -631q-193 -43 -396 -43q-110 0 -195.5 16t-156.5 52.5t-109 103.5t-38 162q0 156 108.5 270t286.5 148q-100 27 -157.5 100t-57.5 185q0 128 76.5 228t207.5 153t293 53q128 0 242 -21l-25 -141q-118 23 -247 23q-162 0 -255.5 -80
t-93.5 -232q0 -103 60 -148t168 -52q55 -3 127 -3h123l39 230h176l-39 -230h196zM897 645h-123q-84 0 -125 -4q-195 -18 -287 -102t-92 -215q0 -114 78 -163.5t248 -49.5q116 0 209 18z" />
    <glyph glyph-name="quotesingle" unicode="'" horiz-adv-x="280" 
d="M227 993h-143l70 512h184z" />
    <glyph glyph-name="parenleft" unicode="(" horiz-adv-x="645" 
d="M446 -164h-118q-121 248 -121 578q0 291 110.5 612t321.5 571h119q-212 -275 -316 -583t-104 -596q0 -321 108 -582z" />
    <glyph glyph-name="parenright" unicode=")" horiz-adv-x="645" 
d="M260 1597h119q121 -248 121 -577q0 -188 -45 -390t-145 -413.5t-242 -380.5h-119q212 275 316 583.5t104 596.5q0 318 -109 581z" />
    <glyph glyph-name="asterisk" unicode="*" horiz-adv-x="1085" 
d="M596 610l336 121l16 -121l-338 -86l181 -280l-117 -76l-148 307l-258 -307l-88 76l277 280l-307 86l61 121l293 -123l47 365h127z" />
    <glyph glyph-name="plus" unicode="+" 
d="M993 588h-370l-74 -414h-119l74 414h-371l21 114h370l74 422h119l-74 -422h371z" />
    <glyph glyph-name="comma" unicode="," horiz-adv-x="477" 
d="M250 180l-262 -426h-166l239 451h193z" />
    <glyph glyph-name="hyphen" unicode="-" horiz-adv-x="561" 
d="M485 522h-430l21 115h430z" />
    <glyph glyph-name="period" unicode="." horiz-adv-x="477" 
d="M154 233q50 0 79 -30.5t29 -77.5q0 -67 -44.5 -110.5t-108.5 -43.5q-50 0 -79.5 31t-29.5 78q0 66 45 109.5t109 43.5z" />
    <glyph glyph-name="slash" unicode="/" horiz-adv-x="620" 
d="M10 -61h-127l785 1536h127z" />
    <glyph glyph-name="zero" unicode="0" 
d="M670 1442q117 0 206.5 -40.5t143.5 -114t81 -168t27 -208.5q0 -84 -9 -170.5t-30.5 -180t-53.5 -177.5t-81.5 -160t-111.5 -131.5t-146 -88t-182 -32.5q-117 0 -207 41t-144 114.5t-81 168.5t-27 209q0 99 13.5 200.5t41 209t76.5 200.5t114.5 167.5t160.5 117.5t209 43z
M518 111q94 0 169.5 61t119.5 151t73.5 203t40.5 208t11 175q0 182 -66 288t-200 106q-79 0 -145 -42t-109.5 -112t-76 -154t-50 -176.5t-25.5 -169.5t-8 -143q0 -182 66 -288.5t200 -106.5z" />
    <glyph glyph-name="one" unicode="1" 
d="M950 1413l-250 -1413h-176l217 1229l-430 -234l33 187l332 186q78 45 162 45h112z" />
    <glyph glyph-name="two" unicode="2" 
d="M309 143h690l-24 -143h-948l18 100l604 523q122 107 187 177t101 142.5t36 151.5q0 99 -53.5 154t-159.5 55q-138 0 -222.5 -75t-123.5 -237l-4 -20h-177l5 20q111 451 567 451q181 0 275 -92t94 -234q0 -135 -100 -273.5t-351 -348.5z" />
    <glyph glyph-name="three" unicode="3" 
d="M850 750q109 -33 168 -108.5t59 -186.5q0 -146 -82 -258t-216 -169t-296 -57q-211 0 -319.5 103t-91.5 323l2 21h176l-2 -21q-10 -143 65 -214.5t211 -71.5q152 0 252.5 86.5t100.5 232.5q0 213 -295 213h-35l26 143h35q147 0 252 86.5t105 229.5q0 90 -58 145.5
t-155 55.5q-131 0 -221.5 -69.5t-118.5 -207.5l-4 -20h-177l5 20q38 196 186 306t377 110q171 0 268.5 -83t97.5 -220q0 -139 -89 -245t-226 -144z" />
    <glyph glyph-name="four" unicode="4" 
d="M1094 356h-181l-61 -356h-176l63 356h-700l14 88l885 969h176l-174 -913h178zM766 500l129 674q-72 -93 -147 -177l-457 -497h475z" />
    <glyph glyph-name="five" unicode="5" 
d="M496 1270l-148 -492l103 94q111 60 233 60q196 0 296.5 -105.5t100.5 -279.5q0 -134 -49.5 -244.5t-132.5 -182t-190.5 -110.5t-225.5 -39q-128 0 -222 44.5t-144.5 137t-40.5 222.5l2 20h176v-20q3 -136 62.5 -200t189.5 -64q166 0 271.5 111.5t105.5 297.5
q0 127 -65.5 200t-184.5 73q-101 0 -181 -47.5t-149 -153.5h-168l244 821h803l-27 -143h-659z" />
    <glyph glyph-name="six" unicode="6" 
d="M799 1442q181 0 281.5 -104t86.5 -277l-2 -21h-188v21q-6 242 -217 242q-165 0 -292.5 -150.5t-170.5 -429.5l125 141q126 90 274 90q188 0 292 -107.5t104 -283.5q0 -126 -48 -237.5t-128.5 -188.5t-186 -121.5t-219.5 -44.5q-197 0 -309.5 119.5t-112.5 360.5
q0 188 39.5 350.5t108 278.5t159.5 199t193.5 123t210.5 40zM641 815q-70 0 -135.5 -29t-116.5 -81t-82 -133.5t-31 -178.5q0 -125 65 -203.5t181 -78.5q152 0 260.5 120t108.5 306q0 124 -61.5 201t-188.5 77z" />
    <glyph glyph-name="seven" unicode="7" 
d="M1255 1413l-14 -82l-940 -1331h-205l901 1270h-768l27 143h999z" />
    <glyph glyph-name="eight" unicode="8" 
d="M862 745q96 -33 154.5 -113.5t58.5 -185.5q0 -98 -34.5 -179t-91.5 -135.5t-133 -91.5t-157.5 -54t-166.5 -17q-93 0 -170 19.5t-138 60.5t-95 109.5t-34 160.5q0 79 29.5 151.5t79 126t111.5 92.5t131 59q-78 33 -124 101.5t-46 160.5q0 192 147 312t381 120
q183 0 288 -86.5t105 -235.5q0 -135 -84 -233.5t-211 -141.5zM739 1303q-147 0 -230 -85t-83 -208q0 -93 56.5 -150t166.5 -57q147 0 231.5 85t84.5 210q0 90 -57 147.5t-169 57.5zM520 109q173 0 266 92.5t93 234.5q0 99 -65 163.5t-198 64.5q-91 0 -162.5 -28
t-114.5 -74.5t-65 -103.5t-22 -120q0 -104 68.5 -166.5t199.5 -62.5z" />
    <glyph glyph-name="nine" unicode="9" 
d="M715 1442q197 0 309.5 -119t112.5 -360q0 -188 -39.5 -350.5t-108 -279t-159.5 -199t-193.5 -123t-210.5 -40.5q-181 0 -282 104t-87 277l2 21h189v-21q6 -241 217 -241q165 0 292.5 150t170.5 429l-125 -141q-126 -90 -275 -90q-188 0 -291.5 107.5t-103.5 283.5
q0 126 48 237.5t128.5 188.5t186 121.5t219.5 44.5zM584 598q70 0 135.5 29t116.5 81t81.5 133.5t30.5 178.5q0 125 -65.5 204t-180.5 79q-152 0 -260 -120t-108 -306q0 -124 61.5 -201.5t188.5 -77.5z" />
    <glyph glyph-name="colon" unicode=":" horiz-adv-x="477" 
d="M307 1114q50 0 79.5 -30.5t29.5 -77.5q0 -66 -45 -110t-109 -44q-50 0 -79 31t-29 78q0 66 44.5 109.5t108.5 43.5zM154 233q50 0 79 -30.5t29 -77.5q0 -67 -44.5 -110.5t-108.5 -43.5q-50 0 -79.5 31t-29.5 78q0 66 45 109.5t109 43.5z" />
    <glyph glyph-name="semicolon" unicode=";" horiz-adv-x="477" 
d="M307 1114q50 0 79.5 -30.5t29.5 -77.5q0 -66 -45 -110t-109 -44q-50 0 -79 31t-29 78q0 66 44.5 109.5t108.5 43.5zM248 180l-260 -426h-166l239 451h191z" />
    <glyph glyph-name="less" unicode="&#x3c;" 
d="M1090 874l-760 -339l641 -340l-25 -134l-749 412l24 139l893 412z" />
    <glyph glyph-name="equal" unicode="=" 
d="M1030 793h-860l20 114h861zM956 383h-860l21 115h860z" />
    <glyph glyph-name="greater" unicode="&#x3e;" 
d="M995 612l-24 -139l-893 -412l24 150l760 340l-641 340l25 133z" />
    <glyph glyph-name="question" unicode="?" horiz-adv-x="1206" 
d="M766 1442q179 0 281 -85t102 -220q0 -124 -65 -232t-232 -256q-98 -86 -141.5 -145.5t-65.5 -134.5h-176q15 85 59 150.5t164 182.5q157 152 210.5 240.5t53.5 177.5q0 87 -58 135t-155 48q-120 0 -203 -72.5t-108 -218.5h-184q30 198 172.5 314t345.5 116zM537 233
q50 0 80 -29t30 -75q0 -67 -45.5 -112.5t-109.5 -45.5q-50 0 -80.5 29.5t-30.5 75.5q0 67 46 112t110 45z" />
    <glyph glyph-name="at" unicode="@" horiz-adv-x="1744" 
d="M1298 952l-129 -540q-8 -36 -8 -66q0 -34 16 -54t62 -20q101 0 176.5 104.5t75.5 297.5q0 110 -28 203t-77.5 159.5t-117 113t-147 69t-167.5 22.5q-104 0 -206.5 -31t-194.5 -94t-162 -150t-111.5 -208t-41.5 -258q0 -145 45.5 -259.5t125.5 -187t183.5 -110
t224.5 -37.5q131 0 268.5 42t245.5 122l49 -101q-268 -182 -569 -182q-110 0 -212 27.5t-191 85.5t-155 140.5t-104 200t-38 257.5q0 158 48 297t130.5 241t190.5 176t231.5 111t249.5 37q291 0 474 -188.5t183 -493.5q0 -133 -37.5 -237.5t-99.5 -165t-134 -91t-149 -30.5
q-84 0 -139 36t-66 111l-43 -84q-96 -80 -205 -80q-53 0 -101 17t-91.5 53.5t-69.5 103.5t-26 156q0 134 55.5 253t158 194t228.5 75q123 0 180 -63l19 -99l35 125h165zM1020 514l18 80q31 138 -7 199t-120 61q-80 0 -141 -55t-91 -139.5t-30 -180.5q0 -108 38 -157.5
t101 -49.5q81 0 145 72t87 170z" />
    <glyph glyph-name="A" unicode="A" horiz-adv-x="1323" 
d="M942 500h-518l-258 -500h-201l758 1413h250l237 -1413h-190zM920 643l-97 631l-325 -631h422z" />
    <glyph glyph-name="B" unicode="B" horiz-adv-x="1325" 
d="M942 750q246 -67 246 -312q0 -79 -25.5 -146t-68 -113.5t-101.5 -82t-120.5 -56t-129.5 -30.5q-72 -10 -182 -10h-455l250 1413h416q116 0 182 -8q144 -20 219.5 -92.5t75.5 -192.5q0 -283 -307 -370zM506 1270l-82 -465h272q58 0 115 8q244 38 244 272q0 82 -48.5 127
t-134.5 54q-37 4 -110 4h-256zM700 147q126 11 210.5 91.5t84.5 214.5q0 173 -192 200q-68 9 -111 9h-293l-92 -519h295q44 0 98 4z" />
    <glyph glyph-name="C" unicode="C" horiz-adv-x="1468" 
d="M909 1442q261 0 394.5 -132.5t117.5 -346.5l-2 -21h-176v21q0 179 -90 259.5t-272 80.5q-166 0 -296.5 -98t-200 -263t-69.5 -364q0 -231 99 -349t278 -118q318 0 449 340l8 20h176l-6 -20q-62 -219 -228.5 -349.5t-433.5 -130.5q-260 0 -401 157t-139 427
q-1 247 100 450t283.5 320t408.5 117z" />
    <glyph glyph-name="D" unicode="D" horiz-adv-x="1456" 
d="M897 1407q108 -10 199.5 -51.5t162.5 -114.5t111.5 -185.5t40.5 -252.5q0 -112 -28.5 -219.5t-89 -206t-147 -176t-209 -129.5t-267.5 -66q-74 -6 -183 -6h-381l250 1413h363q108 0 178 -6zM684 152q136 19 240.5 80t167 150.5t94 194.5t31.5 222q0 209 -97 325t-252 138
q-60 8 -155 8h-207l-199 -1127h217q92 0 160 9z" />
    <glyph glyph-name="E" unicode="E" horiz-adv-x="1214" 
d="M508 1270l-88 -492h682l-25 -143h-682l-88 -492h766l-26 -143h-941l250 1413h920l-27 -143h-741z" />
    <glyph glyph-name="F" unicode="F" horiz-adv-x="1179" 
d="M508 1270l-88 -492h661l-24 -143h-662l-112 -635h-177l250 1413h920l-27 -143h-741z" />
    <glyph glyph-name="G" unicode="G" horiz-adv-x="1550" 
d="M930 1442q131 0 230 -36t158 -100.5t85 -151t18 -191.5l-2 -21h-176v21q0 182 -81.5 261t-260.5 79q-166 0 -301 -98t-210 -263.5t-75 -363.5q0 -210 96 -338.5t267 -128.5q173 0 308 120t167 308h-330l27 143h506l-121 -682h-156l43 244l-86 -129q-154 -144 -393 -144
q-170 0 -291 77t-179 207t-58 300q0 185 63 349.5t171 282t259.5 186.5t321.5 69z" />
    <glyph glyph-name="H" unicode="H" horiz-adv-x="1492" 
d="M1487 1413l-250 -1413h-176l108 618h-778l-108 -618h-177l250 1413h176l-114 -647h778l115 647h176z" />
    <glyph glyph-name="I" unicode="I" horiz-adv-x="538" 
d="M283 0h-177l250 1413h176z" />
    <glyph glyph-name="J" unicode="J" horiz-adv-x="1079" 
d="M1108 1413l-154 -872q-23 -122 -34 -170q-44 -189 -167.5 -294.5t-338.5 -105.5q-198 0 -299 114.5t-70 311.5l12 84h176l-10 -84q-37 -286 219 -286q123 0 197.5 66t108.5 204q3 11 32 166l152 866h176z" />
    <glyph glyph-name="K" unicode="K" horiz-adv-x="1288" 
d="M610 707l549 -707h-215l-463 610l-106 -94l-92 -516h-177l250 1413h176l-122 -694l813 694h215z" />
    <glyph glyph-name="L" unicode="L" horiz-adv-x="1183" 
d="M1073 143l-26 -143h-941l250 1413h176l-225 -1270h766z" />
    <glyph glyph-name="M" unicode="M" horiz-adv-x="1771" 
d="M1765 1413l-249 -1413h-177l222 1229l-639 -1229h-222l-200 1247l-217 -1247h-177l250 1413h291l199 -1229l629 1229h290z" />
    <glyph glyph-name="N" unicode="N" horiz-adv-x="1468" 
d="M1462 1413l-250 -1413h-270l-444 1245l-215 -1245h-177l250 1413h271l440 -1245l219 1245h176z" />
    <glyph glyph-name="O" unicode="O" horiz-adv-x="1529" 
d="M915 1442q137 0 246.5 -48.5t179.5 -133t107 -194.5t37 -237q0 -130 -29 -251.5t-92 -232.5t-154.5 -193.5t-225 -131.5t-294.5 -49q-137 0 -246.5 48.5t-179 133t-106.5 194.5t-37 237q0 130 29 251.5t92 232.5t154 193.5t224.5 131.5t294.5 49zM727 111q112 0 207.5 44
t160 116t110 166t66.5 193.5t21 198.5q0 215 -111 344.5t-302 129.5q-112 0 -207.5 -44t-160.5 -116.5t-110.5 -166.5t-66.5 -193.5t-21 -198.5q0 -215 110.5 -344t303.5 -129z" />
    <glyph glyph-name="P" unicode="P" horiz-adv-x="1239" 
d="M977 1405q144 -19 223.5 -105t79.5 -229q0 -104 -36.5 -191.5t-99 -147t-142.5 -97t-171 -49.5q-66 -8 -184 -8h-262l-102 -578h-177l250 1413h439q121 0 182 -8zM848 735q104 23 173 101t69 215q0 88 -41.5 138.5t-108.5 65.5q-51 11 -156 11h-276l-96 -541h276
q109 0 160 10z" />
    <glyph glyph-name="Q" unicode="Q" horiz-adv-x="1548" 
d="M1483 829q0 -202 -79.5 -385.5t-232.5 -300.5q110 -24 215 -129l-120 -120q-107 70 -158.5 92t-110.5 22q-69 0 -153 -20q-67 -17 -135 -17q-122 0 -221 32t-167 87.5t-114 133.5t-67 168t-21 192q0 123 29 243t91 232t151 196.5t219 135.5t284 51q122 0 221 -32
t167 -87.5t114 -133.5t67 -168t21 -192zM311 584q0 -215 110.5 -344t303.5 -129q112 0 207.5 44t160 116t110 166t66.5 193.5t21 198.5q0 215 -111 344.5t-302 129.5q-112 0 -207.5 -44t-160.5 -116.5t-110.5 -166.5t-66.5 -193.5t-21 -198.5z" />
    <glyph glyph-name="R" unicode="R" horiz-adv-x="1265" 
d="M1296 1098q0 -92 -32 -167.5t-86 -124.5t-116.5 -79.5t-131.5 -42.5q65 -7 98 -44t49.5 -132.5t16.5 -280.5q0 -164 36 -227h-190q-17 79 -22 387q-2 102 -37.5 157.5t-122.5 61.5q-33 2 -101 2h-266l-108 -608h-177l250 1413h463q122 0 185 -8q136 -18 214 -94.5
t78 -212.5zM825 756q122 11 200.5 91.5t78.5 219.5q0 169 -170 195q-52 8 -139 8h-287l-92 -518h270q98 0 139 4z" />
    <glyph glyph-name="S" unicode="S" horiz-adv-x="1157" 
d="M737 1442q213 0 321 -116t97 -304h-188q10 132 -62 206.5t-207 74.5q-129 0 -212 -70.5t-83 -192.5q0 -89 62 -139.5t201 -83.5q202 -48 299.5 -140.5t97.5 -248.5q0 -206 -159 -331.5t-406 -125.5q-222 0 -348.5 114.5t-114.5 315.5h188q6 -139 85.5 -214.5t217.5 -75.5
q148 0 244 76t96 210q0 100 -69.5 158.5t-227.5 97.5q-174 43 -268 121.5t-94 212.5q0 138 72.5 243t192 158.5t265.5 53.5z" />
    <glyph glyph-name="T" unicode="T" horiz-adv-x="1255" 
d="M1382 1270h-501l-226 -1270h-176l226 1270h-506l26 143h1184z" />
    <glyph glyph-name="U" unicode="U" horiz-adv-x="1398" 
d="M1409 1413l-158 -891q-13 -75 -26 -127q-104 -424 -600 -424q-222 0 -335.5 102t-113.5 294q0 77 17 170l155 876h176l-151 -860q-21 -123 -21 -180q0 -124 74.5 -193t222.5 -69q165 0 262.5 72t141.5 231q11 41 26 125l154 874h176z" />
    <glyph glyph-name="V" unicode="V" horiz-adv-x="1335" 
d="M707 0h-250l-238 1413h191l194 -1280l660 1280h200z" />
    <glyph glyph-name="W" unicode="W" horiz-adv-x="1951" 
d="M2089 1413l-643 -1413h-232l-102 1219l-549 -1219h-233l-123 1413h194l80 -1231l535 1211h250l100 -1213l528 1233h195z" />
    <glyph glyph-name="X" unicode="X" horiz-adv-x="1284" 
d="M795 719l389 -719h-213l-303 596l-506 -596h-207l631 723l-346 690h198l277 -565l485 565h209z" />
    <glyph glyph-name="Y" unicode="Y" horiz-adv-x="1189" 
d="M715 549l-97 -549h-176l99 557l-348 856h186l274 -696l508 696h207z" />
    <glyph glyph-name="Z" unicode="Z" horiz-adv-x="1210" 
d="M1282 1272l-1030 -1129h844l-27 -143h-1071l25 135l1036 1135h-780l26 143h1002z" />
    <glyph glyph-name="bracketleft" unicode="[" horiz-adv-x="628" 
d="M348 1597h334l-20 -114h-216l-270 -1532h215l-20 -115h-334z" />
    <glyph glyph-name="backslash" unicode="\" horiz-adv-x="620" 
d="M524 -61h-127l-243 1536h127z" />
    <glyph glyph-name="bracketright" unicode="]" horiz-adv-x="628" 
d="M303 -164h-334l21 115h215l270 1532h-215l21 114h333z" />
    <glyph glyph-name="asciicircum" unicode="^" 
d="M815 440l-164 707l-413 -707h-146l504 822h141l217 -822h-139z" />
    <glyph glyph-name="underscore" unicode="_" horiz-adv-x="1024" 
d="M911 -176h-819l21 115h819z" />
    <glyph glyph-name="grave" unicode="`" horiz-adv-x="614" 
d="M352 1188h-114l-134 225h164z" />
    <glyph glyph-name="a" unicode="a" horiz-adv-x="1036" 
d="M623 1114q177 0 262.5 -71.5t85.5 -196.5q0 -50 -19 -162l-71 -408q-22 -126 -29 -276h-176l8 156l-78 -99q-90 -86 -284 -86q-124 0 -210.5 72.5t-86.5 208.5q0 114 57 198.5t158.5 132t236 65.5t295.5 5l4 29q19 109 19 145q0 68 -42 110t-132 42q-134 0 -201.5 -56
t-93.5 -173h-185q35 172 163 268t319 96zM403 106q106 0 204 88.5t122 217.5l21 112q-146 16 -264 -4.5t-193.5 -84.5t-75.5 -165q0 -78 50.5 -121t135.5 -43z" />
    <glyph glyph-name="b" unicode="b" horiz-adv-x="1257" 
d="M799 1114q195 0 300 -123.5t105 -318.5q0 -103 -24.5 -202t-76.5 -190t-126 -159.5t-181.5 -109t-234.5 -40.5q-69 0 -141 25.5t-107 64.5l-49 107l-31 -168h-176l267 1505h176l-105 -594l103 117q53 38 135.5 62t165.5 24zM586 106q80 0 149.5 31.5t119.5 85.5t86 125.5
t53.5 152t17.5 163.5q0 144 -66.5 229.5t-195.5 85.5q-149 0 -264 -104t-154 -322l-10 -59q-9 -61 -7.5 -117.5t21.5 -106t51.5 -86t83 -57.5t115.5 -21z" />
    <glyph glyph-name="c" unicode="c" horiz-adv-x="1087" 
d="M672 1114q190 0 285.5 -104.5t97.5 -288.5h-185q-12 258 -231 258q-171 0 -283 -159.5t-112 -413.5q0 -150 65.5 -225t171.5 -75q113 0 198 61t132 179h184q-80 -191 -211 -283t-329 -92q-181 0 -292.5 111t-111.5 317q0 110 25.5 214.5t77.5 195t125 158.5t174 107.5
t219 39.5z" />
    <glyph glyph-name="d" unicode="d" horiz-adv-x="1253" 
d="M1274 1505l-266 -1505h-177l31 174l-102 -117q-53 -38 -135.5 -62t-165.5 -24q-99 0 -177 34t-127.5 94.5t-75.5 140.5t-26 174q0 103 24.5 202t76.5 189.5t126 159t181.5 109t234.5 40.5q69 0 141 -25.5t107 -64.5l49 -106l105 587h176zM926 532l10 60q9 61 7.5 117.5
t-21.5 105.5t-51.5 85.5t-82.5 57.5t-116 21q-99 0 -181.5 -48t-135 -127.5t-81 -178t-28.5 -203.5q0 -144 66.5 -230t195.5 -86q149 0 264 104t154 322z" />
    <glyph glyph-name="e" unicode="e" horiz-adv-x="1103" 
d="M1032 489h-784q-4 -58 -4 -86q0 -149 67 -223t178 -74q109 0 198 65t126 179h184q-42 -126 -129 -213.5t-190.5 -126.5t-218.5 -39q-186 0 -297 112t-111 314q0 81 15 162.5t45 163t80 151.5t114.5 124t154.5 85t195 31q189 0 299.5 -109.5t110.5 -293.5q0 -113 -33 -222
zM629 979q-76 0 -138.5 -29t-105.5 -80t-71.5 -111.5t-45.5 -133.5h615q4 54 4 75q0 132 -69 205.5t-189 73.5z" />
    <glyph glyph-name="f" unicode="f" horiz-adv-x="559" 
d="M485 1294q-20 -59 -30 -110l-19 -107h223l-24 -135h-223l-164 -942h-176l166 942h-99l25 135h96l16 90q14 78 31 131q37 118 117 182t190 64q84 0 146 -10l-27 -145q-39 8 -80 8q-130 0 -168 -103z" />
    <glyph glyph-name="g" unicode="g" horiz-adv-x="1253" 
d="M1200 1085l-145 -819q-26 -145 -39 -211q-50 -239 -201.5 -362t-400.5 -123q-205 0 -320 94.5t-102 263.5l2 21h178l-2 -19q-6 -103 63 -164t205 -61q160 0 262 86.5t136 245.5q4 23 12.5 62t11.5 57l4 18l-104 -117q-53 -38 -135.5 -62t-165.5 -24q-99 0 -177 34
t-127.5 94.5t-75.5 140.5t-26 174q0 103 24.5 202t76.5 189.5t126 159t181.5 109t234.5 40.5q69 0 141 -25.5t107 -64.5l49 -109l31 170h176zM508 106q149 0 264 104t154 322v-10l14 84l-4 -14q9 61 7.5 117.5t-21.5 105.5t-51.5 85.5t-82.5 57.5t-116 21q-99 0 -181.5 -48
t-135 -127.5t-81 -178t-28.5 -203.5q0 -144 66.5 -230t195.5 -86z" />
    <glyph glyph-name="h" unicode="h" horiz-adv-x="1218" 
d="M780 1114q163 0 247.5 -74t84.5 -204q0 -85 -27 -226l-110 -610h-176l108 598q23 132 23 188q0 89 -50.5 140.5t-160.5 48.5q-68 -2 -127 -28.5t-113 -82.5t-96 -154t-66 -233l-84 -477h-176l267 1516h176l-109 -617l90 125q75 52 143 71t156 19z" />
    <glyph glyph-name="i" unicode="i" horiz-adv-x="479" 
d="M401 1442q42 0 69.5 -27t27.5 -67q0 -55 -38.5 -93t-94.5 -38q-42 0 -69.5 27t-27.5 67q0 55 38.5 93t94.5 38zM233 0h-176l193 1085h176z" />
    <glyph glyph-name="j" unicode="j" horiz-adv-x="415" 
d="M365 1442q42 0 69 -27t27 -67q0 -55 -38.5 -93t-94.5 -38q-42 0 -69.5 27t-27.5 67q0 55 39 93t95 38zM395 1085l-207 -1179q-19 -99 -28 -131q-30 -102 -99.5 -153.5t-191.5 -51.5q-57 0 -84 4l27 143q140 -18 176 88q12 33 26 113l205 1167h176z" />
    <glyph glyph-name="k" unicode="k" horiz-adv-x="1058" 
d="M561 571l410 -571h-211l-328 473l-135 -119l-64 -354h-176l267 1505h176l-168 -954l600 534h225z" />
    <glyph glyph-name="l" unicode="l" horiz-adv-x="507" 
d="M489 1505l-210 -1194q-15 -82 -15 -106q0 -52 27 -67t92 -9l-23 -129q-55 -8 -127 -8q-76 0 -116.5 29t-40.5 104q0 36 26 180l211 1200h176z" />
    <glyph glyph-name="m" unicode="m" horiz-adv-x="1751" 
d="M1368 1114q139 0 211 -72t72 -188q0 -61 -23 -190l-117 -664h-176l103 582q28 162 28 225q0 84 -47.5 126t-136.5 42q-104 0 -191.5 -118.5t-123.5 -315.5v-4l-95 -537h-176l103 582q28 162 28 225q0 84 -47.5 126t-136.5 42q-104 0 -192 -120t-123 -318l-95 -537h-176
l191 1085h176l-29 -159l92 125q88 63 242 63q120 0 190.5 -55t88.5 -148l118 140q88 63 242 63z" />
    <glyph glyph-name="n" unicode="n" horiz-adv-x="1218" 
d="M780 1114q163 0 247.5 -74t84.5 -204q0 -85 -27 -226l-110 -610h-176l108 598q23 132 23 188q0 89 -50.5 140.5t-160.5 48.5q-68 -2 -127 -28.5t-113 -82.5t-96 -154t-66 -233l-84 -477h-176l191 1085h176l-33 -186l90 125q75 52 143 71t156 19z" />
    <glyph glyph-name="o" unicode="o" horiz-adv-x="1204" 
d="M682 1114q122 0 214 -39.5t145.5 -108t79.5 -151.5t26 -180q0 -91 -22 -182t-71.5 -178.5t-120 -154.5t-177 -108t-234.5 -41q-98 0 -177 26.5t-132 71t-88.5 106.5t-51.5 130.5t-16 145.5q0 91 22 181.5t71.5 178t120 154.5t177 108t234.5 41zM545 106q97 0 177 47
t129.5 123t76 168t26.5 187q0 152 -74.5 250t-220.5 98q-78 0 -145.5 -30.5t-115 -82.5t-81.5 -119.5t-50.5 -142t-16.5 -149.5q0 -153 74.5 -251t220.5 -98z" />
    <glyph glyph-name="p" unicode="p" horiz-adv-x="1257" 
d="M799 1114q195 0 300 -123.5t105 -318.5q0 -103 -24.5 -202t-76.5 -190t-126 -159.5t-181.5 -109t-234.5 -40.5q-69 0 -141 25.5t-107 64.5l-49 107l-102 -569h-176l264 1486h176l-31 -174l103 117q53 38 135.5 62t165.5 24zM586 106q80 0 149.5 31.5t119.5 85.5t86 125.5
t53.5 152t17.5 163.5q0 144 -66.5 229.5t-195.5 85.5q-149 0 -264 -104t-154 -322l-10 -59q-9 -61 -7.5 -117.5t21.5 -106t51.5 -86t83 -57.5t115.5 -21z" />
    <glyph glyph-name="q" unicode="q" horiz-adv-x="1253" 
d="M1200 1085l-264 -1486h-176l102 573l-102 -115q-53 -38 -135.5 -62t-165.5 -24q-99 0 -177 34t-127.5 94.5t-75.5 140.5t-26 174q0 103 24.5 202t76.5 189.5t126 159t181.5 109t234.5 40.5q69 0 141 -25.5t107 -64.5l49 -106l31 167h176zM926 532l10 60q9 61 7.5 117.5
t-21.5 105.5t-51.5 85.5t-82.5 57.5t-116 21q-99 0 -181.5 -48t-135 -127.5t-81 -178t-28.5 -203.5q0 -144 66.5 -230t195.5 -86q149 0 264 104t154 322z" />
    <glyph glyph-name="r" unicode="r" horiz-adv-x="663" 
d="M680 1110q44 0 72 -14l-25 -133q-143 9 -247.5 -78.5t-137.5 -266.5l-109 -618h-176l193 1085h176l-31 -170l125 146q77 49 160 49z" />
    <glyph glyph-name="s" unicode="s" horiz-adv-x="923" 
d="M518 1114q182 0 271 -90.5t92 -247.5h-185q-10 203 -186 203q-107 0 -159 -50t-52 -124q0 -70 50.5 -112.5t146.5 -71.5q164 -50 242.5 -125t78.5 -203q0 -146 -113.5 -240t-310.5 -94q-109 0 -191 30.5t-127.5 82t-68.5 110t-26 125.5h184q19 -213 244 -213
q94 0 155.5 50.5t61.5 134.5q0 72 -50.5 117.5t-166.5 80.5q-70 21 -119 44t-93.5 58.5t-67 87t-22.5 119.5q0 141 108 234.5t304 93.5z" />
    <glyph glyph-name="t" unicode="t" horiz-adv-x="620" 
d="M416 942l-111 -625q-14 -82 -14 -112q0 -57 41.5 -74t132.5 -2l-25 -129q-59 -16 -131 -16q-203 0 -203 157q0 41 23 168l113 633h-144l25 135h141l45 252h176l-45 -252h187l-25 -135h-186z" />
    <glyph glyph-name="u" unicode="u" horiz-adv-x="1208" 
d="M1153 1085l-190 -1085h-177l33 186l-90 -125q-75 -52 -143 -71t-156 -19q-162 0 -247 74.5t-85 204.5q0 84 27 225l111 610h176l-109 -598q-22 -126 -22 -188q0 -89 50.5 -140t160.5 -48q68 2 127 28t113 82t95.5 154t65.5 233l84 477h176z" />
    <glyph glyph-name="v" unicode="v" horiz-adv-x="1011" 
d="M1120 1085l-604 -1085h-225l-219 1085h200l156 -944l490 944h202z" />
    <glyph glyph-name="w" unicode="w" horiz-adv-x="1556" 
d="M1665 1085l-539 -1085h-208l-80 909l-402 -909h-211l-153 1085h202l91 -901l391 901h223l82 -903l412 903h192z" />
    <glyph glyph-name="x" unicode="x" horiz-adv-x="968" 
d="M580 541l290 -541h-208l-209 416l-355 -416h-207l480 543l-269 542h209l189 -421l354 421h209z" />
    <glyph glyph-name="y" unicode="y" horiz-adv-x="1011" 
d="M1120 1085l-604 -1085q-141 -254 -240 -342t-251 -88q-45 0 -86 6l24 145q35 -6 64 -6q84 0 142.5 42t115.5 149l18 35l-231 1144h200l156 -956l490 956h202z" />
    <glyph glyph-name="z" unicode="z" horiz-adv-x="970" 
d="M963 936l-762 -797h633l-25 -139h-846l23 135l768 803h-582l25 139h790z" />
    <glyph glyph-name="braceleft" unicode="{" horiz-adv-x="620" 
d="M739 1597l-20 -114h-25q-61 0 -94.5 -10t-57.5 -43t-31 -92t-5 -160q2 -96 -8 -171t-35.5 -139.5t-75 -103.5t-121.5 -49q72 -8 112 -48.5t40 -109.5q0 -92 -76 -301q-63 -172 -63 -229q0 -76 145 -76h25l-21 -115h-22q-125 0 -187.5 39.5t-62.5 140.5q0 40 13.5 88
t59.5 172q66 176 66 265q0 52 -34 81.5t-109 36.5l20 115q63 6 100 21t65.5 55.5t39 114t8.5 192.5q-2 134 12 217t54 134t102 70t164 19h22z" />
    <glyph glyph-name="bar" unicode="|" horiz-adv-x="512" 
d="M135 -410h-119l361 2048h119z" />
    <glyph glyph-name="braceright" unicode="}" horiz-adv-x="620" 
d="M387 893q0 -105 143 -119l-20 -115q-63 -6 -100 -21t-65.5 -55.5t-39 -114t-8.5 -192.5q2 -134 -12 -217t-54 -134t-102 -70t-164 -19h-22l20 115h25q61 0 94.5 10t57.5 43t31 92t5 160q-2 96 8 171t35.5 139.5t75 103.5t121.5 49q-72 8 -112 48.5t-40 109.5q0 92 76 301
q63 172 63 229q0 76 -145 76h-25l21 114h22q125 0 187.5 -39.5t62.5 -140.5q0 -40 -13.5 -88t-59.5 -172q-66 -176 -66 -264z" />
    <glyph glyph-name="asciitilde" unicode="~" 
d="M920 729h114q-48 -272 -274 -272q-55 0 -96 17t-125 67q-63 37 -102.5 54t-78.5 17q-56 0 -85.5 -39t-43.5 -116h-114q48 272 274 272q55 0 96 -17t125 -67q44 -26 67.5 -38.5t55 -23t58.5 -10.5q55 0 84.5 39.5t44.5 116.5z" />
    <glyph glyph-name="exclamdown" unicode="&#xa1;" horiz-adv-x="532" 
d="M322 852q-50 0 -80.5 29t-30.5 75q0 67 46 112.5t110 45.5q50 0 80 -29t30 -75q0 -67 -45.5 -112.5t-109.5 -45.5zM219 717h160l-180 -1045h-209z" />
    <glyph glyph-name="cent" unicode="&#xa2;" 
d="M705 975l-152 -864q185 31 268 235h185q-74 -175 -191 -267.5t-287 -105.5l-28 -157h-119l29 157q-159 18 -254 127.5t-95 298.5q0 130 36 250t103.5 218t173.5 163t236 80l29 160h119l-29 -158q168 -12 253 -115t87 -276h-184q-9 227 -180 254zM254 406
q0 -128 48.5 -200.5t131.5 -92.5l152 860q-148 -31 -240 -185t-92 -382z" />
    <glyph glyph-name="sterling" unicode="&#xa3;" 
d="M479 528q0 -128 -47.5 -216t-169.5 -169h721l-25 -143h-972l22 127q81 19 139.5 62t88.5 98t43.5 108t13.5 107q0 57 -23 147h-151l20 115h99q-29 106 -29 229q0 85 31 164.5t89.5 143.5t153.5 102.5t213 38.5q83 0 148.5 -21t108 -56.5t72 -88t43.5 -109.5t19 -127h-188
q-8 135 -63 199t-170 64q-116 0 -190.5 -86.5t-74.5 -219.5q0 -108 39 -233h445l-21 -115h-399q14 -57 14 -121z" />
    <glyph glyph-name="currency" unicode="&#xa4;" 
d="M1042 950l-149 -127q43 -78 43 -168q0 -150 -98 -266l90 -113l-94 -79l-95 110q-97 -59 -225 -59q-109 0 -195 76l-143 -121l-70 84l148 123q-43 73 -43 168q0 155 100 270l-90 110l94 80l95 -108q93 55 219 55q110 0 196 -76l148 125zM336 590q0 -102 57 -162.5
t144 -60.5q62 0 114.5 24t86.5 63.5t53.5 88.5t19.5 100q0 101 -59 162t-146 61q-121 0 -195.5 -84t-74.5 -192z" />
    <glyph glyph-name="yen" unicode="&#xa5;" 
d="M752 731h245l-20 -115h-311l-27 -38l-16 -93h331l-20 -114h-332l-65 -371h-177l66 371h-332l21 114h331l19 107l-10 24h-318l21 115h254l-252 682h211l215 -678l461 678h206z" />
    <glyph glyph-name="brokenbar" unicode="&#xa6;" horiz-adv-x="512" 
d="M334 717h-119l123 696h119zM150 -328h-119l123 697h118z" />
    <glyph glyph-name="section" unicode="&#xa7;" horiz-adv-x="1146" 
d="M1087 516q0 -110 -72 -199.5t-198 -128.5q64 -80 64 -192q0 -160 -129.5 -256t-329.5 -96q-73 0 -138 21.5t-118.5 63.5t-87.5 112t-41 159h184q10 -111 75 -166t155 -55q111 0 174 50t63 148q0 85 -59.5 138.5t-212.5 109.5q-82 30 -139.5 60.5t-106 73t-72.5 99
t-24 128.5q0 105 71 194t207 131q-57 75 -57 185q0 64 26.5 125t76 111t129.5 80t178 30q156 0 251 -91.5t109 -248.5h-184q-9 97 -61.5 151t-141.5 54q-82 0 -136.5 -55.5t-54.5 -149.5q0 -148 238 -217q184 -54 273 -144.5t89 -224.5zM678 301q103 7 160 63t57 138
t-63 135.5t-201 99.5q-85 25 -158 68q-101 -15 -154 -70t-53 -133q0 -82 60.5 -134t183.5 -95q118 -45 168 -72z" />
    <glyph glyph-name="dieresis" unicode="&#xa8;" horiz-adv-x="614" 
d="M174 1382q35 0 57.5 -22.5t22.5 -56.5q0 -42 -35.5 -75.5t-77.5 -33.5q-35 0 -57.5 23t-22.5 57q0 42 35.5 75t77.5 33zM473 1382q35 0 57.5 -22.5t22.5 -56.5q0 -42 -35.5 -75.5t-77.5 -33.5q-35 0 -57.5 23t-22.5 57q0 42 35.5 75t77.5 33z" />
    <glyph glyph-name="copyright" unicode="&#xa9;" horiz-adv-x="1716" 
d="M858 1524q162 0 307.5 -61.5t250 -167.5t165.5 -254t61 -314t-61 -314t-165.5 -254t-250 -167.5t-307.5 -61.5t-307.5 61.5t-250 167.5t-165.5 254t-61 314t61 314t165.5 254t250 167.5t307.5 61.5zM858 1405q-183 0 -333.5 -89t-237 -244.5t-86.5 -344.5
q0 -190 86.5 -345.5t237 -244t333.5 -88.5q137 0 259 52t209.5 142t138.5 216t51 268q0 141 -51 267t-138.5 216t-209.5 142.5t-259 52.5zM870 1200q163 0 269.5 -90t136.5 -240h-189q-16 87 -69 139t-148 52q-118 0 -181.5 -89t-63.5 -243t66.5 -245t178.5 -91q86 0 144 55
t71 136h189q-37 -153 -141.5 -241.5t-280.5 -88.5q-189 0 -306.5 129t-117.5 340q0 219 121 348t321 129z" />
    <glyph glyph-name="guillemotleft" unicode="&#xab;" horiz-adv-x="1099" 
d="M389 494l211 -326h-145l-222 340l340 340h170zM717 494l211 -326h-146l-221 340l340 340h170z" />
    <glyph glyph-name="logicalnot" unicode="&#xac;" 
d="M881 430h-119l41 242h-637l20 114h756z" />
    <glyph glyph-name="registered" unicode="&#xae;" horiz-adv-x="1040" 
d="M569 1565q183 0 291.5 -108.5t108.5 -274.5q0 -93 -34.5 -178.5t-96 -152t-156.5 -106.5t-207 -40q-183 0 -291 108t-108 274q0 125 57.5 232.5t172 176.5t263.5 69zM492 799q172 0 275 111.5t103 271.5q0 128 -85 208t-232 80q-115 0 -203 -53.5t-132 -139.5t-44 -190
q0 -128 85.5 -208t232.5 -80zM602 1348q54 -6 83.5 -35t29.5 -76q0 -41 -24.5 -71.5t-74.5 -43.5q51 -18 48 -80q-4 -63 14 -110h-115q-8 47 -8 100q0 39 -49 39h-47l-25 -139h-102l74 418h143q37 0 53 -2zM473 1157h41q23 0 35 2q57 7 57 58q0 40 -41 47q-12 2 -33 2h-40z
" />
    <glyph glyph-name="macron" unicode="&#xaf;" horiz-adv-x="614" 
d="M543 1237h-492l21 106h491z" />
    <glyph glyph-name="degree" unicode="&#xb0;" horiz-adv-x="616" 
d="M469 1534q99 0 161 -60t62 -149q0 -118 -74.5 -198t-205.5 -80q-100 0 -162 59.5t-62 148.5q0 118 75 198.5t206 80.5zM457 1419q-61 0 -100.5 -39.5t-39.5 -113.5q0 -51 29.5 -78t77.5 -27q61 0 100 40t39 114q0 51 -29 77.5t-77 26.5z" />
    <glyph glyph-name="plusminus" unicode="&#xb1;" 
d="M1034 711l-20 -115h-371l-65 -369h-119l65 369h-370l20 115h371l63 360h119l-63 -360h370zM70 115h860l-21 -115h-860z" />
    <glyph glyph-name="acute" unicode="&#xb4;" horiz-adv-x="614" 
d="M332 1188h-115l166 225h164z" />
    <glyph glyph-name="paragraph" unicode="&#xb6;" horiz-adv-x="1140" 
d="M1145 1413l-291 -1638h-119l271 1523h-189l-270 -1523h-119l156 880h-47q-80 0 -115 2q-83 5 -144 53.5t-89.5 118.5t-28.5 152q0 54 14 110t45 112t76 100t112.5 73.5t147.5 34.5q37 2 117 2h473z" />
    <glyph glyph-name="periodcentered" unicode="&#xb7;" horiz-adv-x="413" 
d="M246 766q53 0 86 -32.5t33 -82.5q0 -68 -50.5 -118t-117.5 -50q-53 0 -86 32.5t-33 82.5q0 68 50.5 118t117.5 50z" />
    <glyph glyph-name="cedilla" unicode="&#xb8;" horiz-adv-x="614" 
d="M379 18l-74 -100q67 -12 103 -53.5t36 -100.5q0 -98 -76 -146t-198 -48q-70 0 -111 18l17 82q38 -14 104 -14q71 0 108.5 27t37.5 71q0 47 -48 71.5t-135 14.5l127 178h109z" />
    <glyph glyph-name="guillemotright" unicode="&#xbb;" horiz-adv-x="1099" 
d="M526 508l-340 -340h-170l355 354l-211 326h145zM854 508l-340 -340h-170l354 354l-211 326h146z" />
    <glyph glyph-name="questiondown" unicode="&#xbf;" horiz-adv-x="1132" 
d="M690 852q-50 0 -80 29t-30 75q0 67 45.5 112.5t109.5 45.5q50 0 80.5 -29t30.5 -75q0 -67 -46 -112.5t-110 -45.5zM461 -356q-179 0 -281 85t-102 220q0 124 65 231.5t232 255.5q97 85 141 145t66 136h176q-15 -85 -59 -151t-164 -183q-157 -153 -211 -241t-54 -177
q0 -87 57.5 -134.5t155.5 -47.5q121 0 204 72.5t108 218.5h184q-30 -198 -172.5 -314t-345.5 -116z" />
    <glyph glyph-name="Agrave" unicode="&#xc0;" horiz-adv-x="1323" 
d="M825 1507l-127 193h164l78 -193h-115zM942 500h-518l-258 -500h-201l758 1413h250l237 -1413h-190zM920 643l-97 631l-325 -631h422z" />
    <glyph glyph-name="Aacute" unicode="&#xc1;" horiz-adv-x="1323" 
d="M922 1507h-115l143 193h164zM942 500h-518l-258 -500h-201l758 1413h250l237 -1413h-190zM920 643l-97 631l-325 -631h422z" />
    <glyph glyph-name="Acircumflex" unicode="&#xc2;" horiz-adv-x="1323" 
d="M813 1507h-135l170 193h121l104 -193h-137l-43 113zM942 500h-518l-258 -500h-201l758 1413h250l237 -1413h-190zM920 643l-97 631l-325 -631h422z" />
    <glyph glyph-name="Atilde" unicode="&#xc3;" horiz-adv-x="1323" 
d="M780 1577q-33 0 -41 -41h-77q14 82 46.5 113.5t86.5 31.5q46 0 120 -26q68 -23 86 -23q33 0 41 41h78q-14 -82 -46.5 -113.5t-86.5 -31.5q-47 0 -121 26q-68 23 -86 23zM942 500h-518l-258 -500h-201l758 1413h250l237 -1413h-190zM920 643l-97 631l-325 -631h422z" />
    <glyph glyph-name="Adieresis" unicode="&#xc4;" horiz-adv-x="1323" 
d="M731 1509q-35 0 -57.5 23t-22.5 57q0 42 35.5 75.5t77.5 33.5q35 0 57.5 -23t22.5 -57q0 -42 -35.5 -75.5t-77.5 -33.5zM1018 1509q-35 0 -57.5 23t-22.5 57q0 42 35.5 75.5t77.5 33.5q35 0 57 -23t22 -57q0 -42 -35 -75.5t-77 -33.5zM942 500h-518l-258 -500h-201
l758 1413h250l237 -1413h-190zM920 643l-97 631l-325 -631h422z" />
    <glyph glyph-name="Aring" unicode="&#xc5;" horiz-adv-x="1323" 
d="M877 1466q-78 0 -123 39t-45 99q0 86 61 136t148 50q78 0 122.5 -38.5t44.5 -98.5q0 -86 -60.5 -136.5t-147.5 -50.5zM913 1716q-43 0 -72.5 -27.5t-29.5 -76.5q0 -31 19 -51.5t51 -20.5q43 0 72.5 28t29.5 77q0 31 -19 51t-51 20zM942 500h-518l-258 -500h-201l758 1413
h250l237 -1413h-190zM920 643l-97 631l-325 -631h422z" />
    <glyph glyph-name="AE" unicode="&#xc6;" horiz-adv-x="1902" 
d="M1165 1270l-55 -492h680l-25 -143h-673l-56 -492h725l-26 -143h-891l59 500h-467l-379 -500h-221l1086 1413h1042l-27 -143h-772zM991 1233l-446 -590h377z" />
    <glyph glyph-name="Ccedilla" unicode="&#xc7;" horiz-adv-x="1468" 
d="M909 1442q261 0 394.5 -132.5t117.5 -346.5l-2 -21h-176v21q0 179 -90 259.5t-272 80.5q-166 0 -296.5 -98t-200 -263t-69.5 -364q0 -231 99 -349t278 -118q318 0 449 340l8 20h176l-6 -20q-62 -219 -228.5 -349.5t-433.5 -130.5q-47 0 -94 6l-43 -59q67 -12 103 -53.5
t36 -100.5q0 -98 -76 -146t-198 -48q-71 0 -111 18l17 82q38 -14 104 -14q71 0 108.5 27t37.5 71q0 47 -48 71.5t-135 14.5l111 156q-172 52 -263 198t-89 361q-1 247 100 450t283.5 320t408.5 117z" />
    <glyph glyph-name="Egrave" unicode="&#xc8;" horiz-adv-x="1214" 
d="M807 1507l-127 193h164l78 -193h-115zM508 1270l-88 -492h682l-25 -143h-682l-88 -492h766l-26 -143h-941l250 1413h920l-27 -143h-741z" />
    <glyph glyph-name="Eacute" unicode="&#xc9;" horiz-adv-x="1214" 
d="M903 1507h-115l144 193h164zM508 1270l-88 -492h682l-25 -143h-682l-88 -492h766l-26 -143h-941l250 1413h920l-27 -143h-741z" />
    <glyph glyph-name="Ecircumflex" unicode="&#xca;" horiz-adv-x="1214" 
d="M795 1507h-136l170 193h121l105 -193h-137l-44 113zM508 1270l-88 -492h682l-25 -143h-682l-88 -492h766l-26 -143h-941l250 1413h920l-27 -143h-741z" />
    <glyph glyph-name="Edieresis" unicode="&#xcb;" horiz-adv-x="1214" 
d="M713 1509q-35 0 -57.5 23t-22.5 57q0 42 35 75.5t77 33.5q35 0 57.5 -23t22.5 -57q0 -42 -35 -75.5t-77 -33.5zM999 1509q-35 0 -57 23t-22 57q0 42 35 75.5t77 33.5q35 0 57.5 -23t22.5 -57q0 -42 -35.5 -75.5t-77.5 -33.5zM508 1270l-88 -492h682l-25 -143h-682
l-88 -492h766l-26 -143h-941l250 1413h920l-27 -143h-741z" />
    <glyph glyph-name="Igrave" unicode="&#xcc;" horiz-adv-x="538" 
d="M526 1507h-114l-127 193h164zM283 0h-177l250 1413h176z" />
    <glyph glyph-name="Iacute" unicode="&#xcd;" horiz-adv-x="538" 
d="M508 1507h-115l144 193h163zM283 0h-177l250 1413h176z" />
    <glyph glyph-name="Icircumflex" unicode="&#xce;" horiz-adv-x="538" 
d="M399 1507h-135l170 193h121l104 -193h-137l-43 113zM356 1413h176l-249 -1413h-177z" />
    <glyph glyph-name="Idieresis" unicode="&#xcf;" horiz-adv-x="538" 
d="M350 1698q35 0 57.5 -23t22.5 -57q0 -42 -35.5 -75.5t-77.5 -33.5q-35 0 -57 23t-22 57q0 42 35 75.5t77 33.5zM637 1698q35 0 57.5 -23t22.5 -57q0 -42 -35.5 -75.5t-77.5 -33.5q-35 0 -57.5 23t-22.5 57q0 42 35.5 75.5t77.5 33.5zM283 0h-177l250 1413h176z" />
    <glyph glyph-name="Eth" unicode="&#xd0;" horiz-adv-x="1456" 
d="M897 1407q108 -10 199.5 -51.5t162.5 -114.5t111.5 -185.5t40.5 -252.5q0 -112 -28.5 -219.5t-89 -206t-147 -176t-209 -129.5t-267.5 -66q-74 -6 -183 -6h-381l111 625h-194l20 114h195l118 674h363q108 0 178 -6zM684 152q136 19 240.5 80t167 150.5t94 194.5t31.5 222
q0 209 -97 325t-252 138q-60 8 -155 8h-207l-94 -531h254l-21 -114h-252l-86 -482h217q92 0 160 9z" />
    <glyph glyph-name="Ntilde" unicode="&#xd1;" horiz-adv-x="1468" 
d="M831 1577q-32 0 -40 -41h-78q14 82 46.5 113.5t86.5 31.5q47 0 121 -26q68 -23 86 -23q33 0 41 41h77q-14 -82 -46.5 -113.5t-86.5 -31.5q-46 0 -120 26q-68 23 -87 23zM1462 1413l-250 -1413h-270l-444 1245l-215 -1245h-177l250 1413h271l440 -1245l219 1245h176z" />
    <glyph glyph-name="Ograve" unicode="&#xd2;" horiz-adv-x="1529" 
d="M883 1507l-127 193h164l77 -193h-114zM915 1442q137 0 246.5 -48.5t179.5 -133t107 -194.5t37 -237q0 -130 -29 -251.5t-92 -232.5t-154.5 -193.5t-225 -131.5t-294.5 -49q-137 0 -246.5 48.5t-179 133t-106.5 194.5t-37 237q0 130 29 251.5t92 232.5t154 193.5
t224.5 131.5t294.5 49zM727 111q112 0 207.5 44t160 116t110 166t66.5 193.5t21 198.5q0 215 -111 344.5t-302 129.5q-112 0 -207.5 -44t-160.5 -116.5t-110.5 -166.5t-66.5 -193.5t-21 -198.5q0 -215 110.5 -344t303.5 -129z" />
    <glyph glyph-name="Oacute" unicode="&#xd3;" horiz-adv-x="1529" 
d="M979 1507h-115l144 193h163zM915 1442q137 0 246.5 -48.5t179.5 -133t107 -194.5t37 -237q0 -130 -29 -251.5t-92 -232.5t-154.5 -193.5t-225 -131.5t-294.5 -49q-137 0 -246.5 48.5t-179 133t-106.5 194.5t-37 237q0 130 29 251.5t92 232.5t154 193.5t224.5 131.5
t294.5 49zM727 111q112 0 207.5 44t160 116t110 166t66.5 193.5t21 198.5q0 215 -111 344.5t-302 129.5q-112 0 -207.5 -44t-160.5 -116.5t-110.5 -166.5t-66.5 -193.5t-21 -198.5q0 -215 110.5 -344t303.5 -129z" />
    <glyph glyph-name="Ocircumflex" unicode="&#xd4;" horiz-adv-x="1529" 
d="M870 1507h-135l170 193h121l104 -193h-137l-43 113zM915 1442q137 0 246.5 -48.5t179.5 -133t107 -194.5t37 -237q0 -130 -29 -251.5t-92 -232.5t-154.5 -193.5t-225 -131.5t-294.5 -49q-137 0 -246.5 48.5t-179 133t-106.5 194.5t-37 237q0 130 29 251.5t92 232.5
t154 193.5t224.5 131.5t294.5 49zM727 111q112 0 207.5 44t160 116t110 166t66.5 193.5t21 198.5q0 215 -111 344.5t-302 129.5q-112 0 -207.5 -44t-160.5 -116.5t-110.5 -166.5t-66.5 -193.5t-21 -198.5q0 -215 110.5 -344t303.5 -129z" />
    <glyph glyph-name="Otilde" unicode="&#xd5;" horiz-adv-x="1529" 
d="M838 1577q-33 0 -41 -41h-78q14 82 46.5 113.5t86.5 31.5q47 0 121 -26q68 -23 86 -23q33 0 41 41h78q-14 -81 -47 -113t-87 -32q-46 0 -120 26q-68 23 -86 23zM915 1442q137 0 246.5 -48.5t179.5 -133t107 -194.5t37 -237q0 -130 -29 -251.5t-92 -232.5t-154.5 -193.5
t-225 -131.5t-294.5 -49q-137 0 -246.5 48.5t-179 133t-106.5 194.5t-37 237q0 130 29 251.5t92 232.5t154 193.5t224.5 131.5t294.5 49zM727 111q112 0 207.5 44t160 116t110 166t66.5 193.5t21 198.5q0 215 -111 344.5t-302 129.5q-112 0 -207.5 -44t-160.5 -116.5
t-110.5 -166.5t-66.5 -193.5t-21 -198.5q0 -215 110.5 -344t303.5 -129z" />
    <glyph glyph-name="Odieresis" unicode="&#xd6;" horiz-adv-x="1529" 
d="M788 1509q-35 0 -57 23t-22 57q0 42 35 75.5t77 33.5q35 0 57.5 -23t22.5 -57q0 -42 -35.5 -75.5t-77.5 -33.5zM1075 1509q-35 0 -57.5 23t-22.5 57q0 42 35.5 75.5t77.5 33.5q35 0 57.5 -23t22.5 -57q0 -42 -35.5 -75.5t-77.5 -33.5zM915 1442q137 0 246.5 -48.5
t179.5 -133t107 -194.5t37 -237q0 -130 -29 -251.5t-92 -232.5t-154.5 -193.5t-225 -131.5t-294.5 -49q-137 0 -246.5 48.5t-179 133t-106.5 194.5t-37 237q0 130 29 251.5t92 232.5t154 193.5t224.5 131.5t294.5 49zM727 111q112 0 207.5 44t160 116t110 166t66.5 193.5
t21 198.5q0 215 -111 344.5t-302 129.5q-112 0 -207.5 -44t-160.5 -116.5t-110.5 -166.5t-66.5 -193.5t-21 -198.5q0 -215 110.5 -344t303.5 -129z" />
    <glyph glyph-name="multiply" unicode="&#xd7;" 
d="M666 635l225 -275l-100 -84l-226 275l-332 -283l-83 101l331 282l-225 275l100 84l226 -275l331 283l84 -100z" />
    <glyph glyph-name="Oslash" unicode="&#xd8;" horiz-adv-x="1531" 
d="M1593 1307l-174 -148q76 -143 76 -330q0 -130 -29 -251.5t-92 -232.5t-154.5 -193.5t-225 -131.5t-294.5 -49q-285 0 -442 201l-176 -149l-70 83l189 160q-70 137 -70 318q0 130 29 251.5t92 232.5t154.5 193.5t225 131.5t294.5 49q277 0 434 -191l164 140zM324 584
q0 -98 26 -191l871 742q-53 81 -138 124.5t-194 43.5q-112 0 -207.5 -44t-160 -116.5t-110 -166.5t-66.5 -193.5t-21 -198.5zM1303 829q0 112 -31 203l-875 -741q112 -180 340 -180q112 0 207.5 44t160.5 116t110.5 166t66.5 193.5t21 198.5z" />
    <glyph glyph-name="Ugrave" unicode="&#xd9;" horiz-adv-x="1398" 
d="M961 1507h-115l-127 193h164zM1409 1413l-158 -891q-13 -75 -26 -127q-104 -424 -600 -424q-222 0 -335.5 102t-113.5 294q0 77 17 170l155 876h176l-151 -860q-21 -123 -21 -180q0 -124 74.5 -193t222.5 -69q165 0 262.5 72t141.5 231q11 41 26 125l154 874h176z" />
    <glyph glyph-name="Uacute" unicode="&#xda;" horiz-adv-x="1398" 
d="M942 1507h-115l144 193h164zM1409 1413l-158 -891q-13 -75 -26 -127q-104 -424 -600 -424q-222 0 -335.5 102t-113.5 294q0 77 17 170l155 876h176l-151 -860q-21 -123 -21 -180q0 -124 74.5 -193t222.5 -69q165 0 262.5 72t141.5 231q11 41 26 125l154 874h176z" />
    <glyph glyph-name="Ucircumflex" unicode="&#xdb;" horiz-adv-x="1398" 
d="M834 1507h-136l170 193h121l105 -193h-138l-43 113zM1409 1413l-158 -891q-13 -75 -26 -127q-104 -424 -600 -424q-222 0 -335.5 102t-113.5 294q0 77 17 170l155 876h176l-151 -860q-21 -123 -21 -180q0 -124 74.5 -193t222.5 -69q165 0 262.5 72t141.5 231
q11 41 26 125l154 874h176z" />
    <glyph glyph-name="Udieresis" unicode="&#xdc;" horiz-adv-x="1398" 
d="M784 1698q35 0 57.5 -23t22.5 -57q0 -42 -35 -75.5t-77 -33.5q-35 0 -57.5 23t-22.5 57q0 42 35 75.5t77 33.5zM1071 1698q35 0 57.5 -23t22.5 -57q0 -42 -35.5 -75.5t-77.5 -33.5q-35 0 -57.5 23t-22.5 57q0 42 35.5 75.5t77.5 33.5zM1409 1413l-158 -891
q-13 -75 -26 -127q-104 -424 -600 -424q-222 0 -335.5 102t-113.5 294q0 77 17 170l155 876h176l-151 -860q-21 -123 -21 -180q0 -124 74.5 -193t222.5 -69q165 0 262.5 72t141.5 231q11 41 26 125l154 874h176z" />
    <glyph glyph-name="Yacute" unicode="&#xdd;" horiz-adv-x="1189" 
d="M844 1507h-115l143 193h164zM715 549l-97 -549h-176l99 557l-348 856h186l274 -696l508 696h207z" />
    <glyph glyph-name="Thorn" unicode="&#xde;" horiz-adv-x="1247" 
d="M956 1225q135 -18 215 -97t80 -210q0 -43 -8 -82q-30 -168 -146.5 -271.5t-279.5 -124.5q-66 -8 -186 -8h-273l-75 -432h-177l250 1413h176l-32 -180h272q121 0 184 -8zM1055 831q4 20 4 56q0 151 -156 188q-49 10 -155 10h-273l-90 -505h272q109 0 160 10
q201 45 238 241z" />
    <glyph glyph-name="germandbls" unicode="&#xdf;" horiz-adv-x="1202" 
d="M782 1544q195 0 298.5 -87t103.5 -228q0 -134 -92 -254q-110 -53 -149.5 -95.5t-39.5 -95.5q0 -43 19 -79.5t69 -86.5q137 -130 137 -286q0 -66 -28.5 -126t-82.5 -108.5t-140.5 -77t-194.5 -28.5q-100 0 -197 20l25 142q101 -27 188 -27q65 0 113.5 18.5t74.5 49.5
t38 64t12 69q0 106 -98 207q-71 74 -97 122.5t-26 122.5q0 162 221 273q55 83 55 176q0 80 -57 128t-170 48q-69 0 -125.5 -24t-93 -61.5t-64.5 -93t-43.5 -109t-27.5 -118.5l-177 -999h-176l174 983q12 69 27 126.5t38.5 116.5t53 105t71.5 87t93.5 68t119.5 42.5t148 15.5
z" />
    <glyph glyph-name="agrave" unicode="&#xe0;" horiz-adv-x="1036" 
d="M604 1188l-133 225h164l84 -225h-115zM623 1114q177 0 262.5 -71.5t85.5 -196.5q0 -50 -19 -162l-71 -408q-22 -126 -29 -276h-176l8 156l-78 -99q-90 -86 -284 -86q-124 0 -210.5 72.5t-86.5 208.5q0 114 57 198.5t158.5 132t236 65.5t295.5 5l4 29q19 109 19 145
q0 68 -42 110t-132 42q-134 0 -201.5 -56t-93.5 -173h-185q35 172 163 268t319 96zM403 106q106 0 204 88.5t122 217.5l21 112q-146 16 -264 -4.5t-193.5 -84.5t-75.5 -165q0 -78 50.5 -121t135.5 -43z" />
    <glyph glyph-name="aacute" unicode="&#xe1;" horiz-adv-x="1036" 
d="M698 1188h-114l166 225h163zM623 1114q177 0 262.5 -71.5t85.5 -196.5q0 -50 -19 -162l-71 -408q-22 -126 -29 -276h-176l8 156l-78 -99q-90 -86 -284 -86q-124 0 -210.5 72.5t-86.5 208.5q0 114 57 198.5t158.5 132t236 65.5t295.5 5l4 29q19 109 19 145q0 68 -42 110
t-132 42q-134 0 -201.5 -56t-93.5 -173h-185q35 172 163 268t319 96zM403 106q106 0 204 88.5t122 217.5l21 112q-146 16 -264 -4.5t-193.5 -84.5t-75.5 -165q0 -78 50.5 -121t135.5 -43z" />
    <glyph glyph-name="acircumflex" unicode="&#xe2;" horiz-adv-x="1036" 
d="M586 1188h-129l178 225h121l96 -225h-131l-45 129zM623 1114q177 0 262.5 -71.5t85.5 -196.5q0 -50 -19 -162l-71 -408q-22 -126 -29 -276h-176l8 156l-78 -99q-90 -86 -284 -86q-124 0 -210.5 72.5t-86.5 208.5q0 114 57 198.5t158.5 132t236 65.5t295.5 5l4 29
q19 109 19 145q0 68 -42 110t-132 42q-134 0 -201.5 -56t-93.5 -173h-185q35 172 163 268t319 96zM403 106q106 0 204 88.5t122 217.5l21 112q-146 16 -264 -4.5t-193.5 -84.5t-75.5 -165q0 -78 50.5 -121t135.5 -43z" />
    <glyph glyph-name="atilde" unicode="&#xe3;" horiz-adv-x="1036" 
d="M561 1270q-33 0 -41 -41h-78q14 82 46.5 113.5t86.5 31.5q47 0 121 -26q68 -23 86 -23q33 0 41 41h78q-14 -82 -46.5 -113.5t-86.5 -31.5q-47 0 -121 26q-68 23 -86 23zM623 1114q177 0 262.5 -71.5t85.5 -196.5q0 -50 -19 -162l-71 -408q-22 -126 -29 -276h-176l8 156
l-78 -99q-90 -86 -284 -86q-124 0 -210.5 72.5t-86.5 208.5q0 114 57 198.5t158.5 132t236 65.5t295.5 5l4 29q19 109 19 145q0 68 -42 110t-132 42q-134 0 -201.5 -56t-93.5 -173h-185q35 172 163 268t319 96zM403 106q106 0 204 88.5t122 217.5l21 112q-146 16 -264 -4.5
t-193.5 -84.5t-75.5 -165q0 -78 50.5 -121t135.5 -43z" />
    <glyph glyph-name="adieresis" unicode="&#xe4;" horiz-adv-x="1036" 
d="M504 1194q-35 0 -57.5 23t-22.5 57q0 42 35.5 75t77.5 33q35 0 57 -22.5t22 -56.5q0 -42 -35 -75.5t-77 -33.5zM803 1194q-35 0 -57.5 23t-22.5 57q0 42 35.5 75t77.5 33q35 0 57 -22.5t22 -56.5q0 -42 -35 -75.5t-77 -33.5zM623 1114q177 0 262.5 -71.5t85.5 -196.5
q0 -50 -19 -162l-71 -408q-22 -126 -29 -276h-176l8 156l-78 -99q-90 -86 -284 -86q-124 0 -210.5 72.5t-86.5 208.5q0 114 57 198.5t158.5 132t236 65.5t295.5 5l4 29q19 109 19 145q0 68 -42 110t-132 42q-134 0 -201.5 -56t-93.5 -173h-185q35 172 163 268t319 96z
M403 106q106 0 204 88.5t122 217.5l21 112q-146 16 -264 -4.5t-193.5 -84.5t-75.5 -165q0 -78 50.5 -121t135.5 -43z" />
    <glyph glyph-name="aring" unicode="&#xe5;" horiz-adv-x="1036" 
d="M647 1157q-72 0 -116 38.5t-44 100.5q0 87 65 146t157 59q72 0 115.5 -38.5t43.5 -100.5q0 -87 -64.5 -146t-156.5 -59zM694 1427q-43 0 -72.5 -33.5t-29.5 -88.5q0 -35 18.5 -54.5t51.5 -19.5q43 0 72.5 34t29.5 89q0 35 -18.5 54t-51.5 19zM623 1114q177 0 262.5 -71.5
t85.5 -196.5q0 -50 -19 -162l-71 -408q-22 -126 -29 -276h-176l8 156l-78 -99q-90 -86 -284 -86q-124 0 -210.5 72.5t-86.5 208.5q0 114 57 198.5t158.5 132t236 65.5t295.5 5l4 29q19 109 19 145q0 68 -42 110t-132 42q-134 0 -201.5 -56t-93.5 -173h-185q35 172 163 268
t319 96zM403 106q106 0 204 88.5t122 217.5l21 112q-146 16 -264 -4.5t-193.5 -84.5t-75.5 -165q0 -78 50.5 -121t135.5 -43z" />
    <glyph glyph-name="ae" unicode="&#xe6;" horiz-adv-x="1796" 
d="M1722 489h-782q-6 -46 -6 -86q0 -150 67 -223.5t179 -73.5q108 0 197 65t126 179h185q-42 -126 -129 -213.5t-190.5 -126.5t-219.5 -39q-292 0 -365 236l-75 -111q-85 -71 -164.5 -98t-206.5 -27q-136 0 -225.5 74t-89.5 195q0 86 37 154t116.5 121t217 81.5t325.5 28.5
h69q21 121 21 157q0 197 -193 197q-224 0 -274 -229h-184q35 173 162.5 268.5t318.5 95.5q279 0 328 -184q167 184 405 184q187 0 285 -108t98 -295q0 -113 -33 -222zM1346 979q-133 0 -233.5 -91.5t-147.5 -262.5h608q5 37 3 78t-6 80.5t-20.5 75t-41 62t-66 42.5t-96.5 16
zM406 106q126 0 224 88.5t124 233.5l10 61q-58 3 -113 3q-214 0 -323 -54.5t-109 -177.5q0 -73 49.5 -113.5t137.5 -40.5z" />
    <glyph glyph-name="ccedilla" unicode="&#xe7;" horiz-adv-x="1087" 
d="M481 106q113 0 198 61t132 179h184q-77 -184 -202.5 -276.5t-313.5 -98.5l-39 -53q67 -12 103.5 -53.5t36.5 -100.5q0 -98 -76.5 -146t-198.5 -48q-69 0 -110 18l16 82q38 -14 104 -14q71 0 108.5 27t37.5 71q0 47 -47.5 71.5t-134.5 14.5l98 137q-150 22 -238 131
t-88 291q0 110 25.5 214.5t77.5 195t125 158.5t174 107.5t219 39.5q190 0 285.5 -104.5t97.5 -288.5h-185q-12 258 -231 258q-171 0 -283 -159.5t-112 -413.5q0 -150 65.5 -225t171.5 -75z" />
    <glyph glyph-name="egrave" unicode="&#xe8;" horiz-adv-x="1103" 
d="M637 1188l-133 225h164l84 -225h-115zM1032 489h-784q-4 -58 -4 -86q0 -149 67 -223t178 -74q109 0 198 65t126 179h184q-42 -126 -129 -213.5t-190.5 -126.5t-218.5 -39q-186 0 -297 112t-111 314q0 81 15 162.5t45 163t80 151.5t114.5 124t154.5 85t195 31
q189 0 299.5 -109.5t110.5 -293.5q0 -113 -33 -222zM629 979q-76 0 -138.5 -29t-105.5 -80t-71.5 -111.5t-45.5 -133.5h615q4 54 4 75q0 132 -69 205.5t-189 73.5z" />
    <glyph glyph-name="eacute" unicode="&#xe9;" horiz-adv-x="1103" 
d="M731 1188h-115l166 225h164zM1032 489h-784q-4 -58 -4 -86q0 -149 67 -223t178 -74q109 0 198 65t126 179h184q-42 -126 -129 -213.5t-190.5 -126.5t-218.5 -39q-186 0 -297 112t-111 314q0 81 15 162.5t45 163t80 151.5t114.5 124t154.5 85t195 31q189 0 299.5 -109.5
t110.5 -293.5q0 -113 -33 -222zM629 979q-76 0 -138.5 -29t-105.5 -80t-71.5 -111.5t-45.5 -133.5h615q4 54 4 75q0 132 -69 205.5t-189 73.5z" />
    <glyph glyph-name="ecircumflex" unicode="&#xea;" horiz-adv-x="1103" 
d="M618 1188h-129l179 225h120l97 -225h-131l-45 129zM1032 489h-784q-4 -58 -4 -86q0 -149 67 -223t178 -74q109 0 198 65t126 179h184q-42 -126 -129 -213.5t-190.5 -126.5t-218.5 -39q-186 0 -297 112t-111 314q0 81 15 162.5t45 163t80 151.5t114.5 124t154.5 85t195 31
q189 0 299.5 -109.5t110.5 -293.5q0 -113 -33 -222zM629 979q-76 0 -138.5 -29t-105.5 -80t-71.5 -111.5t-45.5 -133.5h615q4 54 4 75q0 132 -69 205.5t-189 73.5z" />
    <glyph glyph-name="edieresis" unicode="&#xeb;" horiz-adv-x="1103" 
d="M537 1194q-35 0 -57.5 23t-22.5 57q0 42 35 75t77 33q35 0 57.5 -22.5t22.5 -56.5q0 -42 -35 -75.5t-77 -33.5zM836 1194q-35 0 -57.5 23t-22.5 57q0 42 35 75t77 33q35 0 57.5 -22.5t22.5 -56.5q0 -42 -35 -75.5t-77 -33.5zM1032 489h-784q-4 -58 -4 -86q0 -149 67 -223
t178 -74q109 0 198 65t126 179h184q-42 -126 -129 -213.5t-190.5 -126.5t-218.5 -39q-186 0 -297 112t-111 314q0 81 15 162.5t45 163t80 151.5t114.5 124t154.5 85t195 31q189 0 299.5 -109.5t110.5 -293.5q0 -113 -33 -222zM629 979q-76 0 -138.5 -29t-105.5 -80
t-71.5 -111.5t-45.5 -133.5h615q4 54 4 75q0 132 -69 205.5t-189 73.5z" />
    <glyph glyph-name="igrave" unicode="&#xec;" horiz-adv-x="479" 
d="M422 1188h-115l-133 225h164zM233 0h-176l193 1085h176z" />
    <glyph glyph-name="iacute" unicode="&#xed;" horiz-adv-x="479" 
d="M401 1188h-114l166 225h163zM233 0h-176l193 1085h176z" />
    <glyph glyph-name="icircumflex" unicode="&#xee;" horiz-adv-x="479" 
d="M289 1188h-129l178 225h121l96 -225h-131l-45 129zM250 1085h176l-193 -1085h-176z" />
    <glyph glyph-name="idieresis" unicode="&#xef;" horiz-adv-x="479" 
d="M240 1382q35 0 57 -22.5t22 -56.5q0 -42 -35 -75.5t-77 -33.5q-35 0 -57.5 23t-22.5 57q0 42 35.5 75t77.5 33zM539 1382q35 0 57 -22.5t22 -56.5q0 -42 -35 -75.5t-77 -33.5q-35 0 -57.5 23t-22.5 57q0 42 35.5 75t77.5 33zM233 0h-176l193 1085h176z" />
    <glyph glyph-name="eth" unicode="&#xf0;" horiz-adv-x="1220" 
d="M1130 1362l-124 -49q98 -173 98 -555q0 -118 -20.5 -227.5t-68.5 -212.5t-118.5 -179t-178 -122t-239.5 -46q-106 0 -189 35.5t-134.5 97t-78 142t-26.5 174.5q0 90 22.5 184t71 186t116 163.5t166.5 116t214 44.5q76 0 127.5 -13t101.5 -46l60 -107q-7 197 -78 307
l-281 -108l-36 100l241 92q-59 49 -137 82l123 105q112 -51 178 -123l154 59zM494 106q88 0 159.5 35t118.5 92.5t79 134.5t46 157.5t14 164.5q0 75 -23 132t-62.5 90.5t-86.5 50t-100 16.5q-81 0 -149 -36t-112.5 -93.5t-75.5 -131.5t-44.5 -148t-13.5 -144
q0 -163 65.5 -241.5t184.5 -78.5z" />
    <glyph glyph-name="ntilde" unicode="&#xf1;" horiz-adv-x="1218" 
d="M647 1270q-33 0 -41 -41h-78q14 81 47 113t87 32q46 0 120 -26q68 -23 86 -23q33 0 41 41h78q-14 -82 -46.5 -113.5t-86.5 -31.5q-47 0 -121 26q-68 23 -86 23zM780 1114q163 0 247.5 -74t84.5 -204q0 -85 -27 -226l-110 -610h-176l108 598q23 132 23 188
q0 89 -50.5 140.5t-160.5 48.5q-68 -2 -127 -28.5t-113 -82.5t-96 -154t-66 -233l-84 -477h-176l191 1085h176l-33 -186l90 125q75 52 143 71t156 19z" />
    <glyph glyph-name="ograve" unicode="&#xf2;" horiz-adv-x="1204" 
d="M668 1188l-133 225h163l84 -225h-114zM682 1114q122 0 214 -39.5t145.5 -108t79.5 -151.5t26 -180q0 -91 -22 -182t-71.5 -178.5t-120 -154.5t-177 -108t-234.5 -41q-98 0 -177 26.5t-132 71t-88.5 106.5t-51.5 130.5t-16 145.5q0 91 22 181.5t71.5 178t120 154.5
t177 108t234.5 41zM545 106q97 0 177 47t129.5 123t76 168t26.5 187q0 152 -74.5 250t-220.5 98q-78 0 -145.5 -30.5t-115 -82.5t-81.5 -119.5t-50.5 -142t-16.5 -149.5q0 -153 74.5 -251t220.5 -98z" />
    <glyph glyph-name="oacute" unicode="&#xf3;" horiz-adv-x="1204" 
d="M762 1188h-115l166 225h164zM682 1114q122 0 214 -39.5t145.5 -108t79.5 -151.5t26 -180q0 -91 -22 -182t-71.5 -178.5t-120 -154.5t-177 -108t-234.5 -41q-98 0 -177 26.5t-132 71t-88.5 106.5t-51.5 130.5t-16 145.5q0 91 22 181.5t71.5 178t120 154.5t177 108
t234.5 41zM545 106q97 0 177 47t129.5 123t76 168t26.5 187q0 152 -74.5 250t-220.5 98q-78 0 -145.5 -30.5t-115 -82.5t-81.5 -119.5t-50.5 -142t-16.5 -149.5q0 -153 74.5 -251t220.5 -98z" />
    <glyph glyph-name="ocircumflex" unicode="&#xf4;" horiz-adv-x="1204" 
d="M649 1188h-129l178 225h121l96 -225h-131l-45 129zM682 1114q122 0 214 -39.5t145.5 -108t79.5 -151.5t26 -180q0 -91 -22 -182t-71.5 -178.5t-120 -154.5t-177 -108t-234.5 -41q-98 0 -177 26.5t-132 71t-88.5 106.5t-51.5 130.5t-16 145.5q0 91 22 181.5t71.5 178
t120 154.5t177 108t234.5 41zM545 106q97 0 177 47t129.5 123t76 168t26.5 187q0 152 -74.5 250t-220.5 98q-78 0 -145.5 -30.5t-115 -82.5t-81.5 -119.5t-50.5 -142t-16.5 -149.5q0 -153 74.5 -251t220.5 -98z" />
    <glyph glyph-name="otilde" unicode="&#xf5;" horiz-adv-x="1204" 
d="M625 1270q-33 0 -41 -41h-78q14 82 46.5 113.5t86.5 31.5q47 0 121 -26q68 -23 86 -23q33 0 41 41h78q-14 -81 -47 -113t-87 -32q-46 0 -120 26q-68 23 -86 23zM682 1114q122 0 214 -39.5t145.5 -108t79.5 -151.5t26 -180q0 -91 -22 -182t-71.5 -178.5t-120 -154.5
t-177 -108t-234.5 -41q-98 0 -177 26.5t-132 71t-88.5 106.5t-51.5 130.5t-16 145.5q0 91 22 181.5t71.5 178t120 154.5t177 108t234.5 41zM545 106q97 0 177 47t129.5 123t76 168t26.5 187q0 152 -74.5 250t-220.5 98q-78 0 -145.5 -30.5t-115 -82.5t-81.5 -119.5
t-50.5 -142t-16.5 -149.5q0 -153 74.5 -251t220.5 -98z" />
    <glyph glyph-name="odieresis" unicode="&#xf6;" horiz-adv-x="1204" 
d="M567 1194q-35 0 -57.5 23t-22.5 57q0 42 35.5 75t77.5 33q35 0 57.5 -22.5t22.5 -56.5q0 -42 -35.5 -75.5t-77.5 -33.5zM866 1194q-35 0 -57.5 23t-22.5 57q0 42 35.5 75t77.5 33q35 0 57.5 -22.5t22.5 -56.5q0 -42 -35.5 -75.5t-77.5 -33.5zM682 1114q122 0 214 -39.5
t145.5 -108t79.5 -151.5t26 -180q0 -91 -22 -182t-71.5 -178.5t-120 -154.5t-177 -108t-234.5 -41q-98 0 -177 26.5t-132 71t-88.5 106.5t-51.5 130.5t-16 145.5q0 91 22 181.5t71.5 178t120 154.5t177 108t234.5 41zM545 106q97 0 177 47t129.5 123t76 168t26.5 187
q0 152 -74.5 250t-220.5 98q-78 0 -145.5 -30.5t-115 -82.5t-81.5 -119.5t-50.5 -142t-16.5 -149.5q0 -153 74.5 -251t220.5 -98z" />
    <glyph glyph-name="divide" unicode="&#xf7;" 
d="M655 1092q42 0 69.5 -26.5t27.5 -66.5q0 -57 -41 -97t-97 -40q-44 0 -70 26t-26 68q0 56 41 96t96 40zM993 596h-860l21 115h860zM541 436q44 0 70 -26t26 -68q0 -56 -41 -95.5t-96 -39.5q-43 0 -70 26t-27 66q0 57 41 97t97 40z" />
    <glyph glyph-name="oslash" unicode="&#xf8;" horiz-adv-x="1290" 
d="M1307 1040l-191 -161q51 -108 51 -244q0 -91 -22 -181.5t-71 -178.5t-120 -155t-177 -108t-234 -41q-223 0 -342 129l-164 -139l-70 84l170 143q-59 112 -59 263q0 91 22 181.5t71 178t120 154.5t177 108t234 41q235 0 355 -143l180 153zM270 455q0 -70 19 -138l631 537
q-77 125 -240 125q-97 0 -177 -46.5t-129.5 -122.5t-76.5 -168t-27 -187zM975 631q0 61 -12 117l-627 -533q78 -109 229 -109q97 0 177 47t129.5 123t76.5 168t27 187z" />
    <glyph glyph-name="ugrave" unicode="&#xf9;" horiz-adv-x="1208" 
d="M668 1188l-133 225h163l84 -225h-114zM1153 1085l-190 -1085h-177l33 186l-90 -125q-75 -52 -143 -71t-156 -19q-162 0 -247 74.5t-85 204.5q0 84 27 225l111 610h176l-109 -598q-22 -126 -22 -188q0 -89 50.5 -140t160.5 -48q68 2 127 28t113 82t95.5 154t65.5 233
l84 477h176z" />
    <glyph glyph-name="uacute" unicode="&#xfa;" horiz-adv-x="1208" 
d="M762 1188h-115l166 225h164zM1153 1085l-190 -1085h-177l33 186l-90 -125q-75 -52 -143 -71t-156 -19q-162 0 -247 74.5t-85 204.5q0 84 27 225l111 610h176l-109 -598q-22 -126 -22 -188q0 -89 50.5 -140t160.5 -48q68 2 127 28t113 82t95.5 154t65.5 233l84 477h176z
" />
    <glyph glyph-name="ucircumflex" unicode="&#xfb;" horiz-adv-x="1208" 
d="M649 1188h-129l178 225h121l96 -225h-131l-45 129zM1153 1085l-190 -1085h-177l33 186l-90 -125q-75 -52 -143 -71t-156 -19q-162 0 -247 74.5t-85 204.5q0 84 27 225l111 610h176l-109 -598q-22 -126 -22 -188q0 -89 50.5 -140t160.5 -48q68 2 127 28t113 82t95.5 154
t65.5 233l84 477h176z" />
    <glyph glyph-name="udieresis" unicode="&#xfc;" horiz-adv-x="1208" 
d="M567 1194q-35 0 -57.5 23t-22.5 57q0 42 35.5 75t77.5 33q35 0 57.5 -22.5t22.5 -56.5q0 -42 -35.5 -75.5t-77.5 -33.5zM866 1194q-35 0 -57.5 23t-22.5 57q0 42 35.5 75t77.5 33q35 0 57.5 -22.5t22.5 -56.5q0 -42 -35.5 -75.5t-77.5 -33.5zM1153 1085l-190 -1085h-177
l33 186l-90 -125q-75 -52 -143 -71t-156 -19q-162 0 -247 74.5t-85 204.5q0 84 27 225l111 610h176l-109 -598q-22 -126 -22 -188q0 -89 50.5 -140t160.5 -48q68 2 127 28t113 82t95.5 154t65.5 233l84 477h176z" />
    <glyph glyph-name="yacute" unicode="&#xfd;" horiz-adv-x="1011" 
d="M659 1188h-114l166 225h163zM1120 1085l-604 -1085q-141 -254 -240 -342t-251 -88q-45 0 -86 6l24 145q35 -6 64 -6q84 0 142.5 42t115.5 149l18 35l-231 1144h200l156 -956l490 956h202z" />
    <glyph glyph-name="thorn" unicode="&#xfe;" horiz-adv-x="1257" 
d="M799 1114q195 0 300 -123.5t105 -318.5q0 -103 -24.5 -202t-76.5 -190t-126 -159.5t-181.5 -109t-234.5 -40.5q-69 0 -141 25.5t-107 64.5l-49 107l-102 -569h-176l340 1906h176l-107 -592l103 115q53 38 135.5 62t165.5 24zM586 106q80 0 149.5 31.5t119.5 85.5
t86 125.5t53.5 152t17.5 163.5q0 144 -66.5 229.5t-195.5 85.5q-149 0 -264 -104t-154 -322l-10 -59q-9 -61 -7.5 -117.5t21.5 -106t51.5 -86t83 -57.5t115.5 -21z" />
    <glyph glyph-name="ydieresis" unicode="&#xff;" horiz-adv-x="1011" 
d="M465 1194q-35 0 -57.5 23t-22.5 57q0 42 35.5 75t77.5 33q35 0 57.5 -22.5t22.5 -56.5q0 -42 -35.5 -75.5t-77.5 -33.5zM764 1194q-35 0 -57.5 23t-22.5 57q0 42 35.5 75t77.5 33q35 0 57.5 -22.5t22.5 -56.5q0 -42 -35.5 -75.5t-77.5 -33.5zM1120 1085l-604 -1085
q-141 -254 -240 -342t-251 -88q-45 0 -86 6l24 145q35 -6 64 -6q84 0 142.5 42t115.5 149l18 35l-231 1144h200l156 -956l490 956h202z" />
    <glyph glyph-name="Amacron" unicode="&#x100;" horiz-adv-x="1323" 
d="M1126 1550h-491l20 107h492zM942 500h-518l-258 -500h-201l758 1413h250l237 -1413h-190zM920 643l-97 631l-325 -631h422z" />
    <glyph glyph-name="amacron" unicode="&#x101;" horiz-adv-x="1036" 
d="M907 1237h-491l20 106h492zM623 1114q177 0 262.5 -71.5t85.5 -196.5q0 -50 -19 -162l-71 -408q-22 -126 -29 -276h-176l8 156l-78 -99q-90 -86 -284 -86q-124 0 -210.5 72.5t-86.5 208.5q0 114 57 198.5t158.5 132t236 65.5t295.5 5l4 29q19 109 19 145q0 68 -42 110
t-132 42q-134 0 -201.5 -56t-93.5 -173h-185q35 172 163 268t319 96zM403 106q106 0 204 88.5t122 217.5l21 112q-146 16 -264 -4.5t-193.5 -84.5t-75.5 -165q0 -78 50.5 -121t135.5 -43z" />
    <glyph glyph-name="Abreve" unicode="&#x102;" horiz-adv-x="1323" 
d="M868 1479q-55 0 -93 19t-54.5 50.5t-23 71t2.5 80.5h109q-16 -109 80 -109q97 0 121 109h108q-21 -109 -81 -165t-169 -56zM942 500h-518l-258 -500h-201l758 1413h250l237 -1413h-190zM920 643l-97 631l-325 -631h422z" />
    <glyph glyph-name="abreve" unicode="&#x103;" horiz-adv-x="1036" 
d="M647 1159q-212 0 -164 254h109q-3 -38 -3 -69.5t19.5 -51.5t59.5 -20q98 0 125 141h108q-24 -129 -85 -191.5t-169 -62.5zM623 1114q177 0 262.5 -71.5t85.5 -196.5q0 -50 -19 -162l-71 -408q-22 -126 -29 -276h-176l8 156l-78 -99q-90 -86 -284 -86q-124 0 -210.5 72.5
t-86.5 208.5q0 114 57 198.5t158.5 132t236 65.5t295.5 5l4 29q19 109 19 145q0 68 -42 110t-132 42q-134 0 -201.5 -56t-93.5 -173h-185q35 172 163 268t319 96zM403 106q106 0 204 88.5t122 217.5l21 112q-146 16 -264 -4.5t-193.5 -84.5t-75.5 -165q0 -78 50.5 -121
t135.5 -43z" />
    <glyph glyph-name="Aogonek" unicode="&#x104;" horiz-adv-x="1323" 
d="M1210 0h-63q-98 -16 -169 -100t-71 -160q0 -86 76 -86q63 0 121 41l-19 -94q-81 -58 -190 -58q-71 0 -117.5 36.5t-46.5 113.5q0 100 75 189.5t210 137.5l-74 480h-518l-258 -500h-201l758 1413h250zM920 643l-97 631l-325 -631h422z" />
    <glyph glyph-name="aogonek" unicode="&#x105;" horiz-adv-x="1036" 
d="M623 1114q177 0 262.5 -71.5t85.5 -196.5q0 -50 -19 -162l-71 -408q-22 -126 -29 -276h-47q-98 -16 -169 -100t-71 -160q0 -86 76 -86q63 0 121 41l-19 -94q-81 -58 -190 -58q-71 0 -117.5 36.5t-46.5 113.5q0 101 76 190.5t213 139.5l6 133l-78 -99q-90 -86 -284 -86
q-124 0 -210.5 72.5t-86.5 208.5q0 114 57 198.5t158.5 132t236 65.5t295.5 5l4 29q19 109 19 145q0 68 -42 110t-132 42q-134 0 -201.5 -56t-93.5 -173h-185q35 172 163 268t319 96zM403 106q106 0 204 88.5t122 217.5l21 112q-146 16 -264 -4.5t-193.5 -84.5t-75.5 -165
q0 -78 50.5 -121t135.5 -43z" />
    <glyph glyph-name="Cacute" unicode="&#x106;" horiz-adv-x="1468" 
d="M969 1507h-115l143 193h164zM909 1442q261 0 394.5 -132.5t117.5 -346.5l-2 -21h-176v21q0 179 -90 259.5t-272 80.5q-166 0 -296.5 -98t-200 -263t-69.5 -364q0 -231 99 -349t278 -118q318 0 449 340l8 20h176l-6 -20q-62 -219 -228.5 -349.5t-433.5 -130.5
q-260 0 -401 157t-139 427q-1 247 100 450t283.5 320t408.5 117z" />
    <glyph glyph-name="cacute" unicode="&#x107;" horiz-adv-x="1087" 
d="M715 1188h-115l166 225h164zM672 1114q190 0 285.5 -104.5t97.5 -288.5h-185q-12 258 -231 258q-171 0 -283 -159.5t-112 -413.5q0 -150 65.5 -225t171.5 -75q113 0 198 61t132 179h184q-80 -191 -211 -283t-329 -92q-181 0 -292.5 111t-111.5 317q0 110 25.5 214.5
t77.5 195t125 158.5t174 107.5t219 39.5z" />
    <glyph glyph-name="Cdotaccent" unicode="&#x10a;" horiz-adv-x="1468" 
d="M954 1698q35 0 57.5 -23t22.5 -57q0 -42 -35 -75.5t-77 -33.5q-35 0 -57.5 23t-22.5 57q0 42 35 75.5t77 33.5zM909 1442q261 0 394.5 -132.5t117.5 -346.5l-2 -21h-176v21q0 179 -90 259.5t-272 80.5q-166 0 -296.5 -98t-200 -263t-69.5 -364q0 -231 99 -349t278 -118
q318 0 449 340l8 20h176l-6 -20q-62 -219 -228.5 -349.5t-433.5 -130.5q-260 0 -401 157t-139 427q-1 247 100 450t283.5 320t408.5 117z" />
    <glyph glyph-name="cdotaccent" unicode="&#x10b;" horiz-adv-x="1087" 
d="M715 1442q42 0 69 -27t27 -67q0 -55 -38.5 -93t-94.5 -38q-42 0 -69 27t-27 67q0 55 38.5 93t94.5 38zM672 1114q190 0 285.5 -104.5t97.5 -288.5h-185q-12 258 -231 258q-171 0 -283 -159.5t-112 -413.5q0 -150 65.5 -225t171.5 -75q113 0 198 61t132 179h184
q-80 -191 -211 -283t-329 -92q-181 0 -292.5 111t-111.5 317q0 110 25.5 214.5t77.5 195t125 158.5t174 107.5t219 39.5z" />
    <glyph glyph-name="Ccaron" unicode="&#x10c;" horiz-adv-x="1468" 
d="M862 1507l-104 193h137l43 -113l80 113h139l-170 -193h-125zM909 1442q261 0 394.5 -132.5t117.5 -346.5l-2 -21h-176v21q0 179 -90 259.5t-272 80.5q-166 0 -296.5 -98t-200 -263t-69.5 -364q0 -231 99 -349t278 -118q318 0 449 340l8 20h176l-6 -20
q-62 -219 -228.5 -349.5t-433.5 -130.5q-260 0 -401 157t-139 427q-1 247 100 450t283.5 320t408.5 117z" />
    <glyph glyph-name="ccaron" unicode="&#x10d;" horiz-adv-x="1087" 
d="M610 1188l-96 225h131l45 -129l90 129h129l-178 -225h-121zM481 106q113 0 198 61t132 179h184q-80 -191 -211 -283t-329 -92q-181 0 -292.5 111t-111.5 317q0 110 25.5 214.5t77.5 195t125 158.5t174 107.5t219 39.5q190 0 285.5 -104.5t97.5 -288.5h-185
q-12 258 -231 258q-171 0 -283 -159.5t-112 -413.5q0 -150 65.5 -225t171.5 -75z" />
    <glyph glyph-name="Dcaron" unicode="&#x10e;" horiz-adv-x="1456" 
d="M743 1507l-104 193h137l43 -113l80 113h139l-170 -193h-125zM897 1407q108 -10 199.5 -51.5t162.5 -114.5t111.5 -185.5t40.5 -252.5q0 -112 -28.5 -219.5t-89 -206t-147 -176t-209 -129.5t-267.5 -66q-74 -6 -183 -6h-381l250 1413h363q108 0 178 -6zM684 152
q136 19 240.5 80t167 150.5t94 194.5t31.5 222q0 209 -97 325t-252 138q-60 8 -155 8h-207l-199 -1127h217q92 0 160 9z" />
    <glyph glyph-name="dcaron" unicode="&#x10f;" horiz-adv-x="1253" 
d="M1098 1505h176l-266 -1505h-177l31 174l-102 -117q-53 -38 -135.5 -62t-165.5 -24q-99 0 -177 34t-127.5 94.5t-75.5 140.5t-26 174q0 103 24.5 202t76.5 189.5t126 159t181.5 109t234.5 40.5q69 0 141 -25.5t107 -64.5l49 -106zM1550 1505v-14l-166 -281h-98l123 295
h141zM926 532l10 60q9 61 7.5 117.5t-21.5 105.5t-51.5 85.5t-82.5 57.5t-116 21q-99 0 -181.5 -48t-135 -127.5t-81 -178t-28.5 -203.5q0 -144 66.5 -230t195.5 -86q149 0 264 104t154 322z" />
    <glyph glyph-name="Dcroat" unicode="&#x110;" horiz-adv-x="1456" 
d="M897 1407q108 -10 199.5 -51.5t162.5 -114.5t111.5 -185.5t40.5 -252.5q0 -112 -28.5 -219.5t-89 -206t-147 -176t-209 -129.5t-267.5 -66q-74 -6 -183 -6h-381l111 625h-194l20 114h195l118 674h363q108 0 178 -6zM684 152q136 19 240.5 80t167 150.5t94 194.5t31.5 222
q0 209 -97 325t-252 138q-60 8 -155 8h-207l-94 -531h254l-21 -114h-252l-86 -482h217q92 0 160 9z" />
    <glyph glyph-name="dcroat" unicode="&#x111;" horiz-adv-x="1257" 
d="M1309 1219h-86l-215 -1219h-177l31 174l-102 -117q-53 -38 -135.5 -62t-165.5 -24q-99 0 -177 34t-127.5 94.5t-75.5 140.5t-26 174q0 103 24.5 202t76.5 189.5t126 159t181.5 109t234.5 40.5q69 0 141 -25.5t107 -64.5l49 -106l54 301h-242l20 114h242l31 172h176
l-31 -172h86zM926 532l10 60q9 61 7.5 117.5t-21.5 105.5t-51.5 85.5t-82.5 57.5t-116 21q-99 0 -181.5 -48t-135 -127.5t-81 -178t-28.5 -203.5q0 -144 66.5 -230t195.5 -86q149 0 264 104t154 322z" />
    <glyph glyph-name="Emacron" unicode="&#x112;" horiz-adv-x="1214" 
d="M1108 1550h-492l21 107h491zM508 1270l-88 -492h682l-25 -143h-682l-88 -492h766l-26 -143h-941l250 1413h920l-27 -143h-741z" />
    <glyph glyph-name="emacron" unicode="&#x113;" horiz-adv-x="1103" 
d="M940 1237h-491l20 106h492zM1032 489h-784q-4 -58 -4 -86q0 -149 67 -223t178 -74q109 0 198 65t126 179h184q-42 -126 -129 -213.5t-190.5 -126.5t-218.5 -39q-186 0 -297 112t-111 314q0 81 15 162.5t45 163t80 151.5t114.5 124t154.5 85t195 31q189 0 299.5 -109.5
t110.5 -293.5q0 -113 -33 -222zM629 979q-76 0 -138.5 -29t-105.5 -80t-71.5 -111.5t-45.5 -133.5h615q4 54 4 75q0 132 -69 205.5t-189 73.5z" />
    <glyph glyph-name="Edotaccent" unicode="&#x116;" horiz-adv-x="1214" 
d="M856 1509q-35 0 -57.5 23t-22.5 57q0 42 35.5 75.5t77.5 33.5q35 0 57.5 -23t22.5 -57q0 -42 -35.5 -75.5t-77.5 -33.5zM508 1270l-88 -492h682l-25 -143h-682l-88 -492h766l-26 -143h-941l250 1413h920l-27 -143h-741z" />
    <glyph glyph-name="edotaccent" unicode="&#x117;" horiz-adv-x="1103" 
d="M694 1217q-42 0 -69 27t-27 67q0 55 38.5 93t94.5 38q42 0 69 -27t27 -67q0 -55 -38.5 -93t-94.5 -38zM1032 489h-784q-4 -58 -4 -86q0 -149 67 -223t178 -74q109 0 198 65t126 179h184q-42 -126 -129 -213.5t-190.5 -126.5t-218.5 -39q-186 0 -297 112t-111 314
q0 81 15 162.5t45 163t80 151.5t114.5 124t154.5 85t195 31q189 0 299.5 -109.5t110.5 -293.5q0 -113 -33 -222zM629 979q-76 0 -138.5 -29t-105.5 -80t-71.5 -111.5t-45.5 -133.5h615q4 54 4 75q0 132 -69 205.5t-189 73.5z" />
    <glyph glyph-name="Eogonek" unicode="&#x118;" horiz-adv-x="1214" 
d="M508 1270l-88 -492h682l-25 -143h-682l-88 -492h766l-24 -143q-98 -16 -169 -100t-71 -160q0 -86 76 -86q63 0 121 41l-19 -94q-81 -58 -190 -58q-71 0 -117.5 36.5t-46.5 113.5q0 91 60.5 173.5t172.5 133.5h-760l250 1413h920l-27 -143h-741z" />
    <glyph glyph-name="eogonek" unicode="&#x119;" horiz-adv-x="1103" 
d="M1032 489h-784q-4 -58 -4 -86q0 -149 67 -223t178 -74q109 0 198 65t126 179h184q-56 -167 -182 -262t-285 -113q-72 -37 -118.5 -106t-46.5 -129q0 -86 75 -86q63 0 121 41l-18 -94q-81 -58 -191 -58q-71 0 -117.5 36.5t-46.5 113.5q0 81 49.5 156t141.5 128
q-153 24 -240.5 132.5t-87.5 287.5q0 81 15 162.5t45 163t80 151.5t114.5 124t154.5 85t195 31q189 0 299.5 -109.5t110.5 -293.5q0 -113 -33 -222zM629 979q-76 0 -138.5 -29t-105.5 -80t-71.5 -111.5t-45.5 -133.5h615q4 54 4 75q0 132 -69 205.5t-189 73.5z" />
    <glyph glyph-name="Ecaron" unicode="&#x11a;" horiz-adv-x="1214" 
d="M797 1507l-105 193h137l43 -113l80 113h140l-170 -193h-125zM508 1270l-88 -492h682l-25 -143h-682l-88 -492h766l-26 -143h-941l250 1413h920l-27 -143h-741z" />
    <glyph glyph-name="ecaron" unicode="&#x11b;" horiz-adv-x="1103" 
d="M627 1188l-97 225h132l45 -129l90 129h129l-178 -225h-121zM1032 489h-784q-4 -58 -4 -86q0 -149 67 -223t178 -74q109 0 198 65t126 179h184q-42 -126 -129 -213.5t-190.5 -126.5t-218.5 -39q-186 0 -297 112t-111 314q0 81 15 162.5t45 163t80 151.5t114.5 124
t154.5 85t195 31q189 0 299.5 -109.5t110.5 -293.5q0 -113 -33 -222zM629 979q-76 0 -138.5 -29t-105.5 -80t-71.5 -111.5t-45.5 -133.5h615q4 54 4 75q0 132 -69 205.5t-189 73.5z" />
    <glyph glyph-name="Gbreve" unicode="&#x11e;" horiz-adv-x="1550" 
d="M1106 1479q-55 0 -93 19t-54.5 50.5t-23 71t2.5 80.5h109q-16 -109 79 -109q97 0 121 109h109q-21 -109 -81 -165t-169 -56zM930 1442q131 0 230 -36t158 -100.5t85 -151t18 -191.5l-2 -21h-176v21q0 182 -81.5 261t-260.5 79q-166 0 -301 -98t-210 -263.5t-75 -363.5
q0 -210 96 -338.5t267 -128.5q173 0 308 120t167 308h-330l27 143h506l-121 -682h-156l43 244l-86 -129q-154 -144 -393 -144q-170 0 -291 77t-179 207t-58 300q0 185 63 349.5t171 282t259.5 186.5t321.5 69z" />
    <glyph glyph-name="gbreve" unicode="&#x11f;" horiz-adv-x="1253" 
d="M737 1159q-212 0 -164 254h109q-3 -38 -3 -69.5t19.5 -51.5t59.5 -20q98 0 125 141h108q-24 -129 -85 -191.5t-169 -62.5zM1200 1085l-145 -819q-26 -145 -39 -211q-50 -239 -201.5 -362t-400.5 -123q-205 0 -320 94.5t-102 263.5l2 21h178l-2 -19q-6 -103 63 -164
t205 -61q160 0 262 86.5t136 245.5q4 23 12.5 62t11.5 57l4 18l-104 -117q-53 -38 -135.5 -62t-165.5 -24q-99 0 -177 34t-127.5 94.5t-75.5 140.5t-26 174q0 103 24.5 202t76.5 189.5t126 159t181.5 109t234.5 40.5q69 0 141 -25.5t107 -64.5l49 -109l31 170h176zM508 106
q149 0 264 104t154 322v-10l14 84l-4 -14q9 61 7.5 117.5t-21.5 105.5t-51.5 85.5t-82.5 57.5t-116 21q-99 0 -181.5 -48t-135 -127.5t-81 -178t-28.5 -203.5q0 -144 66.5 -230t195.5 -86z" />
    <glyph glyph-name="Gdotaccent" unicode="&#x120;" horiz-adv-x="1550" 
d="M1112 1509q-35 0 -57.5 23t-22.5 57q0 42 35.5 75.5t77.5 33.5q35 0 57.5 -23t22.5 -57q0 -42 -35.5 -75.5t-77.5 -33.5zM930 1442q131 0 230 -36t158 -100.5t85 -151t18 -191.5l-2 -21h-176v21q0 182 -81.5 261t-260.5 79q-166 0 -301 -98t-210 -263.5t-75 -363.5
q0 -210 96 -338.5t267 -128.5q173 0 308 120t167 308h-330l27 143h506l-121 -682h-156l43 244l-86 -129q-154 -144 -393 -144q-170 0 -291 77t-179 207t-58 300q0 185 63 349.5t171 282t259.5 186.5t321.5 69z" />
    <glyph glyph-name="gdotaccent" unicode="&#x121;" horiz-adv-x="1253" 
d="M752 1217q-42 0 -69.5 27t-27.5 67q0 55 38.5 93t94.5 38q42 0 69.5 -27t27.5 -67q0 -55 -38.5 -93t-94.5 -38zM1200 1085l-145 -819q-26 -145 -39 -211q-50 -239 -201.5 -362t-400.5 -123q-205 0 -320 94.5t-102 263.5l2 21h178l-2 -19q-6 -103 63 -164t205 -61
q160 0 262 86.5t136 245.5q4 23 12.5 62t11.5 57l4 18l-104 -117q-53 -38 -135.5 -62t-165.5 -24q-99 0 -177 34t-127.5 94.5t-75.5 140.5t-26 174q0 103 24.5 202t76.5 189.5t126 159t181.5 109t234.5 40.5q69 0 141 -25.5t107 -64.5l49 -109l31 170h176zM508 106
q149 0 264 104t154 322v-10l14 84l-4 -14q9 61 7.5 117.5t-21.5 105.5t-51.5 85.5t-82.5 57.5t-116 21q-99 0 -181.5 -48t-135 -127.5t-81 -178t-28.5 -203.5q0 -144 66.5 -230t195.5 -86z" />
    <glyph glyph-name="Gcommaaccent" unicode="&#x122;" horiz-adv-x="1550" 
d="M930 1442q131 0 230 -36t158 -100.5t85 -151t18 -191.5l-2 -21h-176v21q0 182 -81.5 261t-260.5 79q-166 0 -301 -98t-210 -263.5t-75 -363.5q0 -210 96 -338.5t267 -128.5q173 0 308 120t167 308h-330l27 143h506l-121 -682h-156l43 244l-86 -129q-154 -144 -393 -144
q-170 0 -291 77t-179 207t-58 300q0 185 63 349.5t171 282t259.5 186.5t321.5 69zM522 -104h142v-15l-166 -280h-99z" />
    <glyph glyph-name="gcommaaccent" unicode="&#x123;" horiz-adv-x="1253" 
d="M795 1190h-142v14l166 281h99zM1200 1085l-145 -819q-26 -145 -39 -211q-50 -239 -201.5 -362t-400.5 -123q-205 0 -320 94.5t-102 263.5l2 21h178l-2 -19q-6 -103 63 -164t205 -61q160 0 262 86.5t136 245.5q4 23 12.5 62t11.5 57l4 18l-104 -117q-53 -38 -135.5 -62
t-165.5 -24q-99 0 -177 34t-127.5 94.5t-75.5 140.5t-26 174q0 103 24.5 202t76.5 189.5t126 159t181.5 109t234.5 40.5q69 0 141 -25.5t107 -64.5l49 -109l31 170h176zM508 106q149 0 264 104t154 322v-10l14 84l-4 -14q9 61 7.5 117.5t-21.5 105.5t-51.5 85.5t-82.5 57.5
t-116 21q-99 0 -181.5 -48t-135 -127.5t-81 -178t-28.5 -203.5q0 -144 66.5 -230t195.5 -86z" />
    <glyph glyph-name="Hbar" unicode="&#x126;" horiz-adv-x="1492" 
d="M1501 1028h-82l-182 -1028h-176l108 618h-778l-108 -618h-177l183 1028h-82l20 115h82l47 270h176l-47 -270h779l47 270h176l-47 -270h82zM1243 1028h-778l-47 -262h778z" />
    <glyph glyph-name="hbar" unicode="&#x127;" horiz-adv-x="1255" 
d="M817 1114q163 0 247.5 -74t84.5 -204q0 -85 -27 -226l-110 -610h-176l108 598q23 132 23 188q0 89 -50.5 140.5t-160.5 48.5q-68 -2 -127 -28.5t-113 -82.5t-96 -154t-66 -233l-84 -477h-176l215 1219h-121l21 114h119l32 183h177l-33 -183h209l-21 -114h-207l-57 -320
l90 125q75 52 143 71t156 19z" />
    <glyph glyph-name="Imacron" unicode="&#x12a;" horiz-adv-x="538" 
d="M713 1550h-492l21 107h491zM283 0h-177l250 1413h176z" />
    <glyph glyph-name="imacron" unicode="&#x12b;" horiz-adv-x="479" 
d="M610 1237h-491l20 106h492zM233 0h-176l193 1085h176z" />
    <glyph glyph-name="Iogonek" unicode="&#x12e;" horiz-adv-x="538" 
d="M532 1413l-249 -1413h-50q-98 -16 -168.5 -99.5t-70.5 -160.5q0 -86 76 -86q62 0 120 41l-18 -94q-81 -58 -190 -58q-71 0 -117.5 36.5t-46.5 113.5q0 102 76.5 192t216.5 138l245 1390h176z" />
    <glyph glyph-name="iogonek" unicode="&#x12f;" horiz-adv-x="479" 
d="M401 1442q42 0 69.5 -27t27.5 -67q0 -55 -38.5 -93t-94.5 -38q-42 0 -69.5 27t-27.5 67q0 55 38.5 93t94.5 38zM250 1085h176l-193 -1085h-47q-98 -16 -168.5 -99.5t-70.5 -160.5q0 -86 76 -86q62 0 120 41l-18 -94q-81 -58 -191 -58q-71 0 -117 36.5t-46 113.5
q0 102 76 192t214 138z" />
    <glyph glyph-name="Idotaccent" unicode="&#x130;" horiz-adv-x="538" 
d="M494 1698q35 0 57 -23t22 -57q0 -42 -35 -75.5t-77 -33.5q-35 0 -57.5 23t-22.5 57q0 42 35.5 75.5t77.5 33.5zM283 0h-177l250 1413h176z" />
    <glyph glyph-name="dotlessi" unicode="&#x131;" horiz-adv-x="479" 
d="M233 0h-176l193 1085h176z" />
    <glyph glyph-name="IJ" unicode="&#x132;" horiz-adv-x="1617" 
d="M283 0h-177l250 1413h176zM1647 1413l-154 -872q-18 -97 -35 -170q-44 -189 -167.5 -294.5t-338.5 -105.5q-198 0 -298.5 114.5t-69.5 311.5l12 84h176l-10 -84q-37 -286 219 -286q123 0 197 66t108 204q7 29 33 166l151 866h177z" />
    <glyph glyph-name="ij" unicode="&#x133;" horiz-adv-x="894" 
d="M401 1442q42 0 69.5 -27t27.5 -67q0 -55 -38.5 -93t-94.5 -38q-42 0 -69.5 27t-27.5 67q0 55 38.5 93t94.5 38zM844 1442q42 0 69 -27t27 -67q0 -55 -38.5 -93t-94.5 -38q-42 0 -69 27t-27 67q0 55 38.5 93t94.5 38zM233 0h-176l193 1085h176zM874 1085l-206 -1179
q-17 -85 -29 -131q-30 -102 -99.5 -153.5t-191.5 -51.5q-57 0 -84 4l27 143q140 -18 176 88q14 40 27 113l204 1167h176z" />
    <glyph glyph-name="Kcommaaccent" unicode="&#x136;" horiz-adv-x="1288" 
d="M610 707l549 -707h-215l-463 610l-106 -94l-92 -516h-177l250 1413h176l-122 -694l813 694h215zM516 -104h141v-15l-165 -280h-99z" />
    <glyph glyph-name="kcommaaccent" unicode="&#x137;" horiz-adv-x="1058" 
d="M561 571l410 -571h-211l-328 473l-135 -119l-64 -354h-176l267 1505h176l-168 -954l600 534h225zM395 -104h142v-15l-166 -280h-99z" />
    <glyph glyph-name="Lacute" unicode="&#x139;" horiz-adv-x="1183" 
d="M508 1507h-115l144 193h163zM1073 143l-26 -143h-941l250 1413h176l-225 -1270h766z" />
    <glyph glyph-name="lacute" unicode="&#x13a;" horiz-adv-x="507" 
d="M465 1608h-115l166 225h164zM489 1505l-210 -1194q-15 -82 -15 -106q0 -52 27 -67t92 -9l-23 -129q-55 -8 -127 -8q-76 0 -116.5 29t-40.5 104q0 36 26 180l211 1200h176z" />
    <glyph glyph-name="Lcommaaccent" unicode="&#x13b;" horiz-adv-x="1183" 
d="M1073 143l-26 -143h-941l250 1413h176l-225 -1270h766zM508 -104h141v-15l-166 -280h-98z" />
    <glyph glyph-name="lcommaaccent" unicode="&#x13c;" horiz-adv-x="507" 
d="M489 1505l-210 -1194q-15 -82 -15 -106q0 -52 27 -67t92 -9l-23 -129q-55 -8 -127 -8q-76 0 -116.5 29t-40.5 104q0 36 26 180l211 1200h176zM229 -119l-166 -280h-98l123 295h141v-15z" />
    <glyph glyph-name="Lcaron" unicode="&#x13d;" horiz-adv-x="1183" 
d="M1073 143l-26 -143h-941l250 1413h176l-225 -1270h766z" />
    <glyph glyph-name="lcaron" unicode="&#x13e;" horiz-adv-x="507" 
d="M489 1505l-210 -1194q-15 -82 -15 -106q0 -52 27 -67t92 -9l-23 -129q-55 -8 -127 -8q-76 0 -116.5 29t-40.5 104q0 36 26 180l211 1200h176z" />
    <glyph glyph-name="Ldot" unicode="&#x13f;" horiz-adv-x="1183" 
d="M1073 143l-26 -143h-941l250 1413h176l-225 -1270h766zM793 707q-42 0 -69.5 27t-27.5 67q0 55 38.5 93t94.5 38q42 0 69.5 -27t27.5 -67q0 -55 -38.5 -93t-94.5 -38z" />
    <glyph glyph-name="ldot" unicode="&#x140;" horiz-adv-x="692" 
d="M489 1505l-210 -1194q-15 -82 -15 -106q0 -52 27 -67t92 -9l-23 -129q-55 -8 -127 -8q-76 0 -116.5 29t-40.5 104q0 36 26 180l211 1200h176zM621 932q42 0 69 -27t27 -67q0 -55 -38.5 -93t-94.5 -38q-42 0 -69.5 27t-27.5 67q0 55 39 93t95 38z" />
    <glyph glyph-name="Lslash" unicode="&#x141;" horiz-adv-x="1259" 
d="M1149 143l-27 -143h-940l107 606l-273 -147l23 137l274 147l119 670h176l-100 -565l256 137l-25 -137l-256 -137l-100 -568h766z" />
    <glyph glyph-name="lslash" unicode="&#x142;" horiz-adv-x="581" 
d="M391 643l-59 -332q-15 -82 -15 -106q0 -52 27 -67t92 -9l-22 -129q-55 -8 -127 -8q-76 0 -117 29.5t-41 103.5q0 30 27 180l41 234l-146 -78l25 137l145 78l146 829h176l-129 -725l151 80l-24 -137z" />
    <glyph glyph-name="Nacute" unicode="&#x143;" horiz-adv-x="1468" 
d="M973 1507h-115l143 193h164zM1462 1413l-250 -1413h-270l-444 1245l-215 -1245h-177l250 1413h271l440 -1245l219 1245h176z" />
    <glyph glyph-name="nacute" unicode="&#x144;" horiz-adv-x="1218" 
d="M784 1188h-114l166 225h163zM780 1114q163 0 247.5 -74t84.5 -204q0 -85 -27 -226l-110 -610h-176l108 598q23 132 23 188q0 89 -50.5 140.5t-160.5 48.5q-68 -2 -127 -28.5t-113 -82.5t-96 -154t-66 -233l-84 -477h-176l191 1085h176l-33 -186l90 125q75 52 143 71
t156 19z" />
    <glyph glyph-name="Ncommaaccent" unicode="&#x145;" horiz-adv-x="1468" 
d="M1462 1413l-250 -1413h-270l-444 1245l-215 -1245h-177l250 1413h271l440 -1245l219 1245h176zM590 -104h141v-15l-166 -280h-98z" />
    <glyph glyph-name="ncommaaccent" unicode="&#x146;" horiz-adv-x="1218" 
d="M780 1114q163 0 247.5 -74t84.5 -204q0 -85 -27 -226l-110 -610h-176l108 598q23 132 23 188q0 89 -50.5 140.5t-160.5 48.5q-68 -2 -127 -28.5t-113 -82.5t-96 -154t-66 -233l-84 -477h-176l191 1085h176l-33 -186l90 125q75 52 143 71t156 19zM442 -104h142v-15
l-166 -280h-99z" />
    <glyph glyph-name="Ncaron" unicode="&#x147;" horiz-adv-x="1468" 
d="M866 1507l-104 193h137l43 -113l80 113h139l-170 -193h-125zM1462 1413l-250 -1413h-270l-444 1245l-215 -1245h-177l250 1413h271l440 -1245l219 1245h176z" />
    <glyph glyph-name="ncaron" unicode="&#x148;" horiz-adv-x="1218" 
d="M680 1188l-96 225h131l45 -129l90 129h129l-178 -225h-121zM780 1114q163 0 247.5 -74t84.5 -204q0 -85 -27 -226l-110 -610h-176l108 598q23 132 23 188q0 89 -50.5 140.5t-160.5 48.5q-68 -2 -127 -28.5t-113 -82.5t-96 -154t-66 -233l-84 -477h-176l191 1085h176
l-33 -186l90 125q75 52 143 71t156 19z" />
    <glyph glyph-name="Eng" unicode="&#x14a;" horiz-adv-x="1468" 
d="M1462 1413l-272 -1550q-18 -103 -41.5 -162.5t-68.5 -96.5t-106 -49t-163 -12l25 144q80 0 118.5 35t51.5 108l18 107l-526 1288l-213 -1225h-176l247 1413h271l458 -1159l201 1159h176z" />
    <glyph glyph-name="eng" unicode="&#x14b;" horiz-adv-x="1218" 
d="M780 1114q163 0 247.5 -74t84.5 -204q0 -85 -27 -226l-116 -647q-12 -59 -27 -104q-20 -58 -45.5 -97.5t-53 -62.5t-69.5 -35.5t-81.5 -16t-100.5 -3.5l24 143q81 0 118.5 33.5t51.5 109.5l121 668q23 132 23 188q0 89 -50.5 140.5t-160.5 48.5q-68 -2 -127 -28.5
t-113 -82.5t-96 -154t-66 -233l-84 -477h-176l191 1085h176l-33 -186l90 125q75 52 143 71t156 19z" />
    <glyph glyph-name="Omacron" unicode="&#x14c;" horiz-adv-x="1529" 
d="M1184 1550h-492l21 107h491zM915 1442q137 0 246.5 -48.5t179.5 -133t107 -194.5t37 -237q0 -130 -29 -251.5t-92 -232.5t-154.5 -193.5t-225 -131.5t-294.5 -49q-137 0 -246.5 48.5t-179 133t-106.5 194.5t-37 237q0 130 29 251.5t92 232.5t154 193.5t224.5 131.5
t294.5 49zM727 111q112 0 207.5 44t160 116t110 166t66.5 193.5t21 198.5q0 215 -111 344.5t-302 129.5q-112 0 -207.5 -44t-160.5 -116.5t-110.5 -166.5t-66.5 -193.5t-21 -198.5q0 -215 110.5 -344t303.5 -129z" />
    <glyph glyph-name="omacron" unicode="&#x14d;" horiz-adv-x="1204" 
d="M971 1237h-492l21 106h491zM682 1114q122 0 214 -39.5t145.5 -108t79.5 -151.5t26 -180q0 -91 -22 -182t-71.5 -178.5t-120 -154.5t-177 -108t-234.5 -41q-98 0 -177 26.5t-132 71t-88.5 106.5t-51.5 130.5t-16 145.5q0 91 22 181.5t71.5 178t120 154.5t177 108t234.5 41
zM545 106q97 0 177 47t129.5 123t76 168t26.5 187q0 152 -74.5 250t-220.5 98q-78 0 -145.5 -30.5t-115 -82.5t-81.5 -119.5t-50.5 -142t-16.5 -149.5q0 -153 74.5 -251t220.5 -98z" />
    <glyph glyph-name="Ohungarumlaut" unicode="&#x150;" horiz-adv-x="1529" 
d="M834 1507h-115l143 193h164zM942 1507l143 193h164l-192 -193h-115zM915 1442q137 0 246.5 -48.5t179.5 -133t107 -194.5t37 -237q0 -130 -29 -251.5t-92 -232.5t-154.5 -193.5t-225 -131.5t-294.5 -49q-137 0 -246.5 48.5t-179 133t-106.5 194.5t-37 237q0 130 29 251.5
t92 232.5t154 193.5t224.5 131.5t294.5 49zM727 111q112 0 207.5 44t160 116t110 166t66.5 193.5t21 198.5q0 215 -111 344.5t-302 129.5q-112 0 -207.5 -44t-160.5 -116.5t-110.5 -166.5t-66.5 -193.5t-21 -198.5q0 -215 110.5 -344t303.5 -129z" />
    <glyph glyph-name="ohungarumlaut" unicode="&#x151;" horiz-adv-x="1204" 
d="M647 1188h-115l166 225h164zM782 1188l166 225h164l-215 -225h-115zM682 1114q122 0 214 -39.5t145.5 -108t79.5 -151.5t26 -180q0 -91 -22 -182t-71.5 -178.5t-120 -154.5t-177 -108t-234.5 -41q-98 0 -177 26.5t-132 71t-88.5 106.5t-51.5 130.5t-16 145.5
q0 91 22 181.5t71.5 178t120 154.5t177 108t234.5 41zM545 106q97 0 177 47t129.5 123t76 168t26.5 187q0 152 -74.5 250t-220.5 98q-78 0 -145.5 -30.5t-115 -82.5t-81.5 -119.5t-50.5 -142t-16.5 -149.5q0 -153 74.5 -251t220.5 -98z" />
    <glyph glyph-name="OE" unicode="&#x152;" horiz-adv-x="2252" 
d="M1546 1270l-88 -492h682l-24 -143h-682l-88 -492h765l-26 -143h-940l51 289l-82 -150q-176 -168 -465 -168q-261 0 -397.5 152t-136.5 438q0 81 14.5 165.5t45.5 171t76.5 166t111 148.5t144.5 120t182 80.5t218 29.5q156 0 248.5 -40.5t157.5 -135.5l30 -148l52 295h919
l-26 -143h-742zM694 111q219 0 373.5 163.5t202.5 432.5q12 71 13 138.5t-9 136t-37.5 125.5t-70 101.5t-110 69.5t-153.5 25q-100 0 -187 -33t-150.5 -90t-113.5 -130t-80 -156.5t-45.5 -166.5t-15.5 -162q0 -215 99 -334.5t284 -119.5z" />
    <glyph glyph-name="oe" unicode="&#x153;" horiz-adv-x="1984" 
d="M1913 489h-783q-4 -29 -4 -81q0 -152 65.5 -227t178.5 -75q109 0 198 65t126 179h184q-42 -126 -129 -213.5t-190.5 -126.5t-219.5 -39q-281 0 -358 258q-173 -258 -481 -258q-225 0 -338 122.5t-113 318.5q0 59 10.5 122.5t35 132t60 132.5t88.5 121.5t118 100.5
t152.5 68t186.5 25q315 0 400 -262q175 262 463 262q187 0 285 -108t98 -295q0 -113 -33 -222zM522 106q89 0 164 37.5t123.5 96.5t82.5 134t49 147.5t15 140.5q0 146 -71.5 231.5t-206.5 85.5q-89 0 -164 -37t-123.5 -96t-82.5 -134t-49 -147.5t-15 -140.5
q0 -146 71.5 -232t206.5 -86zM1536 979q-133 0 -233.5 -91.5t-145.5 -262.5h606q6 44 6 80q0 274 -233 274z" />
    <glyph glyph-name="Racute" unicode="&#x154;" horiz-adv-x="1265" 
d="M866 1507h-114l143 193h164zM1296 1098q0 -92 -32 -167.5t-86 -124.5t-116.5 -79.5t-131.5 -42.5q65 -7 98 -44t49.5 -132.5t16.5 -280.5q0 -164 36 -227h-190q-17 79 -22 387q-2 102 -37.5 157.5t-122.5 61.5q-33 2 -101 2h-266l-108 -608h-177l250 1413h463
q122 0 185 -8q136 -18 214 -94.5t78 -212.5zM825 756q122 11 200.5 91.5t78.5 219.5q0 169 -170 195q-52 8 -139 8h-287l-92 -518h270q98 0 139 4z" />
    <glyph glyph-name="racute" unicode="&#x155;" horiz-adv-x="663" 
d="M506 1188h-115l166 225h164zM680 1110q44 0 72 -14l-25 -133q-143 9 -247.5 -78.5t-137.5 -266.5l-109 -618h-176l193 1085h176l-31 -170l125 146q77 49 160 49z" />
    <glyph glyph-name="Rcommaaccent" unicode="&#x156;" horiz-adv-x="1265" 
d="M1296 1098q0 -92 -32 -167.5t-86 -124.5t-116.5 -79.5t-131.5 -42.5q65 -7 98 -44t49.5 -132.5t16.5 -280.5q0 -164 36 -227h-190q-17 79 -22 387q-2 102 -37.5 157.5t-122.5 61.5q-33 2 -101 2h-266l-108 -608h-177l250 1413h463q122 0 185 -8q136 -18 214 -94.5
t78 -212.5zM825 756q122 11 200.5 91.5t78.5 219.5q0 169 -170 195q-52 8 -139 8h-287l-92 -518h270q98 0 139 4zM467 -104h141v-15l-166 -280h-98z" />
    <glyph glyph-name="rcommaaccent" unicode="&#x157;" horiz-adv-x="663" 
d="M680 1110q44 0 72 -14l-25 -133q-143 9 -247.5 -78.5t-137.5 -266.5l-109 -618h-176l193 1085h176l-31 -170l125 146q77 49 160 49zM76 -104h141v-15l-166 -280h-98z" />
    <glyph glyph-name="Rcaron" unicode="&#x158;" horiz-adv-x="1265" 
d="M760 1507l-105 193h138l43 -113l79 113h140l-170 -193h-125zM1296 1098q0 -92 -32 -167.5t-86 -124.5t-116.5 -79.5t-131.5 -42.5q65 -7 98 -44t49.5 -132.5t16.5 -280.5q0 -164 36 -227h-190q-17 79 -22 387q-2 102 -37.5 157.5t-122.5 61.5q-33 2 -101 2h-266
l-108 -608h-177l250 1413h463q122 0 185 -8q136 -18 214 -94.5t78 -212.5zM825 756q122 11 200.5 91.5t78.5 219.5q0 169 -170 195q-52 8 -139 8h-287l-92 -518h270q98 0 139 4z" />
    <glyph glyph-name="rcaron" unicode="&#x159;" horiz-adv-x="663" 
d="M401 1188l-96 225h131l45 -129l90 129h129l-178 -225h-121zM680 1110q44 0 72 -14l-25 -133q-143 9 -247.5 -78.5t-137.5 -266.5l-109 -618h-176l193 1085h176l-31 -170l125 146q77 49 160 49z" />
    <glyph glyph-name="Sacute" unicode="&#x15a;" horiz-adv-x="1157" 
d="M791 1507h-115l143 193h164zM737 1442q213 0 321 -116t97 -304h-188q10 132 -62 206.5t-207 74.5q-129 0 -212 -70.5t-83 -192.5q0 -89 62 -139.5t201 -83.5q202 -48 299.5 -140.5t97.5 -248.5q0 -206 -159 -331.5t-406 -125.5q-222 0 -348.5 114.5t-114.5 315.5h188
q6 -139 85.5 -214.5t217.5 -75.5q148 0 244 76t96 210q0 100 -69.5 158.5t-227.5 97.5q-174 43 -268 121.5t-94 212.5q0 138 72.5 243t192 158.5t265.5 53.5z" />
    <glyph glyph-name="sacute" unicode="&#x15b;" horiz-adv-x="923" 
d="M606 1188h-114l165 225h164zM518 1114q182 0 271 -90.5t92 -247.5h-185q-10 203 -186 203q-107 0 -159 -50t-52 -124q0 -70 50.5 -112.5t146.5 -71.5q164 -50 242.5 -125t78.5 -203q0 -146 -113.5 -240t-310.5 -94q-109 0 -191 30.5t-127.5 82t-68.5 110t-26 125.5h184
q19 -213 244 -213q94 0 155.5 50.5t61.5 134.5q0 72 -50.5 117.5t-166.5 80.5q-70 21 -119 44t-93.5 58.5t-67 87t-22.5 119.5q0 141 108 234.5t304 93.5z" />
    <glyph glyph-name="Scedilla" unicode="&#x15e;" horiz-adv-x="1157" 
d="M1155 1022h-188q10 132 -62 206.5t-207 74.5q-129 0 -212 -70.5t-83 -192.5q0 -89 62 -139.5t201 -83.5q202 -48 299.5 -140.5t97.5 -248.5q0 -192 -140 -314.5t-362 -140.5l-41 -55q67 -12 103 -53.5t36 -100.5q0 -98 -76 -146t-198 -48q-71 0 -111 18l17 82
q38 -14 104 -14q71 0 108.5 27t37.5 71q0 47 -48 71.5t-135 14.5l95 133q-203 11 -316.5 124t-101.5 304h188q6 -139 85.5 -214.5t217.5 -75.5q148 0 244 76t96 210q0 100 -69.5 158.5t-227.5 97.5q-174 43 -268 121.5t-94 212.5q0 138 72.5 243t192 158.5t265.5 53.5
q213 0 321 -116t97 -304z" />
    <glyph glyph-name="scedilla" unicode="&#x15f;" horiz-adv-x="923" 
d="M496 621q164 -50 242.5 -125t78.5 -203q0 -146 -113.5 -240t-310.5 -94h-8l-31 -41q67 -12 103.5 -53.5t36.5 -100.5q0 -98 -76.5 -146t-198.5 -48q-69 0 -110 18l16 82q38 -14 104 -14q71 0 108.5 27t37.5 71q0 47 -47.5 71.5t-134.5 14.5l90 127q-79 14 -138.5 49
t-93.5 83t-51.5 99.5t-19.5 108.5h184q19 -213 244 -213q94 0 155.5 50.5t61.5 134.5q0 72 -50.5 117.5t-166.5 80.5q-70 21 -119 44t-93.5 58.5t-67 87t-22.5 119.5q0 141 108 234.5t304 93.5q182 0 271 -90.5t92 -247.5h-185q-10 203 -186 203q-107 0 -159 -50t-52 -124
q0 -70 50.5 -112.5t146.5 -71.5z" />
    <glyph glyph-name="Scaron" unicode="&#x160;" horiz-adv-x="1157" 
d="M684 1507l-104 193h137l43 -113l80 113h139l-170 -193h-125zM1155 1022h-188q10 132 -62 206.5t-207 74.5q-129 0 -212 -70.5t-83 -192.5q0 -89 62 -139.5t201 -83.5q202 -48 299.5 -140.5t97.5 -248.5q0 -206 -159 -331.5t-406 -125.5q-222 0 -348.5 114.5t-114.5 315.5
h188q6 -139 85.5 -214.5t217.5 -75.5q148 0 244 76t96 210q0 100 -69.5 158.5t-227.5 97.5q-174 43 -268 121.5t-94 212.5q0 138 72.5 243t192 158.5t265.5 53.5q213 0 321 -116t97 -304z" />
    <glyph glyph-name="scaron" unicode="&#x161;" horiz-adv-x="923" 
d="M502 1188l-96 225h131l45 -129l90 129h129l-178 -225h-121zM496 621q164 -50 242.5 -125t78.5 -203q0 -146 -113.5 -240t-310.5 -94q-109 0 -191 30.5t-127.5 82t-68.5 110t-26 125.5h184q19 -213 244 -213q94 0 155.5 50.5t61.5 134.5q0 72 -50.5 117.5t-166.5 80.5
q-70 21 -119 44t-93.5 58.5t-67 87t-22.5 119.5q0 141 108 234.5t304 93.5q182 0 271 -90.5t92 -247.5h-185q-10 203 -186 203q-107 0 -159 -50t-52 -124q0 -70 50.5 -112.5t146.5 -71.5z" />
    <glyph glyph-name="Tcedilla" unicode="&#x162;" horiz-adv-x="1255" 
d="M618 0l-59 -82q67 -12 103 -53.5t36 -100.5q0 -98 -76 -146t-198 -48q-70 0 -111 18l17 82q38 -14 104 -14q71 0 108.5 27t37.5 71q0 47 -48 71.5t-135 14.5l115 160h-33l226 1270h-506l26 143h1184l-27 -143h-501l-226 -1270h-37z" />
    <glyph glyph-name="tcedilla" unicode="&#x163;" horiz-adv-x="620" 
d="M416 942l-111 -625q-14 -82 -14 -112q0 -57 41.5 -74t132.5 -2l-25 -129q-59 -16 -131 -16h-14l-49 -66q67 -12 103 -53.5t36 -100.5q0 -98 -76 -146t-198 -48q-71 0 -111 18l16 82q38 -14 105 -14q71 0 108 27t37 71q0 47 -47.5 71.5t-134.5 14.5l115 160
q-93 35 -93 141q0 41 23 168l113 633h-144l25 135h141l45 252h176l-45 -252h187l-25 -135h-186z" />
    <glyph glyph-name="Tcaron" unicode="&#x164;" horiz-adv-x="1255" 
d="M774 1507l-104 193h137l43 -113l80 113h139l-170 -193h-125zM1382 1270h-501l-226 -1270h-176l226 1270h-506l26 143h1184z" />
    <glyph glyph-name="tcaron" unicode="&#x165;" horiz-adv-x="620" 
d="M799 1505v-14l-166 -281h-98l122 295h142zM440 1077h187l-25 -135h-186l-111 -625q-14 -82 -14 -112q0 -57 41.5 -74t132.5 -2l-25 -129q-59 -16 -131 -16q-203 0 -203 157q0 41 23 168l113 633h-144l25 135h141l45 252h176z" />
    <glyph glyph-name="Tbar" unicode="&#x166;" horiz-adv-x="1298" 
d="M881 1270l-95 -531h236l-21 -114h-235l-111 -625h-176l111 625h-223l20 114h223l95 531h-506l26 143h1184l-27 -143h-501z" />
    <glyph glyph-name="tbar" unicode="&#x167;" horiz-adv-x="620" 
d="M416 942l-41 -229h172l-21 -107h-170l-51 -289q-14 -82 -14 -112q0 -57 41.5 -74t132.5 -2l-25 -129q-59 -16 -131 -16q-203 0 -203 157q0 41 23 168l53 297h-147l20 107h146l41 229h-144l25 135h141l45 252h176l-45 -252h187l-25 -135h-186z" />
    <glyph glyph-name="Umacron" unicode="&#x16a;" horiz-adv-x="1398" 
d="M1147 1550h-492l21 107h491zM1409 1413l-158 -891q-13 -75 -26 -127q-104 -424 -600 -424q-222 0 -335.5 102t-113.5 294q0 77 17 170l155 876h176l-151 -860q-21 -123 -21 -180q0 -124 74.5 -193t222.5 -69q165 0 262.5 72t141.5 231q11 41 26 125l154 874h176z" />
    <glyph glyph-name="umacron" unicode="&#x16b;" horiz-adv-x="1208" 
d="M971 1237h-492l21 106h491zM1153 1085l-190 -1085h-177l33 186l-90 -125q-75 -52 -143 -71t-156 -19q-162 0 -247 74.5t-85 204.5q0 84 27 225l111 610h176l-109 -598q-22 -126 -22 -188q0 -89 50.5 -140t160.5 -48q68 2 127 28t113 82t95.5 154t65.5 233l84 477h176z
" />
    <glyph glyph-name="Uring" unicode="&#x16e;" horiz-adv-x="1398" 
d="M938 1790q78 0 123 -38.5t45 -98.5q0 -86 -61 -136.5t-148 -50.5q-78 0 -123 39t-45 99q0 86 61 136t148 50zM934 1716q-44 0 -73.5 -27.5t-29.5 -76.5q0 -31 19 -51.5t51 -20.5q43 0 73 28t30 77q0 31 -19 51t-51 20zM1409 1413l-158 -891q-13 -75 -26 -127
q-104 -424 -600 -424q-222 0 -335.5 102t-113.5 294q0 77 17 170l155 876h176l-151 -860q-21 -123 -21 -180q0 -124 74.5 -193t222.5 -69q165 0 262.5 72t141.5 231q11 41 26 125l154 874h176z" />
    <glyph glyph-name="uring" unicode="&#x16f;" horiz-adv-x="1208" 
d="M711 1157q-72 0 -116 38.5t-44 100.5q0 87 64.5 146t156.5 59q72 0 116 -38.5t44 -100.5q0 -87 -64.5 -146t-156.5 -59zM758 1427q-43 0 -73 -33.5t-30 -88.5q0 -35 18.5 -54.5t51.5 -19.5q43 0 72.5 34t29.5 89q0 35 -18 54t-51 19zM1153 1085l-190 -1085h-177l33 186
l-90 -125q-75 -52 -143 -71t-156 -19q-162 0 -247 74.5t-85 204.5q0 84 27 225l111 610h176l-109 -598q-22 -126 -22 -188q0 -89 50.5 -140t160.5 -48q68 2 127 28t113 82t95.5 154t65.5 233l84 477h176z" />
    <glyph glyph-name="Uhungarumlaut" unicode="&#x170;" horiz-adv-x="1398" 
d="M797 1507h-115l143 193h164zM1020 1507h-115l144 193h163zM1409 1413l-158 -891q-13 -75 -26 -127q-104 -424 -600 -424q-222 0 -335.5 102t-113.5 294q0 77 17 170l155 876h176l-151 -860q-21 -123 -21 -180q0 -124 74.5 -193t222.5 -69q165 0 262.5 72t141.5 231
q11 41 26 125l154 874h176z" />
    <glyph glyph-name="uhungarumlaut" unicode="&#x171;" horiz-adv-x="1208" 
d="M647 1188h-115l166 225h164zM782 1188l166 225h164l-215 -225h-115zM1153 1085l-190 -1085h-177l33 186l-90 -125q-75 -52 -143 -71t-156 -19q-162 0 -247 74.5t-85 204.5q0 84 27 225l111 610h176l-109 -598q-22 -126 -22 -188q0 -89 50.5 -140t160.5 -48q68 2 127 28
t113 82t95.5 154t65.5 233l84 477h176z" />
    <glyph glyph-name="Uogonek" unicode="&#x172;" horiz-adv-x="1398" 
d="M1409 1413l-158 -891q-13 -75 -26 -127q-86 -352 -443 -411q-78 -32 -130 -105.5t-52 -138.5q0 -86 76 -86q63 0 121 41l-19 -94q-81 -58 -190 -58q-71 0 -117.5 36.5t-46.5 113.5q0 78 46.5 151.5t133.5 126.5q-212 4 -320 106t-108 290q0 77 17 170l155 876h176
l-151 -860q-21 -123 -21 -180q0 -124 74.5 -193t222.5 -69q165 0 262.5 72t141.5 231q11 41 26 125l154 874h176z" />
    <glyph glyph-name="uogonek" unicode="&#x173;" horiz-adv-x="1208" 
d="M1153 1085l-190 -1085h-43q-98 -16 -169 -100t-71 -160q0 -86 76 -86q63 0 121 41l-19 -94q-81 -58 -190 -58q-71 0 -117.5 36.5t-46.5 113.5q0 100 75 189.5t212 137.5l28 166l-90 -125q-75 -52 -143 -71t-156 -19q-162 0 -247 74.5t-85 204.5q0 84 27 225l111 610h176
l-109 -598q-22 -126 -22 -188q0 -89 50.5 -140t160.5 -48q68 2 127 28t113 82t95.5 154t65.5 233l84 477h176z" />
    <glyph glyph-name="Wcircumflex" unicode="&#x174;" horiz-adv-x="1951" 
d="M1110 1507h-135l170 193h121l104 -193h-137l-43 113zM2089 1413l-643 -1413h-232l-102 1219l-549 -1219h-233l-123 1413h194l80 -1231l535 1211h250l100 -1213l528 1233h195z" />
    <glyph glyph-name="wcircumflex" unicode="&#x175;" horiz-adv-x="1556" 
d="M823 1188h-129l178 225h121l97 -225h-132l-45 129zM1665 1085l-539 -1085h-208l-80 909l-402 -909h-211l-153 1085h202l91 -901l391 901h223l82 -903l412 903h192z" />
    <glyph glyph-name="Ycircumflex" unicode="&#x176;" horiz-adv-x="1189" 
d="M735 1507h-135l170 193h121l104 -193h-137l-43 113zM715 549l-97 -549h-176l99 557l-348 856h186l274 -696l508 696h207z" />
    <glyph glyph-name="ycircumflex" unicode="&#x177;" horiz-adv-x="1011" 
d="M547 1188h-129l178 225h121l96 -225h-131l-45 129zM1120 1085l-604 -1085q-141 -254 -240 -342t-251 -88q-45 0 -86 6l24 145q35 -6 64 -6q84 0 142.5 42t115.5 149l18 35l-231 1144h200l156 -956l490 956h202z" />
    <glyph glyph-name="Ydieresis" unicode="&#x178;" horiz-adv-x="1189" 
d="M653 1509q-35 0 -57.5 23t-22.5 57q0 42 35.5 75.5t77.5 33.5q35 0 57.5 -23t22.5 -57q0 -42 -35.5 -75.5t-77.5 -33.5zM940 1509q-35 0 -57.5 23t-22.5 57q0 42 35.5 75.5t77.5 33.5q35 0 57.5 -23t22.5 -57q0 -42 -35.5 -75.5t-77.5 -33.5zM715 549l-97 -549h-176
l99 557l-348 856h186l274 -696l508 696h207z" />
    <glyph glyph-name="Zacute" unicode="&#x179;" horiz-adv-x="1210" 
d="M844 1507h-115l143 193h164zM1282 1272l-1030 -1129h844l-27 -143h-1071l25 135l1036 1135h-780l26 143h1002z" />
    <glyph glyph-name="zacute" unicode="&#x17a;" horiz-adv-x="970" 
d="M647 1188h-115l166 225h164zM963 936l-762 -797h633l-25 -139h-846l23 135l768 803h-582l25 139h790z" />
    <glyph glyph-name="Zdotaccent" unicode="&#x17b;" horiz-adv-x="1210" 
d="M797 1509q-35 0 -57.5 23t-22.5 57q0 42 35 75.5t77 33.5q35 0 57.5 -23t22.5 -57q0 -42 -35 -75.5t-77 -33.5zM1282 1272l-1030 -1129h844l-27 -143h-1071l25 135l1036 1135h-780l26 143h1002z" />
    <glyph glyph-name="zdotaccent" unicode="&#x17c;" horiz-adv-x="970" 
d="M610 1217q-42 0 -69 27t-27 67q0 55 38.5 93t94.5 38q42 0 69 -27t27 -67q0 -55 -38.5 -93t-94.5 -38zM963 936l-762 -797h633l-25 -139h-846l23 135l768 803h-582l25 139h790z" />
    <glyph glyph-name="Zcaron" unicode="&#x17d;" horiz-adv-x="1210" 
d="M737 1507l-104 193h137l43 -113l80 113h139l-170 -193h-125zM1282 1272l-1030 -1129h844l-27 -143h-1071l25 135l1036 1135h-780l26 143h1002z" />
    <glyph glyph-name="zcaron" unicode="&#x17e;" horiz-adv-x="970" 
d="M543 1188l-97 225h132l45 -129l90 129h129l-178 -225h-121zM963 936l-762 -797h633l-25 -139h-846l23 135l768 803h-582l25 139h790z" />
    <glyph glyph-name="Scommaaccent" unicode="&#x218;" horiz-adv-x="1157" 
d="M737 1442q213 0 321 -116t97 -304h-188q10 132 -62 206.5t-207 74.5q-129 0 -212 -70.5t-83 -192.5q0 -89 62 -139.5t201 -83.5q202 -48 299.5 -140.5t97.5 -248.5q0 -206 -159 -331.5t-406 -125.5q-222 0 -348.5 114.5t-114.5 315.5h188q6 -139 85.5 -214.5t217.5 -75.5
q148 0 244 76t96 210q0 100 -69.5 158.5t-227.5 97.5q-174 43 -268 121.5t-94 212.5q0 138 72.5 243t192 158.5t265.5 53.5zM600 -119l-166 -280h-98l123 295h141v-15z" />
    <glyph glyph-name="scommaaccent" unicode="&#x219;" horiz-adv-x="923" 
d="M518 1114q182 0 271 -90.5t92 -247.5h-185q-10 203 -186 203q-107 0 -159 -50t-52 -124q0 -70 50.5 -112.5t146.5 -71.5q164 -50 242.5 -125t78.5 -203q0 -146 -113.5 -240t-310.5 -94q-109 0 -191 30.5t-127.5 82t-68.5 110t-26 125.5h184q19 -213 244 -213
q94 0 155.5 50.5t61.5 134.5q0 72 -50.5 117.5t-166.5 80.5q-70 21 -119 44t-93.5 58.5t-67 87t-22.5 119.5q0 141 108 234.5t304 93.5zM424 -119l-166 -280h-98l123 295h141v-15z" />
    <glyph glyph-name="uni021A" unicode="&#x21a;" horiz-adv-x="1255" 
d="M1382 1270h-501l-226 -1270h-176l226 1270h-506l26 143h1184zM498 -104h141v-15l-166 -280h-98z" />
    <glyph glyph-name="uni021B" unicode="&#x21b;" horiz-adv-x="620" 
d="M416 942l-111 -625q-14 -82 -14 -112q0 -57 41.5 -74t132.5 -2l-25 -129q-59 -16 -131 -16q-203 0 -203 157q0 41 23 168l113 633h-144l25 135h141l45 252h176l-45 -252h187l-25 -135h-186zM174 -104h141v-15l-165 -280h-99z" />
    <glyph glyph-name="circumflex" unicode="&#x2c6;" horiz-adv-x="614" 
d="M354 1188l-45 129l-90 -129h-129l178 225h121l96 -225h-131z" />
    <glyph glyph-name="caron" unicode="&#x2c7;" horiz-adv-x="614" 
d="M526 1413l-178 -225h-121l-96 225h131l45 -129l90 129h129z" />
    <glyph glyph-name="breve" unicode="&#x2d8;" horiz-adv-x="614" 
d="M430 1413h109q-24 -129 -85 -191.5t-169 -62.5q-212 0 -164 254h108q-3 -38 -3 -69.5t19.5 -51.5t59.5 -20q98 0 125 141z" />
    <glyph glyph-name="dotaccent" unicode="&#x2d9;" horiz-adv-x="614" 
d="M332 1442q42 0 69 -27t27 -67q0 -55 -38.5 -93t-94.5 -38q-42 0 -69 27t-27 67q0 55 38.5 93t94.5 38z" />
    <glyph glyph-name="ring" unicode="&#x2da;" horiz-adv-x="614" 
d="M338 1501q72 0 116 -38.5t44 -100.5q0 -87 -65 -146t-157 -59q-72 0 -115.5 38.5t-43.5 100.5q0 87 64.5 146t156.5 59zM324 1427q-43 0 -73 -33.5t-30 -88.5q0 -35 18.5 -54.5t51.5 -19.5q43 0 72.5 34t29.5 89q0 35 -18 54t-51 19z" />
    <glyph glyph-name="ogonek" unicode="&#x2db;" horiz-adv-x="614" 
d="M350 23l125 -23q-98 -16 -168.5 -99.5t-70.5 -160.5q0 -86 75 -86q63 0 121 41l-18 -94q-81 -58 -191 -58q-71 0 -117.5 36.5t-46.5 113.5q0 102 76.5 192t214.5 138z" />
    <glyph glyph-name="tilde" unicode="&#x2dc;" horiz-adv-x="614" 
d="M211 1374q47 0 121 -26q68 -23 86 -23q33 0 41 41h78q-14 -81 -47 -113t-87 -32q-46 0 -120 26q-68 23 -86 23q-33 0 -41 -41h-78q14 82 46.5 113.5t86.5 31.5z" />
    <glyph glyph-name="hungarumlaut" unicode="&#x2dd;" horiz-adv-x="614" 
d="M217 1188h-115l166 225h164zM467 1188h-115l166 225h164z" />
    <glyph glyph-name="uni0326" unicode="&#x326;" horiz-adv-x="0" 
d="M424 -119l-166 -280h-98l123 295h141v-15z" />
    <glyph glyph-name="Wgrave" unicode="&#x1e80;" horiz-adv-x="1951" 
d="M1122 1507l-127 193h164l78 -193h-115zM2089 1413l-643 -1413h-232l-102 1219l-549 -1219h-233l-123 1413h194l80 -1231l535 1211h250l100 -1213l528 1233h195z" />
    <glyph glyph-name="wgrave" unicode="&#x1e81;" horiz-adv-x="1556" 
d="M842 1188l-133 225h163l84 -225h-114zM1665 1085l-539 -1085h-208l-80 909l-402 -909h-211l-153 1085h202l91 -901l391 901h223l82 -903l412 903h192z" />
    <glyph glyph-name="Wacute" unicode="&#x1e82;" horiz-adv-x="1951" 
d="M1219 1507h-115l143 193h164zM2089 1413l-643 -1413h-232l-102 1219l-549 -1219h-233l-123 1413h194l80 -1231l535 1211h250l100 -1213l528 1233h195z" />
    <glyph glyph-name="wacute" unicode="&#x1e83;" horiz-adv-x="1556" 
d="M936 1188h-115l166 225h164zM1665 1085l-539 -1085h-208l-80 909l-402 -909h-211l-153 1085h202l91 -901l391 901h223l82 -903l412 903h192z" />
    <glyph glyph-name="Wdieresis" unicode="&#x1e84;" horiz-adv-x="1951" 
d="M1028 1509q-35 0 -57.5 23t-22.5 57q0 42 35.5 75.5t77.5 33.5q35 0 57.5 -23t22.5 -57q0 -42 -35.5 -75.5t-77.5 -33.5zM1315 1509q-35 0 -57.5 23t-22.5 57q0 42 35.5 75.5t77.5 33.5q35 0 57 -23t22 -57q0 -42 -35 -75.5t-77 -33.5zM2089 1413l-643 -1413h-232
l-102 1219l-549 -1219h-233l-123 1413h194l80 -1231l535 1211h250l100 -1213l528 1233h195z" />
    <glyph glyph-name="wdieresis" unicode="&#x1e85;" horiz-adv-x="1556" 
d="M741 1194q-35 0 -57 23t-22 57q0 42 35 75t77 33q35 0 57.5 -22.5t22.5 -56.5q0 -42 -35.5 -75.5t-77.5 -33.5zM1040 1194q-35 0 -57 23t-22 57q0 42 35 75t77 33q35 0 57.5 -22.5t22.5 -56.5q0 -42 -35.5 -75.5t-77.5 -33.5zM1665 1085l-539 -1085h-208l-80 909
l-402 -909h-211l-153 1085h202l91 -901l391 901h223l82 -903l412 903h192z" />
    <glyph glyph-name="Ygrave" unicode="&#x1ef2;" horiz-adv-x="1189" 
d="M748 1507l-127 193h163l78 -193h-114zM715 549l-97 -549h-176l99 557l-348 856h186l274 -696l508 696h207z" />
    <glyph glyph-name="ygrave" unicode="&#x1ef3;" horiz-adv-x="1011" 
d="M565 1188l-133 225h164l84 -225h-115zM1120 1085l-604 -1085q-141 -254 -240 -342t-251 -88q-45 0 -86 6l24 145q35 -6 64 -6q84 0 142.5 42t115.5 149l18 35l-231 1144h200l156 -956l490 956h202z" />
    <glyph glyph-name="endash" unicode="&#x2013;" horiz-adv-x="1024" 
d="M870 541h-737l21 114h737z" />
    <glyph glyph-name="emdash" unicode="&#x2014;" horiz-adv-x="2048" 
d="M1894 541h-1761l21 114h1761z" />
    <glyph glyph-name="quoteleft" unicode="&#x2018;" horiz-adv-x="454" 
d="M186 987l260 426h166l-239 -450h-191z" />
    <glyph glyph-name="quoteright" unicode="&#x2019;" horiz-adv-x="454" 
d="M502 1389l-260 -426h-166l239 450h191z" />
    <glyph glyph-name="quotesinglbase" unicode="&#x201a;" horiz-adv-x="477" 
d="M250 180l-262 -426h-166l239 451h193z" />
    <glyph glyph-name="quotedblleft" unicode="&#x201c;" horiz-adv-x="802" 
d="M186 987l260 426h166l-239 -450h-191zM535 987l260 426h166l-240 -450h-191z" />
    <glyph glyph-name="quotedblright" unicode="&#x201d;" horiz-adv-x="802" 
d="M502 1389l-260 -426h-166l239 450h191zM850 1389l-260 -426h-166l240 450h190z" />
    <glyph glyph-name="quotedblbase" unicode="&#x201e;" horiz-adv-x="825" 
d="M250 180l-262 -426h-166l239 451h193zM598 180l-262 -426h-166l240 451h192z" />
    <glyph glyph-name="dagger" unicode="&#x2020;" horiz-adv-x="1146" 
d="M1051 766l-365 16l-172 -1110h-209l221 1110l-372 -16l28 160l367 -17l63 504h209l-112 -504l370 17z" />
    <glyph glyph-name="daggerdbl" unicode="&#x2021;" horiz-adv-x="1085" 
d="M686 782l-86 -479l373 16l-29 -159l-366 16l-64 -504h-209l113 504l-371 -16l29 159l364 -16l86 479l-372 -16l28 160l367 -17l63 504h209l-112 -504l370 17l-28 -160z" />
    <glyph glyph-name="bullet" unicode="&#x2022;" horiz-adv-x="745" 
d="M410 838q81 0 130.5 -49t49.5 -125q0 -103 -76.5 -177.5t-177.5 -74.5q-81 0 -130.5 49t-49.5 125q0 103 76.5 177.5t177.5 74.5z" />
    <glyph glyph-name="ellipsis" unicode="&#x2026;" horiz-adv-x="1296" 
d="M154 233q50 0 79 -30.5t29 -77.5q0 -67 -44.5 -110.5t-108.5 -43.5q-50 0 -79.5 31t-29.5 78q0 66 45 109.5t109 43.5zM563 233q50 0 79.5 -30.5t29.5 -77.5q0 -66 -45 -110t-109 -44q-50 0 -79 31t-29 78q0 66 44.5 109.5t108.5 43.5zM973 233q50 0 79 -30.5t29 -77.5
q0 -67 -44.5 -110.5t-108.5 -43.5q-50 0 -79.5 31t-29.5 78q0 66 45 109.5t109 43.5z" />
    <glyph glyph-name="perthousand" unicode="&#x2030;" horiz-adv-x="2205" 
d="M438 791q-122 0 -194 73t-72 193q0 73 22 140.5t64 123t111.5 88.5t156.5 33q122 0 194.5 -73.5t72.5 -192.5q0 -73 -22 -140.5t-64 -123t-112 -88.5t-157 -33zM1272 1413h190l-1161 -1413h-190zM512 1319q-74 0 -120 -75t-46 -197q0 -62 26 -98t81 -36q74 0 119.5 75
t45.5 198q0 133 -106 133zM1135 623q122 0 194 -73.5t72 -193.5q0 -73 -22 -140.5t-64 -123t-111.5 -88.5t-156.5 -33q-122 0 -194.5 73.5t-72.5 193.5q0 73 22 140.5t64 123t112 88.5t157 33zM1825 623q122 0 194 -73.5t72 -193.5q0 -73 -22 -140.5t-64 -123t-111.5 -88.5
t-156.5 -33q-122 0 -194.5 73.5t-72.5 193.5q0 73 22 140.5t64 123t112 88.5t157 33zM1061 94q74 0 120 75.5t46 197.5q0 62 -26 97.5t-81 35.5q-74 0 -120 -75.5t-46 -197.5q0 -62 26 -97.5t81 -35.5zM1751 94q74 0 120 75.5t46 197.5q0 62 -26 97.5t-81 35.5
q-74 0 -119.5 -75t-45.5 -198q0 -133 106 -133z" />
    <glyph glyph-name="guilsinglleft" unicode="&#x2039;" horiz-adv-x="772" 
d="M389 494l211 -326h-145l-222 340l340 340h170z" />
    <glyph glyph-name="guilsinglright" unicode="&#x203a;" horiz-adv-x="772" 
d="M526 508l-340 -340h-170l355 354l-211 326h145z" />
    <glyph glyph-name="fraction" unicode="&#x2044;" horiz-adv-x="446" 
d="M-233 0h-191l1161 1413h191z" />
    <glyph glyph-name="Euro" unicode="&#x20ac;" 
d="M848 1442q223 0 321 -129l-100 -111q-81 101 -238 101q-100 0 -182 -36t-138 -99.5t-92.5 -136t-60.5 -159.5h619l-43 -114h-598q-9 -58 -12 -111h575l-39 -115h-538q4 -119 28.5 -202t69.5 -130.5t102.5 -68t136.5 -20.5q172 0 316 82l-27 -146q-148 -76 -323 -76
q-87 0 -156.5 15t-133 53.5t-107 100.5t-70 161.5t-29.5 230.5h-160l41 115h121q3 55 12 111h-98l41 114h82q23 91 59 170t94 154t131 128.5t174.5 85.5t221.5 32z" />
    <glyph glyph-name="trademark" unicode="&#x2122;" horiz-adv-x="1103" 
d="M317 1268l-59 -334h-102l59 334h-152l15 84h405l-14 -84h-152zM1012 1350l-74 -416h-102l55 291l-137 -283h-107l-37 281l-49 -289h-102l73 416h154l31 -318l145 318h150z" />
    <glyph glyph-name="partialdiff" unicode="&#x2202;" 
d="M659 1552q433 0 433 -548q0 -101 -8.5 -200t-29.5 -202.5t-53 -194.5t-81.5 -172t-112 -139t-148 -91.5t-186.5 -33.5q-183 0 -293 106t-110 298q0 133 34 247t99 200.5t166.5 136t228.5 49.5q229 0 295 -158q6 76 6 151q0 199 -62 307.5t-210 108.5q-100 0 -171.5 -25.5
t-152.5 -86.5l-59 108q102 74 198 106.5t217 32.5zM489 106q99 0 178 75.5t128 200.5t75 294q-30 103 -100 149.5t-188 46.5q-143 0 -231.5 -135.5t-88.5 -357.5q0 -135 60.5 -204t166.5 -69z" />
    <glyph glyph-name="emptyset" unicode="&#x2205;" horiz-adv-x="1716" 
d="M1624 1409l-166 -166q88 -106 136 -238.5t48 -277.5q0 -217 -103.5 -400t-284 -290t-396.5 -107q-297 0 -518 195l-164 -164l-84 84l166 166q-88 106 -136 238.5t-48 277.5q0 217 103.5 400t284 290t396.5 107q297 0 518 -195l164 164zM201 727q0 -244 145 -428l942 942
q-185 164 -430 164q-136 0 -258.5 -54t-209.5 -145t-138 -216t-51 -263zM858 49q182 0 333.5 91t238 246.5t86.5 340.5q0 242 -146 428l-942 -942q185 -164 430 -164z" />
    <glyph glyph-name="product" unicode="&#x220f;" 
d="M1223 1270h-123l-266 -1495h-177l267 1495h-459l-266 -1495h-176l266 1495h-127l26 143h1061z" />
    <glyph glyph-name="summation" unicode="&#x2211;" 
d="M1145 1270h-723l387 -656l-690 -696h801l-27 -143h-1002l25 139l688 702l-385 658l25 139h927z" />
    <glyph glyph-name="minus" unicode="&#x2212;" 
d="M993 596h-860l21 115h860z" />
    <glyph glyph-name="radical" unicode="&#x221a;" 
d="M1260 1597l-779 -1925h-149l-109 848h-137l20 115h232l96 -805l699 1767h127z" />
    <glyph glyph-name="infinity" unicode="&#x221e;" horiz-adv-x="2031" 
d="M1546 1114q211 0 319.5 -133t108.5 -354q0 -84 -20 -172t-66.5 -175.5t-112.5 -155.5t-167 -110.5t-222 -42.5q-152 0 -260 83.5t-153 246.5q-106 -172 -218.5 -251t-269.5 -79q-211 0 -319.5 133.5t-108.5 354.5q0 84 20 172t66.5 175.5t112.5 155t167 110t222 42.5
q152 0 260.5 -83.5t153.5 -246.5q106 173 218 251.5t269 78.5zM508 106q112 0 221.5 108t175.5 329q-3 229 -74 332.5t-208 103.5q-70 0 -132 -34t-105 -88.5t-74.5 -122.5t-46.5 -138t-15 -133q0 -174 66 -265.5t192 -91.5zM1409 106q70 0 132 34t105 88.5t74.5 123
t46.5 138.5t15 133q0 173 -66 264.5t-192 91.5q-113 0 -222.5 -108t-175.5 -328q3 -229 74.5 -333t208.5 -104z" />
    <glyph glyph-name="integral" unicode="&#x222b;" 
d="M860 1544q50 0 84 -9.5t68 -35.5l-51 -110q-27 24 -52 32.5t-63 8.5q-109 0 -162 -100.5t-53 -276.5q0 -166 24 -430q27 -255 27 -449q0 -238 -88.5 -370t-267.5 -132q-50 0 -84 9.5t-68 35.5l51 111q27 -24 52 -32.5t63 -8.5q109 0 162 100.5t53 276.5q0 155 -25 430
q-26 246 -26 448q0 238 88.5 370t267.5 132z" />
    <glyph glyph-name="approxequal" unicode="&#x2248;" horiz-adv-x="1146" 
d="M416 897q57 0 99.5 -17.5t125.5 -66.5q65 -39 103.5 -55.5t78.5 -16.5q47 0 84.5 24t77.5 77l80 -68q-67 -81 -131.5 -119.5t-145.5 -38.5q-55 0 -97.5 17.5t-125.5 66.5q-65 39 -103.5 55.5t-78.5 16.5q-46 0 -84 -23.5t-78 -76.5l-78 76q65 79 128.5 114t144.5 35z
M358 569q57 0 100.5 -17.5t125.5 -66.5q63 -38 102 -54.5t80 -16.5q47 0 84.5 23.5t77.5 76.5l78 -68q-67 -81 -131 -119t-144 -38q-55 0 -97.5 17.5t-125.5 66.5q-63 38 -102 54.5t-80 16.5q-46 0 -84 -23.5t-78 -76.5l-78 76q65 79 128 114t144 35z" />
    <glyph glyph-name="notequal" unicode="&#x2260;" 
d="M743 793l-223 -295h457l-21 -115h-524l-135 -178h-135l135 178h-201l21 115h268l223 295h-438l20 114h506l135 178h136l-136 -178h220l-21 -114h-287z" />
    <glyph glyph-name="lessequal" unicode="&#x2264;" 
d="M1071 907l-782 -282l684 -275l-25 -139l-798 350l24 139l922 351zM72 115h860l-21 -115h-860z" />
    <glyph glyph-name="greaterequal" unicode="&#x2265;" 
d="M1034 700l-24 -139l-922 -350l25 145l782 283l-684 274l25 138zM72 115h860l-21 -115h-860z" />
    <glyph glyph-name="lozenge" unicode="&#x25ca;" horiz-adv-x="1048" 
d="M934 707l-467 -707h-135l-217 707l467 706h135zM799 707l-170 585l-379 -585l170 -586z" />
    <glyph glyph-name="a.alt" horiz-adv-x="1253" 
d="M1196 1085l-188 -1085h-177l31 174l-102 -117q-53 -38 -135.5 -62t-165.5 -24q-99 0 -177 34t-127.5 94.5t-75.5 140.5t-26 174q0 103 24.5 202t76.5 189.5t126 159t181.5 109t234.5 40.5q69 0 141 -25.5t107 -64.5l47 -102l29 163h176zM936 592v4q18 102 -3 187.5
t-88.5 140.5t-172.5 55q-99 0 -181.5 -48t-135 -127.5t-81 -178t-28.5 -203.5q0 -144 66.5 -230t195.5 -86q149 0 264 104t154 322z" />
    <glyph glyph-name="braceleft.001" horiz-adv-x="620" 
d="M739 1597l-20 -114h-25q-61 0 -94.5 -10t-57.5 -43t-31 -92t-5 -160q2 -96 -8 -171t-35.5 -139.5t-75 -103.5t-121.5 -49q72 -8 112 -48.5t40 -109.5q0 -92 -76 -301q-63 -172 -63 -229q0 -76 145 -76h25l-21 -115h-22q-125 0 -187.5 39.5t-62.5 140.5q0 40 13.5 88
t59.5 172q66 176 66 265q0 52 -34 81.5t-109 36.5l20 115q63 6 100 21t65.5 55.5t39 114t8.5 192.5q-2 134 12 217t54 134t102 70t164 19h22z" />
    </font>
</defs>
</svg>
