<?xml version="1.0" standalone="no"?>
<!DOCTYPE svg PUBLIC "-//W3C//DTD SVG 1.1//EN" "http://www.w3.org/Graphics/SVG/1.1/DTD/svg11.dtd" >
<svg xmlns="http://www.w3.org/2000/svg" xmlns:xlink="http://www.w3.org/1999/xlink" version="1.1">
<metadata>
Created by FontForge 20170731 at Wed Dec 14 12:20:11 2022
 By Aleksey,,,
No Rights Reserved.
</metadata>
<defs>
<font id="Aileron-Light" horiz-adv-x="1148" >
  <font-face 
    font-family="Aileron Light"
    font-weight="300"
    font-stretch="normal"
    units-per-em="2048"
    panose-1="0 0 4 0 0 0 0 0 0 0"
    ascent="1577"
    descent="-471"
    x-height="1071"
    cap-height="1413"
    bbox="-346 -457 2189 1833"
    underline-thickness="102"
    underline-position="-307"
    unicode-range="U+0020-FB02"
  />
<missing-glyph horiz-adv-x="1024" 
d="M0 0v1434h1024v-1434h-1024zM512 809l348 522h-696zM573 717l349 -522v1044zM164 102h696l-348 523zM102 1239v-1044l349 522z" />
    <glyph glyph-name="fi" unicode="fi" horiz-adv-x="972" 
d="M817 1075v-1075h-127v973h-399v-973h-127v973h-117v102h117v51q0 84 4 123q15 140 118.5 217.5t291.5 77.5q50 0 112 -10v-107q-368 37 -395 -184q-4 -35 -4 -106v-62h526z" />
    <glyph glyph-name="fl" unicode="fl" horiz-adv-x="942" 
d="M764 170q3 -52 30.5 -69t96.5 -9v-94q-33 -6 -100 -6q-71 0 -110.5 31.5t-43.5 113.5q-2 37 -2 146v1144q-52 17 -131 17q-107 0 -163.5 -56t-66.5 -145q-4 -35 -4 -106v-62h222v-102h-222v-973h-127v973h-96v102h96v51q0 84 4 123q15 140 107 217.5t254 77.5
q159 0 254 -39v-1218q0 -84 2 -117z" />
    <glyph glyph-name=".notdef" horiz-adv-x="1024" 
d="M0 0v1434h1024v-1434h-1024zM512 809l348 522h-696zM573 717l349 -522v1044zM164 102h696l-348 523zM102 1239v-1044l349 522z" />
    <glyph glyph-name=".null" horiz-adv-x="0" 
 />
    <glyph glyph-name="nonmarkingreturn" horiz-adv-x="682" 
 />
    <glyph glyph-name="space" unicode=" " horiz-adv-x="417" 
 />
    <glyph glyph-name="exclam" unicode="!" horiz-adv-x="464" 
d="M291 315h-117l-18 1098h153zM233 166q41 0 69 -27.5t28 -68.5q0 -43 -28 -71t-69 -28q-43 0 -70.5 28t-27.5 71q0 41 27.5 68.5t70.5 27.5z" />
    <glyph glyph-name="quotedbl" unicode="&#x22;" horiz-adv-x="548" 
d="M244 997h-103l-14 508h131zM477 997h-100l-17 508h134z" />
    <glyph glyph-name="numbersign" unicode="#" 
d="M799 856l-64 -299h221v-88h-239l-101 -469h-92l101 469h-201l-100 -469h-91l101 469h-203v88h221l64 299h-223v88h241l101 469h90l-101 -469h201l100 469h93l-101 -469h201v-88h-219zM707 856h-201l-64 -299h201z" />
    <glyph glyph-name="dollar" unicode="$" 
d="M1040 350q0 -158 -111.5 -260.5t-293.5 -116.5v-157h-90v157q-187 9 -305.5 115.5t-130.5 288.5h133q17 -130 96 -208.5t207 -92.5v579q-88 24 -153.5 55.5t-119 78.5t-81 114t-27.5 154q0 164 106.5 265.5t274.5 117.5v157h90v-157q119 -7 206 -62.5t132.5 -139.5
t58.5 -191h-135q-14 129 -80 204.5t-182 85.5v-557q212 -66 308.5 -168.5t96.5 -261.5zM299 1073q0 -115 61 -177.5t185 -100.5v542q-111 -14 -178.5 -82t-67.5 -182zM635 639v-563q125 9 196.5 77t71.5 183q0 110 -64 184t-204 119z" />
    <glyph glyph-name="percent" unicode="%" horiz-adv-x="1484" 
d="M395 1438q131 0 209 -89.5t78 -236.5q0 -146 -78 -236t-209 -90t-210 90t-79 236q0 147 79 236.5t210 89.5zM350 0h-131l916 1413h133zM395 1343q-75 0 -118.5 -61.5t-43.5 -169.5q0 -107 43.5 -170t118.5 -63t118.5 63t43.5 170q0 108 -43.5 169.5t-118.5 61.5z
M1090 623q131 0 208.5 -89.5t77.5 -236.5q0 -146 -77.5 -236t-208.5 -90t-210 90t-79 236q0 147 79 236.5t210 89.5zM1090 530q-75 0 -118.5 -62t-43.5 -171q0 -108 43.5 -171t118.5 -63t118 63t43 171q0 109 -43 171t-118 62z" />
    <glyph glyph-name="ampersand" unicode="&#x26;" horiz-adv-x="1329" 
d="M1272 766v-107h-209v-649q-183 -39 -375 -39q-130 0 -226.5 17.5t-172.5 58.5t-115 115t-39 180q0 142 95 243.5t253 129.5q-128 26 -205 110t-77 219q0 175 135 286.5t350 111.5q129 0 246 -21v-104q-115 22 -252 22q-153 0 -245.5 -77.5t-92.5 -210.5q0 -79 25 -135.5
t71 -86.5t96.5 -44t114.5 -17q39 -2 127 -2h160v260h127v-260h209zM276 360q0 -156 102 -221t314 -65q130 0 244 20v565h-160q-84 0 -125 -4q-180 -15 -277.5 -90t-97.5 -205z" />
    <glyph glyph-name="quotesingle" unicode="'" horiz-adv-x="284" 
d="M188 997h-102l-14 508h131z" />
    <glyph glyph-name="parenleft" unicode="(" horiz-adv-x="628" 
d="M465 1597h92q-114 -188 -176 -416t-62 -464t62 -464.5t176 -416.5h-92q-113 170 -178.5 404.5t-65.5 476.5t65.5 476t178.5 404z" />
    <glyph glyph-name="parenright" unicode=")" horiz-adv-x="628" 
d="M66 1597h90q113 -169 178 -403.5t65 -476.5t-65 -477t-178 -404h-90q113 188 174 416.5t61 464.5t-61 464t-174 416z" />
    <glyph glyph-name="asterisk" unicode="*" horiz-adv-x="1124" 
d="M596 594l319 123l31 -94l-325 -93l231 -290l-80 -58l-211 314l-209 -314l-80 58l232 290l-326 93l29 94l321 -123l-14 379h96z" />
    <glyph glyph-name="plus" unicode="+" 
d="M997 604h-376v-428h-93v428h-376v86h376v434h93v-434h376v-86z" />
    <glyph glyph-name="comma" unicode="," horiz-adv-x="397" 
d="M231 129l-153 -373h-119l135 391h137v-18z" />
    <glyph glyph-name="hyphen" unicode="-" horiz-adv-x="561" 
d="M496 535h-430v88h430v-88z" />
    <glyph glyph-name="period" unicode="." horiz-adv-x="397" 
d="M176 166q41 0 68.5 -27.5t27.5 -68.5q0 -43 -27.5 -71t-68.5 -28q-43 0 -70.5 28t-27.5 71q0 41 27.5 68.5t70.5 27.5z" />
    <glyph glyph-name="slash" unicode="/" horiz-adv-x="589" 
d="M86 -61h-96l514 1536h96z" />
    <glyph glyph-name="zero" unicode="0" 
d="M575 1442q108 0 192.5 -36.5t141 -101t93 -158.5t52 -202t15.5 -237t-15.5 -237t-52 -202t-93 -158.5t-141 -101.5t-192.5 -37q-109 0 -194 37t-141 101.5t-92.5 158.5t-52 201.5t-15.5 237.5q0 735 495 735zM575 74q353 0 353 633q0 632 -353 632q-354 0 -354 -632
q0 -633 354 -633z" />
    <glyph glyph-name="one" unicode="1" 
d="M788 1413v-1413h-126v1280l-390 -238v138l310 192q63 41 127 41h79z" />
    <glyph glyph-name="two" unicode="2" 
d="M295 106h743v-106h-929v76l501 504q163 163 225 259.5t62 202.5q0 128 -76 212.5t-213 84.5q-143 0 -226 -88.5t-101 -249.5l-2 -20h-127l2 20q22 210 146 325.5t323 115.5q135 0 230.5 -53.5t140 -139.5t44.5 -194q0 -134 -79 -255.5t-271 -307.5z" />
    <glyph glyph-name="three" unicode="3" 
d="M762 743q141 -33 219 -123t78 -233q0 -126 -68 -222t-179 -145t-245 -49q-202 0 -326 105.5t-147 320.5l-2 21h127l2 -21q15 -154 110.5 -238.5t246.5 -84.5q150 0 245 82t95 225q0 134 -92.5 209.5t-278.5 75.5h-35v106h35q140 0 241 80.5t101 218.5q0 125 -79.5 196.5
t-205.5 71.5q-133 0 -221.5 -80t-101.5 -227l-2 -20h-127l2 20q19 192 142.5 301t321.5 109q191 0 301.5 -99t110.5 -258q0 -123 -74 -216t-194 -126z" />
    <glyph glyph-name="four" unicode="4" 
d="M1090 377h-189v-377h-127v377h-715v67l719 969h123v-932h189v-104zM774 481v762q-102 -154 -141 -209l-412 -553h553z" />
    <glyph glyph-name="five" unicode="5" 
d="M604 913q216 0 334.5 -129.5t118.5 -334.5q0 -146 -69 -257t-178.5 -166t-240.5 -55q-193 0 -314 101t-142 299l-2 20h127l4 -20q23 -138 105 -217.5t222 -79.5q149 0 247.5 96.5t98.5 269.5q0 170 -89 270.5t-240 100.5q-112 0 -193 -51t-135 -164h-121l111 815h770
v-106h-668l-82 -562l84 97q110 73 252 73z" />
    <glyph glyph-name="six" unicode="6" 
d="M598 948q144 0 250 -64t159.5 -172.5t53.5 -246.5q0 -215 -138 -354.5t-352 -139.5q-483 0 -483 658q0 210 40 368.5t112.5 254.5t166.5 143t209 47q180 0 290 -100t134 -273l2 -20h-135l-4 20q-55 270 -297 270q-365 0 -383 -643l66 117q123 135 309 135zM573 74
q153 0 250 107.5t97 271.5q0 172 -89.5 282.5t-252.5 110.5q-144 0 -242 -102.5t-98 -274.5q0 -170 91 -282.5t244 -112.5z" />
    <glyph glyph-name="seven" unicode="7" 
d="M1071 1413v-59l-721 -1354h-137l698 1307h-813v106h973z" />
    <glyph glyph-name="eight" unicode="8" 
d="M782 741q126 -34 203.5 -131t77.5 -229q0 -104 -41 -185t-110.5 -129.5t-155 -73t-181.5 -24.5q-103 0 -190 24.5t-154.5 73.5t-106 129.5t-38.5 184.5q0 129 81.5 225.5t211.5 134.5q-103 36 -165 122t-62 204q0 168 118 271.5t318 103.5q204 0 321 -103t117 -272
q0 -118 -67.5 -204.5t-176.5 -121.5zM289 1063q0 -129 82.5 -204t216.5 -75t217.5 75t83.5 204q0 122 -79.5 199t-221.5 77q-141 0 -220 -77t-79 -199zM580 72q152 0 247 81.5t95 223.5q0 134 -86 219.5t-256 85.5q-171 0 -262 -86t-91 -219q0 -142 97.5 -223.5t255.5 -81.5
z" />
    <glyph glyph-name="nine" unicode="9" 
d="M578 1442q483 0 483 -658q0 -207 -40 -365.5t-112 -255t-166 -144.5t-208 -48q-180 0 -290 100t-134 273l-5 21h136l4 -21q56 -270 297 -270q64 0 117.5 20t102 66.5t83 119.5t56.5 183.5t26 253.5l-68 -117q-120 -135 -309 -135q-214 0 -337.5 135.5t-123.5 347.5
q0 215 138 354.5t350 139.5zM573 567q143 0 241.5 103.5t98.5 275.5q0 169 -91 281t-244 112q-154 0 -250.5 -106t-96.5 -270q0 -174 89 -285t253 -111z" />
    <glyph glyph-name="colon" unicode=":" horiz-adv-x="397" 
d="M176 1112q41 0 68.5 -28.5t27.5 -69.5t-27.5 -68.5t-68.5 -27.5q-43 0 -70.5 27.5t-27.5 68.5q0 42 28 70t70 28zM176 166q41 0 68.5 -27.5t27.5 -68.5q0 -43 -27.5 -71t-68.5 -28q-43 0 -70.5 28t-27.5 71q0 41 27.5 68.5t70.5 27.5z" />
    <glyph glyph-name="semicolon" unicode=";" horiz-adv-x="397" 
d="M176 1112q41 0 68.5 -28.5t27.5 -69.5t-27.5 -68.5t-68.5 -27.5q-43 0 -70.5 27.5t-27.5 68.5q0 42 28 70t70 28zM233 139l-155 -383h-119l135 404h137z" />
    <glyph glyph-name="less" unicode="&#x3c;" 
d="M1008 895l-723 -350l723 -352v-109l-822 408v102l822 407v-106z" />
    <glyph glyph-name="equal" unicode="=" 
d="M1006 801h-861v88h861v-88zM1006 406h-861v88h861v-88z" />
    <glyph glyph-name="greater" unicode="&#x3e;" 
d="M952 594v-102l-821 -408v106l723 353l-723 350v108z" />
    <glyph glyph-name="question" unicode="?" horiz-adv-x="1040" 
d="M532 1442q193 0 302.5 -105t109.5 -266q0 -200 -205 -405q-108 -105 -143.5 -175t-38.5 -176h-127q8 122 44.5 199.5t143.5 192.5q103 112 144 191t41 173q0 123 -74.5 195.5t-200.5 72.5q-138 0 -220.5 -86t-92.5 -241h-131q6 194 129 312t319 118zM494 166
q43 0 70.5 -27.5t27.5 -68.5q0 -43 -27.5 -71t-70.5 -28q-41 0 -69 28t-28 71q0 41 28 68.5t69 27.5z" />
    <glyph glyph-name="at" unicode="@" horiz-adv-x="1744" 
d="M1272 952l-119 -497q-16 -73 -16 -109q0 -102 110 -102q114 0 196.5 116t82.5 318q0 186 -76.5 322t-205 203t-292.5 67q-105 0 -210.5 -32.5t-200.5 -98t-168 -156t-116.5 -215.5t-43.5 -266q0 -151 48.5 -271.5t132 -197t191.5 -116.5t230 -40q295 0 531 170l40 -78
q-272 -182 -575 -182q-108 0 -208.5 27.5t-189 85.5t-154.5 140.5t-104 200t-38 257.5q0 157 48 296.5t130.5 241.5t190 176t229.5 111t246 37q194 0 345 -85t234.5 -239t83.5 -352q0 -131 -35 -235.5t-93.5 -167t-129 -95t-145.5 -32.5q-86 0 -143.5 39.5t-65.5 125.5
l-39 -79q-97 -103 -221 -103q-39 0 -76 9.5t-74 33t-64 59t-44 92t-17 128.5q0 138 56 259t158.5 196t226.5 75q114 0 169 -65l27 -105l35 133h123zM1047 537l18 79q30 131 -12 202t-131 71q-86 0 -157 -59t-110 -154.5t-39 -204.5q0 -119 45 -176t121 -57q88 0 160.5 81
t104.5 218z" />
    <glyph glyph-name="A" unicode="A" horiz-adv-x="1290" 
d="M946 518h-563l-182 -518h-135l522 1413h170l510 -1413h-138zM420 625h489l-239 686z" />
    <glyph glyph-name="B" unicode="B" horiz-adv-x="1253" 
d="M870 750q304 -66 304 -349q0 -89 -31 -161.5t-84 -119.5t-119 -75t-141 -37q-63 -8 -166 -8h-430v1413h393q104 0 174 -6q167 -19 259.5 -106t92.5 -234q0 -125 -66 -204.5t-186 -112.5zM330 1307v-519h297q37 0 112 7q114 13 180 77t66 181q0 121 -72 181.5t-188 70.5
q-41 2 -121 2h-274zM758 109q121 10 200.5 81t79.5 199t-69.5 202.5t-208.5 86.5q-71 6 -111 6h-319v-578h332q56 0 96 3z" />
    <glyph glyph-name="C" unicode="C" horiz-adv-x="1415" 
d="M758 1442q245 0 387.5 -129t171.5 -340l2 -21h-127l-4 21q-34 169 -144 267.5t-292 98.5q-222 0 -366 -174t-144 -458q0 -290 138 -461.5t357 -171.5q188 0 299.5 101.5t145.5 273.5l4 20h127l-2 -20q-14 -100 -56.5 -185t-112.5 -151.5t-176 -104t-237 -37.5
q-190 0 -333.5 92.5t-219.5 257.5t-76 379q0 215 83.5 384t233.5 263.5t341 94.5z" />
    <glyph glyph-name="D" unicode="D" horiz-adv-x="1429" 
d="M793 1407q112 -13 209 -59t177 -127t126.5 -210t46.5 -292q0 -161 -47.5 -293t-127 -217.5t-176.5 -136t-204 -64.5q-72 -8 -181 -8h-413v1413h420q107 0 170 -6zM784 115q89 13 165.5 58t135.5 119t93 183.5t34 243.5q0 132 -34.5 238.5t-94.5 176.5t-136.5 111.5
t-166.5 54.5q-52 7 -164 7h-286v-1201h280q112 0 174 9z" />
    <glyph glyph-name="E" unicode="E" horiz-adv-x="1179" 
d="M1118 104v-104h-915v1413h895v-104h-768v-549h714v-107h-714v-549h788z" />
    <glyph glyph-name="F" unicode="F" horiz-adv-x="1134" 
d="M330 1309v-549h694v-107h-694v-653h-127v1413h895v-104h-768z" />
    <glyph glyph-name="G" unicode="G" horiz-adv-x="1441" 
d="M803 662h512v-662h-115v291l-55 -127q-69 -96 -176 -144.5t-238 -48.5q-191 0 -335 92.5t-220 257.5t-76 379q0 215 84 384t235.5 263.5t344.5 94.5q124 0 225 -35.5t169 -99t110 -148t57 -186.5l2 -21h-127l-4 21q-34 169 -144 267.5t-292 98.5q-226 0 -372 -173.5
t-146 -458.5q0 -290 138.5 -461.5t358.5 -171.5q86 0 165.5 31.5t143 90t102 152.5t38.5 209h-385v105z" />
    <glyph glyph-name="H" unicode="H" horiz-adv-x="1437" 
d="M1284 1413v-1413h-127v639h-827v-639h-127v1413h127v-665h827v665h127z" />
    <glyph glyph-name="I" unicode="I" horiz-adv-x="483" 
d="M330 0h-127v1413h127v-1413z" />
    <glyph glyph-name="J" unicode="J" horiz-adv-x="1077" 
d="M954 1413v-874q0 -109 -4 -177q-5 -84 -33.5 -153.5t-79.5 -123.5t-132 -84t-185 -30q-189 0 -297 111t-114 315l-3 76h127l5 -76q7 -165 84.5 -244t214.5 -79q131 0 203.5 78t84.5 219q2 43 2 164v878h127z" />
    <glyph glyph-name="K" unicode="K" horiz-adv-x="1204" 
d="M545 725l647 -725h-180l-563 641l-119 -125v-516h-127v1413h127v-749l737 749h152z" />
    <glyph glyph-name="L" unicode="L" horiz-adv-x="1150" 
d="M1118 104v-104h-915v1413h127v-1309h788z" />
    <glyph glyph-name="M" unicode="M" horiz-adv-x="1718" 
d="M1565 1413v-1413h-127v762q0 374 4 538q-79 -235 -193 -536l-286 -764h-160l-289 766q-131 357 -188 532q4 -164 4 -536v-762h-127v1413h207l477 -1307l475 1307h203z" />
    <glyph glyph-name="N" unicode="N" horiz-adv-x="1409" 
d="M1253 0h-194l-735 1290q6 -261 6 -561v-729h-127v1413h192l738 -1290q-7 308 -7 561v729h125z" />
    <glyph glyph-name="O" unicode="O" horiz-adv-x="1490" 
d="M756 1442q203 0 353 -94.5t227 -259.5t77 -381q0 -214 -77 -379.5t-227 -261t-353 -95.5q-202 0 -352 95.5t-227 261t-77 379.5q0 215 77 380.5t227 260t352 94.5zM756 74q232 0 374 170t142 463q0 294 -142 463t-374 169q-231 0 -372.5 -169.5t-141.5 -462.5
q0 -292 142 -462.5t372 -170.5z" />
    <glyph glyph-name="P" unicode="P" horiz-adv-x="1165" 
d="M784 1405q167 -23 263 -122t96 -273t-100.5 -278.5t-258.5 -125.5q-63 -8 -190 -8h-264v-598h-127v1413h391q127 0 190 -8zM774 717q104 16 168 88.5t64 204.5q0 128 -64 198t-168 86q-65 11 -170 11h-274v-598h274q111 0 170 10z" />
    <glyph glyph-name="Q" unicode="Q" horiz-adv-x="1486" 
d="M1413 707q0 -188 -70.5 -342.5t-216.5 -251.5q136 -13 275 -131l-74 -88q-91 64 -152 87t-128 23q-61 0 -146 -18q-67 -15 -145 -15q-202 0 -352 95.5t-227 261t-77 379.5q0 215 77 380.5t227 260t352 94.5q203 0 353 -94.5t227 -259.5t77 -381zM242 707
q0 -292 142 -462.5t372 -170.5q232 0 374 170t142 463q0 294 -142 463t-374 169q-231 0 -372.5 -169.5t-141.5 -462.5z" />
    <glyph glyph-name="R" unicode="R" horiz-adv-x="1230" 
d="M1087 377q15 -146 36.5 -231.5t58.5 -145.5h-142q-55 142 -79 362q-32 264 -232 275q-37 2 -111 2h-288v-639h-127v1413h415q127 0 193 -8q163 -21 255.5 -112.5t92.5 -254.5q0 -133 -74.5 -219.5t-191.5 -116.5q87 -35 135 -121.5t59 -203.5zM330 745h291q84 0 143 5
q119 9 188.5 82t69.5 196q0 234 -242 270q-73 9 -162 9h-288v-562z" />
    <glyph glyph-name="S" unicode="S" horiz-adv-x="1179" 
d="M621 1442q203 0 319 -113t137 -295h-133q-19 145 -106.5 225t-227.5 80q-130 0 -220.5 -66t-90.5 -186q0 -124 76 -186t266 -110q235 -61 345 -158.5t110 -267.5q0 -173 -135.5 -283.5t-339.5 -110.5q-220 0 -361 109t-164 309h135q26 -150 132.5 -232.5t261.5 -82.5
q143 0 239.5 75t96.5 195q0 133 -84 204t-287 122q-107 28 -181 59.5t-132.5 76.5t-86.5 108.5t-28 146.5q0 168 133.5 274.5t325.5 106.5z" />
    <glyph glyph-name="T" unicode="T" horiz-adv-x="1228" 
d="M1231 1309h-518v-1309h-127v1309h-518v104h1163v-104z" />
    <glyph glyph-name="U" unicode="U" horiz-adv-x="1333" 
d="M1194 1413v-907q0 -58 -6 -131q-13 -181 -138.5 -292.5t-357.5 -111.5t-357.5 111t-139.5 293q-5 61 -5 131v907h127v-901q0 -76 5 -125q13 -141 106 -227t264 -86q170 0 263 86t106 227q6 59 6 125v901h127z" />
    <glyph glyph-name="V" unicode="V" horiz-adv-x="1243" 
d="M741 0h-170l-510 1413h138l460 -1315l469 1315h138z" />
    <glyph glyph-name="W" unicode="W" horiz-adv-x="1851" 
d="M1843 1413l-387 -1413h-166l-342 1266l-360 -1266h-168l-367 1413h144l313 -1298l356 1278h170l342 -1278l332 1298h133z" />
    <glyph glyph-name="X" unicode="X" horiz-adv-x="1239" 
d="M1073 0l-440 627l-430 -627h-150l506 711l-469 702h143l406 -614l428 614h150l-506 -698l514 -715h-152z" />
    <glyph glyph-name="Y" unicode="Y" horiz-adv-x="1163" 
d="M670 565v-565h-127v563l-500 850h145l424 -725l414 725h145z" />
    <glyph glyph-name="Z" unicode="Z" horiz-adv-x="1169" 
d="M1122 106v-106h-1036v98l877 1209h-820v106h967v-104l-872 -1203h884z" />
    <glyph glyph-name="bracketleft" unicode="[" horiz-adv-x="632" 
d="M553 1597v-88h-236v-1585h236v-88h-326v1761h326z" />
    <glyph glyph-name="backslash" unicode="\" horiz-adv-x="589" 
d="M600 -61h-96l-514 1536h96z" />
    <glyph glyph-name="bracketright" unicode="]" horiz-adv-x="616" 
d="M389 -164h-326v88h236v1585h-236v88h326v-1761z" />
    <glyph glyph-name="asciicircum" unicode="^" 
d="M881 440l-303 734l-304 -734h-108l356 822h109l356 -822h-106z" />
    <glyph glyph-name="underscore" unicode="_" horiz-adv-x="1024" 
d="M922 -172h-820v88h820v-88z" />
    <glyph glyph-name="grave" unicode="`" horiz-adv-x="614" 
d="M358 1188h-88l-161 225h124z" />
    <glyph glyph-name="a" unicode="a" horiz-adv-x="1058" 
d="M799 0l-19 197l-53 -115q-111 -111 -301 -111q-155 0 -249.5 78.5t-94.5 222.5q0 183 164 276t463 93h69v39q0 90 -4 133q-16 197 -242 197q-116 0 -188 -62.5t-84 -185.5h-133q10 159 121.5 254.5t283.5 95.5q343 0 369 -287q4 -47 4 -143v-379q0 -109 21 -303h-127z
M465 72q140 0 226.5 96.5t86.5 249.5v125q-117 8 -216 -3t-176.5 -41t-121 -85t-43.5 -131q0 -103 62.5 -157t181.5 -54z" />
    <glyph glyph-name="b" unicode="b" horiz-adv-x="1200" 
d="M655 1112q223 0 353.5 -155.5t130.5 -401.5q0 -143 -42 -256.5t-114 -184t-163.5 -107t-196.5 -36.5q-81 0 -155 25t-124 72l-68 116v-184h-126v1505h126v-622l72 118q114 111 307 111zM623 72q166 0 271 125.5t105 341.5q0 133 -40 238t-123.5 169t-198.5 64
q-76 0 -138.5 -24t-114 -74t-80 -138t-28.5 -207v-82q0 -111 31 -194t83 -129t110.5 -68t122.5 -22z" />
    <glyph glyph-name="c" unicode="c" horiz-adv-x="1075" 
d="M565 1112q185 0 304.5 -104.5t144.5 -278.5h-133q-28 138 -109 210.5t-211 72.5q-70 0 -133.5 -28.5t-114.5 -83.5t-81.5 -145.5t-30.5 -203.5q0 -121 29 -215t78.5 -150.5t111 -85t131.5 -28.5q122 0 207 69t114 197h132q-36 -177 -159.5 -272t-301.5 -95
q-103 0 -189.5 36t-152.5 105t-103 179t-37 250q0 131 40.5 240t109.5 180.5t160.5 111t193.5 39.5z" />
    <glyph glyph-name="d" unicode="d" horiz-adv-x="1204" 
d="M1051 1505v-1505h-127v201l-72 -119q-111 -111 -307 -111q-223 0 -353.5 155.5t-130.5 401.5q0 143 42 256.5t114 184t164 107t197 36.5q177 0 278 -98l68 -117v608h127zM563 72q76 0 138.5 24t114 74.5t80 138.5t28.5 207v82q0 110 -31 193t-82.5 129t-110 68t-122.5 22
q-167 0 -272 -125t-105 -340q0 -133 40 -238.5t123.5 -170t198.5 -64.5z" />
    <glyph glyph-name="e" unicode="e" horiz-adv-x="1103" 
d="M1024 571q0 -34 -4 -67h-821q5 -115 35.5 -201t80 -135t108.5 -72.5t128 -23.5q118 0 208 70.5t118 199.5h133q-37 -181 -166 -276t-301 -95q-103 0 -189.5 36t-152.5 105.5t-103 179.5t-37 249q0 170 66 301t180 200.5t256 69.5q147 0 253 -73.5t157 -194.5t51 -273z
M559 1010q-142 0 -244.5 -106.5t-115.5 -299.5h696q-10 201 -101.5 303.5t-234.5 102.5z" />
    <glyph glyph-name="f" unicode="f" horiz-adv-x="548" 
d="M295 1313q-4 -35 -4 -107v-131h221v-102h-221v-973h-127v973h-117v102h117v121q0 82 4 121q12 110 79.5 168.5t170.5 58.5q52 0 114 -10v-107q-105 21 -166.5 -10t-70.5 -104z" />
    <glyph glyph-name="g" unicode="g" horiz-adv-x="1204" 
d="M1051 1085v-811q0 -191 -2 -254q-7 -217 -136 -337.5t-352 -120.5q-419 0 -459 346l-2 24h127l4 -24q13 -118 102 -182t228 -64q169 0 262 94t99 258q2 59 2 160v27l-72 -119q-111 -111 -307 -111q-223 0 -353.5 155.5t-130.5 401.5q0 143 42 256.5t114 184t164 107
t197 36.5q177 0 278 -98l68 -117v188h127zM563 72q76 0 138.5 24t114 74.5t80 138.5t28.5 207v82q0 110 -31 193t-82.5 129t-110 68t-122.5 22q-167 0 -272 -125t-105 -340q0 -133 40 -238.5t123.5 -170t198.5 -64.5z" />
    <glyph glyph-name="h" unicode="h" horiz-adv-x="1165" 
d="M1020 788q4 -55 4 -182v-606h-127v592q0 109 -4 164q-11 117 -80 185t-199 67q-70 -1 -129 -27.5t-107 -80.5t-75 -146t-27 -215v-539h-126v1516h126v-642l58 117q121 121 305 121q169 0 267.5 -86t113.5 -238z" />
    <glyph glyph-name="i" unicode="i" horiz-adv-x="430" 
d="M213 1403q37 0 61.5 -24.5t24.5 -61.5q0 -36 -25 -61t-61 -25q-35 0 -60.5 25.5t-25.5 60.5q0 36 25 61t61 25zM276 0h-126v1083h126v-1083z" />
    <glyph glyph-name="j" unicode="j" horiz-adv-x="417" 
d="M201 1403q37 0 61.5 -24.5t24.5 -61.5q0 -36 -25 -61t-61 -25q-35 0 -60.5 25.5t-25.5 60.5q0 36 25 61t61 25zM264 1083v-1198q0 -86 -4 -123q-18 -192 -221 -192q-53 0 -80 6v105q86 -11 128 13t48 91q2 29 2 86v1212h127z" />
    <glyph glyph-name="k" unicode="k" horiz-adv-x="1019" 
d="M825 0l-450 485l-99 -104v-381h-126v1505h126v-985l555 563h166l-530 -518l534 -565h-176z" />
    <glyph glyph-name="l" unicode="l" horiz-adv-x="448" 
d="M268 1505v-1218q0 -84 2 -117q3 -52 30.5 -69t96.5 -9v-94q-33 -6 -100 -6q-70 0 -110 31.5t-44 113.5q-2 37 -2 146v1222h127z" />
    <glyph glyph-name="m" unicode="m" horiz-adv-x="1716" 
d="M1565 821q10 -69 10 -182v-639h-127v582q0 125 -8 198q-14 110 -75 170t-167 60q-124 0 -198 -107t-74 -336v-567h-127v582q0 125 -8 198q-14 110 -75 170t-167 60q-124 0 -198.5 -107t-74.5 -336v-567h-126v1083h126v-186l62 121q90 94 250 94q126 0 206 -61.5
t109 -169.5l84 137q87 94 250 94q142 0 225.5 -78.5t102.5 -212.5z" />
    <glyph glyph-name="n" unicode="n" horiz-adv-x="1165" 
d="M1020 788q4 -55 4 -182v-606h-127v592q0 109 -4 164q-11 117 -79.5 184.5t-199.5 67.5q-147 0 -242.5 -115.5t-95.5 -353.5v-539h-126v1083h126v-209l58 117q121 121 305 121q169 0 267.5 -86t113.5 -238z" />
    <glyph glyph-name="o" unicode="o" horiz-adv-x="1175" 
d="M588 1112q167 0 288 -77t179.5 -204.5t58.5 -289.5q0 -120 -34.5 -223t-99 -180.5t-165.5 -122t-227 -44.5q-167 0 -288 77t-180 204.5t-59 288.5q0 162 59 289.5t180 204.5t288 77zM588 72q172 0 279.5 126t107.5 343t-107.5 343t-279.5 126t-279.5 -126t-107.5 -343
t107.5 -343t279.5 -126z" />
    <glyph glyph-name="p" unicode="p" horiz-adv-x="1200" 
d="M655 1112q223 0 353.5 -155.5t130.5 -401.5q0 -143 -42 -256.5t-114 -184t-163.5 -107t-196.5 -36.5q-81 0 -155 25t-124 72l-68 116v-585h-126v1491h126v-207l72 118q114 111 307 111zM623 72q166 0 271 125.5t105 341.5q0 133 -40 238t-123.5 169t-198.5 64
q-76 0 -138.5 -24t-114 -74t-80 -138t-28.5 -207v-82q0 -111 31 -194t83 -129t110.5 -68t122.5 -22z" />
    <glyph glyph-name="q" unicode="q" horiz-adv-x="1206" 
d="M1051 1090v-1491h-127v602l-72 -119q-111 -111 -307 -111q-223 0 -353.5 155.5t-130.5 401.5q0 143 42 256.5t114 184t164 107t197 36.5q177 0 278 -98l68 -117v193h127zM563 72q76 0 138.5 24t114 74.5t80 138.5t28.5 207v82q0 110 -31 193t-82.5 129t-110 68t-122.5 22
q-167 0 -272 -125t-105 -340q0 -133 40 -238.5t123.5 -170t198.5 -64.5z" />
    <glyph glyph-name="r" unicode="r" horiz-adv-x="620" 
d="M541 1108q39 0 63 -8v-101q-149 11 -238.5 -86t-89.5 -305v-608h-126v1083h126v-196l78 139q79 82 187 82z" />
    <glyph glyph-name="s" unicode="s" horiz-adv-x="921" 
d="M457 1112q170 0 268.5 -91t118.5 -241h-133q-48 230 -265 230q-99 0 -159 -52t-60 -141q0 -46 17.5 -80.5t54 -59t80 -41t106.5 -32.5q193 -47 281 -124t88 -210q0 -141 -107.5 -220t-279.5 -79q-111 0 -197 35t-145 114.5t-74 198.5h131q42 -247 293 -247q108 0 179 49
t71 139t-65 142t-224 90q-77 20 -133 43.5t-105.5 59.5t-75.5 88.5t-26 119.5q0 139 100 224t261 85z" />
    <glyph glyph-name="t" unicode="t" horiz-adv-x="581" 
d="M313 977v-680q0 -67 2 -96q6 -78 48.5 -102t150.5 -11v-94q-54 -10 -131 -10q-91 0 -139.5 41.5t-55.5 130.5q-2 37 -2 139v682h-139v98h139v240h127v-240h207v-98h-207z" />
    <glyph glyph-name="u" unicode="u" horiz-adv-x="1161" 
d="M1008 1083v-1083h-127v209l-60 -121q-120 -117 -303 -117q-161 0 -259.5 81.5t-117.5 215.5q-8 73 -8 183v632h127v-604q0 -89 8 -162q12 -111 84.5 -177t194.5 -66q70 0 128.5 26.5t105.5 81t73.5 147.5t26.5 216v538h127z" />
    <glyph glyph-name="v" unicode="v" horiz-adv-x="1017" 
d="M1004 1083l-418 -1083h-158l-416 1083h140l360 -989l356 989h136z" />
    <glyph glyph-name="w" unicode="w" horiz-adv-x="1554" 
d="M1540 1083l-342 -1083h-154l-266 954l-266 -954h-156l-344 1083h146l278 -966l264 964h162l266 -954l277 956h135z" />
    <glyph glyph-name="x" unicode="x" horiz-adv-x="937" 
d="M528 549l383 -549h-149l-309 465l-312 -465h-147l387 547l-371 536h150l299 -452l303 452h147z" />
    <glyph glyph-name="y" unicode="y" horiz-adv-x="1007" 
d="M993 1083l-434 -1140q-81 -209 -165.5 -291t-203.5 -82q-59 0 -84 6v105q34 -5 70 -5q77 0 134.5 50.5t107.5 175.5l22 57l-428 1124h144l350 -989l348 989h139z" />
    <glyph glyph-name="z" unicode="z" horiz-adv-x="931" 
d="M879 102v-102h-844v98l684 871h-635v102h786v-104l-682 -865h691z" />
    <glyph glyph-name="braceleft" unicode="{" horiz-adv-x="614" 
d="M563 1509h-28q-93 0 -137 -31.5t-44 -99.5q0 -17 1.5 -35.5t3.5 -34t7.5 -55.5t10.5 -75q24 -185 24 -250q0 -85 -46.5 -142t-135.5 -67q88 -10 135 -69t47 -144q0 -62 -24 -250q-4 -34 -10 -74.5t-8 -56t-3.5 -34.5t-1.5 -36q0 -68 44 -99.5t137 -31.5h28v-88h-26
q-135 0 -204 50t-69 171q0 44 23 219q22 158 22 226q0 154 -168 170v90q168 16 168 170q0 67 -22 225q-23 175 -23 219q0 121 69 171t204 50h26v-88z" />
    <glyph glyph-name="bar" unicode="|" horiz-adv-x="512" 
d="M301 -410h-90v2048h90v-2048z" />
    <glyph glyph-name="braceright" unicode="}" horiz-adv-x="614" 
d="M473 762v-90q-166 -16 -166 -170q0 -75 21 -226q24 -164 24 -219q0 -121 -69.5 -171t-204.5 -50h-27v88h29q94 0 137 31t43 100q0 47 -20 201q-27 190 -27 250q0 85 47 142t135 67q-88 10 -135 69t-47 144q0 62 27 250q20 154 20 200q0 69 -43 100t-137 31h-29v88h27
q135 0 204.5 -50t69.5 -171q0 -55 -24 -219q-21 -151 -21 -225q0 -154 166 -170z" />
    <glyph glyph-name="asciitilde" unicode="~" 
d="M920 725h88q0 -260 -207 -260q-57 0 -104 17.5t-144 70.5q-80 44 -125 62t-86 18q-61 0 -87 -43t-26 -129h-88q0 260 207 260q57 0 104 -17.5t144 -70.5q83 -45 126.5 -62.5t84.5 -17.5q61 0 87 43t26 129z" />
    <glyph glyph-name="exclamdown" unicode="&#xa1;" horiz-adv-x="464" 
d="M233 920q-43 0 -70.5 27.5t-27.5 70.5q0 41 27.5 68.5t70.5 27.5q41 0 69 -27.5t28 -68.5q0 -42 -28 -70t-69 -28zM174 770h117l18 -1098h-153z" />
    <glyph glyph-name="cent" unicode="&#xa2;" horiz-adv-x="1124" 
d="M629 1012v-938q105 12 178.5 80t97.5 184h133q-33 -163 -141 -257t-268 -108v-157h-90v157q-197 13 -320 159.5t-123 408.5q0 240 126 392.5t317 176.5v160h90v-156q173 -7 285 -110t135 -271h-134q-26 127 -98.5 198.5t-187.5 80.5zM236 553q0 -217 85.5 -337.5
t217.5 -139.5v934q-130 -24 -216.5 -141t-86.5 -316z" />
    <glyph glyph-name="sterling" unicode="&#xa3;" 
d="M1028 106v-106h-899v94q122 32 191 118t69 202q0 67 -17.5 126.5t-56.5 135.5h-168v88h123q-75 150 -75 276q0 178 119 290t296 112q193 0 297 -110t117 -292h-135q-30 299 -283 299q-122 0 -196 -80t-74 -196q0 -79 19 -142t67 -157h457v-88h-416q61 -128 61 -244
q0 -108 -47.5 -186.5t-146.5 -139.5h698z" />
    <glyph glyph-name="currency" unicode="&#xa4;" 
d="M940 616q0 -125 -76 -227l121 -121l-63 -63l-121 119q-99 -76 -226 -76q-126 0 -225 76l-121 -119l-63 65l119 119q-76 99 -76 227t76 230l-119 121l63 63l121 -121q98 76 225 76q125 0 224 -76l123 121l63 -63l-121 -123q76 -99 76 -228zM575 338q115 0 191 79t76 199
t-76 199.5t-191 79.5q-117 0 -192.5 -79.5t-75.5 -199.5t75.5 -199t192.5 -79z" />
    <glyph glyph-name="yen" unicode="&#xa5;" 
d="M698 719h289v-86h-338l-10 -19v-125h348v-88h-348v-401h-127v401h-350v88h350v121l-12 23h-338v86h287l-404 694h160l375 -688l372 688h150z" />
    <glyph glyph-name="brokenbar" unicode="&#xa6;" horiz-adv-x="512" 
d="M301 717h-90v696h90v-696zM301 -328h-90v697h90v-697z" />
    <glyph glyph-name="section" unicode="&#xa7;" horiz-adv-x="1124" 
d="M1063 514q0 -106 -63.5 -186.5t-165.5 -118.5q116 -91 116 -254q0 -146 -112.5 -228.5t-278.5 -82.5q-173 0 -282.5 86t-137.5 264h133q61 -250 295 -250q107 0 176.5 53.5t69.5 147.5q0 104 -73 168t-267 108q-82 20 -150.5 51.5t-124 76t-87 106.5t-31.5 135
q0 118 63 195.5t170 113.5q-112 91 -112 231q0 144 98.5 228t255.5 84q171 0 269.5 -89t119.5 -243h-133q-51 231 -256 231q-95 0 -157 -52t-62 -144q0 -99 78 -160.5t225 -97.5q213 -53 318.5 -141.5t105.5 -231.5zM707 281q97 12 159 71.5t62 147.5q0 101 -81.5 163.5
t-258.5 108.5q-98 27 -156 53q-93 -8 -154 -63.5t-61 -163.5q0 -94 84.5 -162.5t220.5 -99.5q108 -22 185 -55z" />
    <glyph glyph-name="dieresis" unicode="&#xa8;" horiz-adv-x="614" 
d="M182 1366q31 0 53.5 -22.5t22.5 -51.5q0 -31 -22.5 -53t-53.5 -22q-29 0 -51 22t-22 53q0 29 22 51.5t51 22.5zM432 1366q29 0 51.5 -22.5t22.5 -51.5q0 -30 -22 -52.5t-52 -22.5q-31 0 -53.5 22t-22.5 53q0 29 22.5 51.5t53.5 22.5z" />
    <glyph glyph-name="copyright" unicode="&#xa9;" horiz-adv-x="1716" 
d="M858 1509q159 0 302 -61t245.5 -165t162.5 -249t60 -307t-60 -307t-162.5 -249t-245.5 -165t-302 -61t-301 61t-244.5 165t-162.5 249t-60 307t60 307t162.5 249t244.5 165t301 61zM858 1419q-139 0 -263.5 -54t-214 -146t-142 -220.5t-52.5 -271.5t52.5 -271.5t142 -220
t214 -145t263.5 -53.5t264 53.5t215 145t142.5 220t52.5 271.5t-52.5 271.5t-142.5 220.5t-215 146t-264 54zM868 1184q152 0 252.5 -84t126.5 -230h-135q-18 97 -78 153t-166 56q-129 0 -201.5 -97.5t-72.5 -252.5q0 -157 74.5 -254.5t195.5 -97.5q98 0 163 56t83 151h135
q-33 -147 -132.5 -229.5t-260.5 -82.5q-173 0 -285 125t-112 328q0 211 115 335t298 124z" />
    <glyph glyph-name="guillemotleft" unicode="&#xab;" horiz-adv-x="1097" 
d="M657 848l-280 -340l280 -340h-116l-281 340l281 340h116zM967 848l-281 -340l281 -340h-117l-281 340l281 340h117z" />
    <glyph glyph-name="logicalnot" unicode="&#xac;" 
d="M936 430h-90v254h-651v88h741v-342z" />
    <glyph glyph-name="registered" unicode="&#xae;" horiz-adv-x="1050" 
d="M526 1565q189 0 309.5 -120.5t120.5 -309.5t-120.5 -309.5t-309.5 -120.5t-309.5 120.5t-120.5 309.5t120.5 309.5t309.5 120.5zM526 780q154 0 252.5 100t98.5 255q0 156 -98.5 255t-252.5 99q-155 0 -253.5 -98.5t-98.5 -255.5q0 -156 98.5 -255.5t253.5 -99.5z
M608 1130q53 -14 60 -88q9 -63 30 -110h-90q-16 49 -20 98q-8 51 -62 51h-61v-149h-80v418h129q33 0 51 -2q129 -14 129 -115q0 -38 -24 -65t-62 -38zM465 1151h47q29 0 41 2q55 9 55 64q0 54 -53 65q-12 2 -37 2h-53v-133z" />
    <glyph glyph-name="macron" unicode="&#xaf;" horiz-adv-x="614" 
d="M514 1249h-414v82h414v-82z" />
    <glyph glyph-name="degree" unicode="&#xb0;" horiz-adv-x="593" 
d="M297 1442q102 0 167.5 -64.5t65.5 -165.5q0 -102 -65.5 -165.5t-167.5 -63.5q-103 0 -168.5 63.5t-65.5 165.5q0 101 65.5 165.5t168.5 64.5zM297 1354q-60 0 -98.5 -39.5t-38.5 -102.5t38.5 -103t98.5 -40t97.5 40t37.5 103t-37.5 102.5t-97.5 39.5z" />
    <glyph glyph-name="plusminus" unicode="&#xb1;" 
d="M608 696h377v-88h-377v-391h-90v391h-377v88h377v387h90v-387zM985 0h-844v88h844v-88z" />
    <glyph glyph-name="acute" unicode="&#xb4;" horiz-adv-x="614" 
d="M340 1188h-86l125 225h123z" />
    <glyph glyph-name="paragraph" unicode="&#xb6;" horiz-adv-x="1130" 
d="M977 1413v-1638h-92v1550h-215v-1550h-92v880h-48q-79 0 -114 2q-151 9 -236.5 116.5t-85.5 260.5t85.5 260.5t236.5 116.5q35 2 114 2h447z" />
    <glyph glyph-name="periodcentered" unicode="&#xb7;" horiz-adv-x="362" 
d="M182 729q44 0 74.5 -30t30.5 -74t-30.5 -74.5t-74.5 -30.5q-46 0 -76 30t-30 75q0 44 30 74t76 30z" />
    <glyph glyph-name="cedilla" unicode="&#xb8;" horiz-adv-x="614" 
d="M365 16l-60 -106q83 -9 127.5 -51t44.5 -115q0 -84 -66 -129t-169 -45q-62 0 -105 18v74q43 -22 109 -22q65 0 102 26.5t37 75.5q0 118 -199 104l90 170h89z" />
    <glyph glyph-name="guillemotright" unicode="&#xbb;" horiz-adv-x="1097" 
d="M528 508l-280 -340h-115l281 340l-281 340h115zM838 508l-281 -340h-115l281 340l-281 340h115z" />
    <glyph glyph-name="questiondown" unicode="&#xbf;" horiz-adv-x="991" 
d="M590 915q-41 0 -68.5 28t-27.5 71q0 41 27.5 68.5t68.5 27.5t69.5 -27.5t28.5 -68.5q0 -42 -28 -70.5t-70 -28.5zM553 -360q-195 0 -304.5 104.5t-109.5 265.5q0 205 207 406q109 107 144 175.5t38 174.5h125q-6 -121 -42 -198t-144 -191q-103 -112 -144.5 -192.5
t-41.5 -174.5q0 -123 74.5 -195.5t201.5 -72.5q137 0 219.5 87t91.5 241h133q-6 -193 -129.5 -311.5t-318.5 -118.5z" />
    <glyph glyph-name="Agrave" unicode="&#xc0;" horiz-adv-x="1290" 
d="M633 1507l-148 193h125l109 -193h-86zM946 518h-563l-182 -518h-135l522 1413h170l510 -1413h-138zM420 625h489l-239 686z" />
    <glyph glyph-name="Aacute" unicode="&#xc1;" horiz-adv-x="1290" 
d="M707 1507h-86l110 193h123zM946 518h-563l-182 -518h-135l522 1413h170l510 -1413h-138zM420 625h489l-239 686z" />
    <glyph glyph-name="Acircumflex" unicode="&#xc2;" horiz-adv-x="1290" 
d="M592 1507h-100l135 193h92l137 -193h-104l-80 135zM946 518h-563l-182 -518h-135l522 1413h170l510 -1413h-138zM420 625h489l-239 686z" />
    <glyph glyph-name="Atilde" unicode="&#xc3;" horiz-adv-x="1290" 
d="M565 1589q-33 0 -33 -41h-63q0 65 24 93t70 28q41 0 123 -27q67 -22 92 -22q33 0 33 41h63q0 -65 -24 -93t-70 -28q-40 0 -123 27q-67 22 -92 22zM946 518h-563l-182 -518h-135l522 1413h170l510 -1413h-138zM420 625h489l-239 686z" />
    <glyph glyph-name="Adieresis" unicode="&#xc4;" horiz-adv-x="1290" 
d="M555 1530q-31 0 -52.5 21.5t-21.5 52.5t21.5 52t52.5 21t52.5 -21t21.5 -52t-21.5 -52.5t-52.5 -21.5zM788 1530q-31 0 -52 21.5t-21 52.5t21 52t52 21t52.5 -21t21.5 -52t-21.5 -52.5t-52.5 -21.5zM946 518h-563l-182 -518h-135l522 1413h170l510 -1413h-138zM420 625
h489l-239 686z" />
    <glyph glyph-name="Aring" unicode="&#xc5;" horiz-adv-x="1290" 
d="M672 1470q-71 0 -117.5 42t-46.5 108q0 65 46.5 106t117.5 41t118.5 -41t47.5 -106t-47.5 -107.5t-118.5 -42.5zM672 1704q-36 0 -59 -24t-23 -60q0 -37 23 -61.5t59 -24.5t59 24.5t23 61.5q0 36 -23 60t-59 24zM946 518h-563l-182 -518h-135l522 1413h170l510 -1413
h-138zM420 625h489l-239 686z" />
    <glyph glyph-name="AE" unicode="&#xc6;" horiz-adv-x="1851" 
d="M1790 104v-104h-864l-27 518h-508l-305 -518h-139l844 1413h978v-104h-784l29 -549h702v-107h-698l29 -549h743zM893 625l-37 686l-403 -686h440z" />
    <glyph glyph-name="Ccedilla" unicode="&#xc7;" horiz-adv-x="1415" 
d="M1186 469h127l-2 -20q-14 -98 -55 -181t-108 -149.5t-168.5 -105.5t-227.5 -42l-35 -61q83 -9 127.5 -51t44.5 -115q0 -84 -66.5 -129t-169.5 -45q-61 0 -104 18v74q43 -22 108 -22t102.5 26.5t37.5 75.5q0 118 -199 104l68 127q-173 15 -301.5 111t-196.5 255t-68 361
q0 215 83.5 384t233.5 263.5t341 94.5q245 0 387.5 -129t171.5 -340l2 -21h-127l-4 21q-34 169 -144 267.5t-292 98.5q-222 0 -366 -174t-144 -458q0 -290 138 -461.5t357 -171.5q188 0 299.5 101.5t145.5 273.5z" />
    <glyph glyph-name="Egrave" unicode="&#xc8;" horiz-adv-x="1179" 
d="M614 1507l-147 193h125l108 -193h-86zM1118 104v-104h-915v1413h895v-104h-768v-549h714v-107h-714v-549h788z" />
    <glyph glyph-name="Eacute" unicode="&#xc9;" horiz-adv-x="1179" 
d="M688 1507h-86l111 193h123zM1118 104v-104h-915v1413h895v-104h-768v-549h714v-107h-714v-549h788z" />
    <glyph glyph-name="Ecircumflex" unicode="&#xca;" horiz-adv-x="1179" 
d="M573 1507h-100l135 193h92l138 -193h-105l-80 135zM1118 104v-104h-915v1413h895v-104h-768v-549h714v-107h-714v-549h788z" />
    <glyph glyph-name="Edieresis" unicode="&#xcb;" horiz-adv-x="1179" 
d="M537 1530q-31 0 -52.5 21.5t-21.5 52.5t21.5 52t52.5 21t52 -21t21 -52t-21 -52.5t-52 -21.5zM770 1530q-31 0 -52.5 21.5t-21.5 52.5t21.5 52t52.5 21t52.5 -21t21.5 -52t-21.5 -52.5t-52.5 -21.5zM1118 104v-104h-915v1413h895v-104h-768v-549h714v-107h-714v-549h788z
" />
    <glyph glyph-name="Igrave" unicode="&#xcc;" horiz-adv-x="483" 
d="M311 1507h-86l-147 193h125zM330 0h-127v1413h127v-1413z" />
    <glyph glyph-name="Iacute" unicode="&#xcd;" horiz-adv-x="483" 
d="M299 1507h-86l111 193h122zM330 0h-127v1413h127v-1413z" />
    <glyph glyph-name="Icircumflex" unicode="&#xce;" horiz-adv-x="483" 
d="M449 1507h-105l-80 135l-80 -135h-100l135 193h92zM203 1413h127v-1413h-127v1413z" />
    <glyph glyph-name="Idieresis" unicode="&#xcf;" horiz-adv-x="483" 
d="M147 1677q31 0 52.5 -21t21.5 -52t-21.5 -52.5t-52.5 -21.5t-52 21.5t-21 52.5t21 52t52 21zM381 1677q31 0 52.5 -21t21.5 -52t-21.5 -52.5t-52.5 -21.5t-52.5 21.5t-21.5 52.5t21.5 52t52.5 21zM330 0h-127v1413h127v-1413z" />
    <glyph glyph-name="Eth" unicode="&#xd0;" horiz-adv-x="1423" 
d="M786 1407q89 -10 169 -40.5t152 -86.5t124.5 -133t83.5 -187t31 -241q0 -161 -47.5 -293t-127 -217.5t-176 -136t-202.5 -64.5q-72 -8 -181 -8h-415v639h-123v88h123v686h421q105 0 168 -6zM778 115q89 13 165.5 58t135.5 119t93 183.5t34 243.5q0 132 -34.5 238.5
t-94.5 176.5t-136.5 111.5t-166.5 54.5q-52 7 -162 7h-288v-580h315v-88h-315v-533h280q114 0 174 9z" />
    <glyph glyph-name="Ntilde" unicode="&#xd1;" horiz-adv-x="1409" 
d="M618 1669q40 0 123 -27q67 -22 93 -22q32 0 32 41h64q0 -65 -24 -93t-70 -28q-40 0 -123 27q-67 22 -92 22q-33 0 -33 -41h-64q0 65 24 93t70 28zM1253 0h-194l-735 1290q6 -261 6 -561v-729h-127v1413h192l738 -1290q-7 308 -7 561v729h125z" />
    <glyph glyph-name="Ograve" unicode="&#xd2;" horiz-adv-x="1490" 
d="M717 1507l-148 193h125l109 -193h-86zM756 1442q203 0 353 -94.5t227 -259.5t77 -381q0 -214 -77 -379.5t-227 -261t-353 -95.5q-202 0 -352 95.5t-227 261t-77 379.5q0 215 77 380.5t227 260t352 94.5zM756 74q232 0 374 170t142 463q0 294 -142 463t-374 169
q-231 0 -372.5 -169.5t-141.5 -462.5q0 -292 142 -462.5t372 -170.5z" />
    <glyph glyph-name="Oacute" unicode="&#xd3;" horiz-adv-x="1490" 
d="M791 1507h-86l110 193h123zM756 1442q203 0 353 -94.5t227 -259.5t77 -381q0 -214 -77 -379.5t-227 -261t-353 -95.5q-202 0 -352 95.5t-227 261t-77 379.5q0 215 77 380.5t227 260t352 94.5zM756 74q232 0 374 170t142 463q0 294 -142 463t-374 169
q-231 0 -372.5 -169.5t-141.5 -462.5q0 -292 142 -462.5t372 -170.5z" />
    <glyph glyph-name="Ocircumflex" unicode="&#xd4;" horiz-adv-x="1490" 
d="M676 1507h-101l136 193h92l137 -193h-104l-80 135zM756 1442q203 0 353 -94.5t227 -259.5t77 -381q0 -214 -77 -379.5t-227 -261t-353 -95.5q-202 0 -352 95.5t-227 261t-77 379.5q0 215 77 380.5t227 260t352 94.5zM756 74q232 0 374 170t142 463q0 294 -142 463
t-374 169q-231 0 -372.5 -169.5t-141.5 -462.5q0 -292 142 -462.5t372 -170.5z" />
    <glyph glyph-name="Otilde" unicode="&#xd5;" horiz-adv-x="1490" 
d="M649 1589q-33 0 -33 -41h-63q0 65 24 93t70 28q41 0 123 -27q67 -22 92 -22q33 0 33 41h63q0 -65 -24 -93t-70 -28q-40 0 -123 27q-67 22 -92 22zM756 1442q203 0 353 -94.5t227 -259.5t77 -381q0 -214 -77 -379.5t-227 -261t-353 -95.5q-202 0 -352 95.5t-227 261
t-77 379.5q0 215 77 380.5t227 260t352 94.5zM756 74q232 0 374 170t142 463q0 294 -142 463t-374 169q-231 0 -372.5 -169.5t-141.5 -462.5q0 -292 142 -462.5t372 -170.5z" />
    <glyph glyph-name="Odieresis" unicode="&#xd6;" horiz-adv-x="1490" 
d="M639 1530q-31 0 -52.5 21.5t-21.5 52.5t21.5 52t52.5 21t52.5 -21t21.5 -52t-21.5 -52.5t-52.5 -21.5zM872 1530q-31 0 -52 21.5t-21 52.5t21 52t52 21t52.5 -21t21.5 -52t-21.5 -52.5t-52.5 -21.5zM756 1442q203 0 353 -94.5t227 -259.5t77 -381q0 -214 -77 -379.5
t-227 -261t-353 -95.5q-202 0 -352 95.5t-227 261t-77 379.5q0 215 77 380.5t227 260t352 94.5zM756 74q232 0 374 170t142 463q0 294 -142 463t-374 169q-231 0 -372.5 -169.5t-141.5 -462.5q0 -292 142 -462.5t372 -170.5z" />
    <glyph glyph-name="multiply" unicode="&#xd7;" 
d="M639 643l293 -293l-64 -63l-293 293l-292 -293l-64 63l293 293l-293 293l64 63l292 -292l293 292l64 -63z" />
    <glyph glyph-name="Oslash" unicode="&#xd8;" horiz-adv-x="1501" 
d="M1432 1313l-140 -139q127 -191 127 -467q0 -214 -77 -379.5t-227 -261t-353 -95.5q-294 0 -475 197l-131 -131l-64 63l139 140q-127 194 -127 467q0 215 77.5 380.5t227.5 260t353 94.5q297 0 475 -197l131 131zM246 707q0 -219 82 -371l819 819q-142 184 -385 184
q-232 0 -374 -169t-142 -463zM1278 707q0 218 -82 370l-819 -819q142 -184 385 -184q231 0 373.5 170.5t142.5 462.5z" />
    <glyph glyph-name="Ugrave" unicode="&#xd9;" horiz-adv-x="1333" 
d="M739 1507h-86l-147 193h125zM1194 1413v-907q0 -58 -6 -131q-13 -181 -138.5 -292.5t-357.5 -111.5t-357.5 111t-139.5 293q-5 61 -5 131v907h127v-901q0 -76 5 -125q13 -141 106 -227t264 -86q170 0 263 86t106 227q6 59 6 125v901h127z" />
    <glyph glyph-name="Uacute" unicode="&#xda;" horiz-adv-x="1333" 
d="M727 1507h-86l111 193h122zM1194 1413v-907q0 -58 -6 -131q-13 -181 -138.5 -292.5t-357.5 -111.5t-357.5 111t-139.5 293q-5 61 -5 131v907h127v-901q0 -76 5 -125q13 -141 106 -227t264 -86q170 0 263 86t106 227q6 59 6 125v901h127z" />
    <glyph glyph-name="Ucircumflex" unicode="&#xdb;" horiz-adv-x="1333" 
d="M612 1507h-100l135 193h92l138 -193h-105l-80 135zM1194 1413v-907q0 -58 -6 -131q-13 -181 -138.5 -292.5t-357.5 -111.5t-357.5 111t-139.5 293q-5 61 -5 131v907h127v-901q0 -76 5 -125q13 -141 106 -227t264 -86q170 0 263 86t106 227q6 59 6 125v901h127z" />
    <glyph glyph-name="Udieresis" unicode="&#xdc;" horiz-adv-x="1333" 
d="M575 1677q31 0 52.5 -21t21.5 -52t-21.5 -52.5t-52.5 -21.5t-52 21.5t-21 52.5t21 52t52 21zM809 1677q31 0 52.5 -21t21.5 -52t-21.5 -52.5t-52.5 -21.5t-52.5 21.5t-21.5 52.5t21.5 52t52.5 21zM1194 1413v-907q0 -58 -6 -131q-13 -181 -138.5 -292.5t-357.5 -111.5
t-357.5 111t-139.5 293q-5 61 -5 131v907h127v-901q0 -76 5 -125q13 -141 106 -227t264 -86q170 0 263 86t106 227q6 59 6 125v901h127z" />
    <glyph glyph-name="Yacute" unicode="&#xdd;" horiz-adv-x="1163" 
d="M641 1507h-86l111 193h122zM670 565v-565h-127v563l-500 850h145l424 -725l414 725h145z" />
    <glyph glyph-name="Thorn" unicode="&#xde;" horiz-adv-x="1298" 
d="M791 1200q159 -20 255.5 -114t96.5 -259q0 -168 -97 -267t-255 -120q-63 -8 -191 -8h-270v-432h-127v1413h127v-203h270q112 0 191 -10zM772 551q105 17 169.5 82.5t64.5 189.5q0 227 -234 269q-61 10 -172 10h-270v-561h270q111 0 172 10z" />
    <glyph glyph-name="germandbls" unicode="&#xdf;" horiz-adv-x="1187" 
d="M602 1544q188 0 304 -95t116 -255q0 -109 -66 -211q-86 -44 -127 -83.5t-41 -88.5q0 -54 29 -97.5t101 -103.5q98 -83 141 -156t43 -171q0 -134 -104.5 -212.5t-270.5 -78.5q-109 0 -209 20v107q116 -27 203 -27q116 0 178 53t62 146q0 60 -30.5 114t-117.5 132
q-97 86 -131.5 141.5t-34.5 132.5q0 74 46.5 130t146.5 106q41 65 41 145q0 117 -76.5 183.5t-208.5 66.5q-131 0 -218 -85t-97 -239q-5 -72 -5 -114v-1004h-126v991q0 57 4 131q12 203 136 312.5t312 109.5z" />
    <glyph glyph-name="agrave" unicode="&#xe0;" horiz-adv-x="1058" 
d="M485 1188l-161 225h125l124 -225h-88zM799 0l-19 197l-53 -115q-111 -111 -301 -111q-155 0 -249.5 78.5t-94.5 222.5q0 183 164 276t463 93h69v39q0 90 -4 133q-16 197 -242 197q-116 0 -188 -62.5t-84 -185.5h-133q10 159 121.5 254.5t283.5 95.5q343 0 369 -287
q4 -47 4 -143v-379q0 -109 21 -303h-127zM465 72q140 0 226.5 96.5t86.5 249.5v125q-117 8 -216 -3t-176.5 -41t-121 -85t-43.5 -131q0 -103 62.5 -157t181.5 -54z" />
    <glyph glyph-name="aacute" unicode="&#xe1;" horiz-adv-x="1058" 
d="M567 1188h-86l125 225h123zM799 0l-19 197l-53 -115q-111 -111 -301 -111q-155 0 -249.5 78.5t-94.5 222.5q0 183 164 276t463 93h69v39q0 90 -4 133q-16 197 -242 197q-116 0 -188 -62.5t-84 -185.5h-133q10 159 121.5 254.5t283.5 95.5q343 0 369 -287q4 -47 4 -143
v-379q0 -109 21 -303h-127zM465 72q140 0 226.5 96.5t86.5 249.5v125q-117 8 -216 -3t-176.5 -41t-121 -85t-43.5 -131q0 -103 62.5 -157t181.5 -54z" />
    <glyph glyph-name="acircumflex" unicode="&#xe2;" horiz-adv-x="1058" 
d="M453 1188h-99l135 225h93l137 -225h-101l-83 153zM799 0l-19 197l-53 -115q-111 -111 -301 -111q-155 0 -249.5 78.5t-94.5 222.5q0 183 164 276t463 93h69v39q0 90 -4 133q-16 197 -242 197q-116 0 -188 -62.5t-84 -185.5h-133q10 159 121.5 254.5t283.5 95.5
q343 0 369 -287q4 -47 4 -143v-379q0 -109 21 -303h-127zM465 72q140 0 226.5 96.5t86.5 249.5v125q-117 8 -216 -3t-176.5 -41t-121 -85t-43.5 -131q0 -103 62.5 -157t181.5 -54z" />
    <glyph glyph-name="atilde" unicode="&#xe3;" horiz-adv-x="1058" 
d="M428 1294q-33 0 -33 -43h-63q0 66 23.5 94.5t70.5 28.5q44 0 123 -26q70 -23 92 -23q33 0 33 41h63q0 -66 -23.5 -94.5t-70.5 -28.5q-41 0 -123 27q-73 24 -92 24zM799 0l-19 197l-53 -115q-111 -111 -301 -111q-155 0 -249.5 78.5t-94.5 222.5q0 183 164 276t463 93h69
v39q0 90 -4 133q-16 197 -242 197q-116 0 -188 -62.5t-84 -185.5h-133q10 159 121.5 254.5t283.5 95.5q343 0 369 -287q4 -47 4 -143v-379q0 -109 21 -303h-127zM465 72q140 0 226.5 96.5t86.5 249.5v125q-117 8 -216 -3t-176.5 -41t-121 -85t-43.5 -131q0 -103 62.5 -157
t181.5 -54z" />
    <glyph glyph-name="adieresis" unicode="&#xe4;" horiz-adv-x="1058" 
d="M410 1217q-30 0 -52 22.5t-22 52.5q0 29 22.5 51.5t51.5 22.5q30 0 52.5 -22t22.5 -52q0 -31 -22 -53t-53 -22zM659 1217q-31 0 -53 22t-22 53q0 30 22 52t53 22q29 0 51.5 -22.5t22.5 -51.5q0 -30 -22.5 -52.5t-51.5 -22.5zM799 0l-19 197l-53 -115q-111 -111 -301 -111
q-155 0 -249.5 78.5t-94.5 222.5q0 183 164 276t463 93h69v39q0 90 -4 133q-16 197 -242 197q-116 0 -188 -62.5t-84 -185.5h-133q10 159 121.5 254.5t283.5 95.5q343 0 369 -287q4 -47 4 -143v-379q0 -109 21 -303h-127zM465 72q140 0 226.5 96.5t86.5 249.5v125
q-117 8 -216 -3t-176.5 -41t-121 -85t-43.5 -131q0 -103 62.5 -157t181.5 -54z" />
    <glyph glyph-name="aring" unicode="&#xe5;" horiz-adv-x="1058" 
d="M535 1163q-71 0 -117.5 43.5t-46.5 110.5q0 69 46.5 112.5t117.5 43.5t117 -43.5t46 -112.5q0 -67 -46 -110.5t-117 -43.5zM535 1411q-37 0 -59.5 -26.5t-22.5 -67.5t22.5 -66.5t59.5 -25.5t59 25.5t22 66.5q0 42 -22.5 68t-58.5 26zM799 0l-19 197l-53 -115
q-111 -111 -301 -111q-155 0 -249.5 78.5t-94.5 222.5q0 183 164 276t463 93h69v39q0 90 -4 133q-16 197 -242 197q-116 0 -188 -62.5t-84 -185.5h-133q10 159 121.5 254.5t283.5 95.5q343 0 369 -287q4 -47 4 -143v-379q0 -109 21 -303h-127zM465 72q140 0 226.5 96.5
t86.5 249.5v125q-117 8 -216 -3t-176.5 -41t-121 -85t-43.5 -131q0 -103 62.5 -157t181.5 -54z" />
    <glyph glyph-name="ae" unicode="&#xe6;" horiz-adv-x="1845" 
d="M1765 571q0 -34 -2 -67h-821q10 -219 106.5 -325.5t243.5 -106.5q118 0 208 70.5t118 199.5h133q-37 -181 -165.5 -276t-299.5 -95q-142 0 -253 66.5t-165 206.5l-51 -111q-151 -162 -375 -162q-99 0 -179 32.5t-130.5 102t-50.5 166.5q0 91 46.5 156.5t136 104t207.5 56
t273 17.5h70v53q0 172 -66.5 261.5t-211.5 89.5q-120 0 -195.5 -63t-85.5 -185h-131q6 160 118 255t294 95q153 0 243 -57.5t127 -173.5q61 112 164.5 171.5t235.5 59.5q112 0 200.5 -42t144 -116.5t84.5 -171.5t29 -211zM942 604h694q-10 203 -99.5 304.5t-233.5 101.5
q-151 0 -249.5 -104.5t-111.5 -301.5zM815 444v60q-131 6 -232 -1t-186 -30t-130.5 -71t-45.5 -119q0 -101 67.5 -156t184.5 -55q148 0 245 103t97 269z" />
    <glyph glyph-name="ccedilla" unicode="&#xe7;" horiz-adv-x="1075" 
d="M551 72q122 0 207 69t114 197h132q-35 -172 -153 -267t-290 -100l-35 -61q83 -9 127.5 -51t44.5 -115q0 -84 -66 -129t-169 -45q-61 0 -105 18v74q43 -22 109 -22q65 0 102 26.5t37 75.5q0 118 -198 104l67 129q-187 23 -300.5 168t-113.5 398q0 131 40.5 240
t109.5 180.5t160.5 111t193.5 39.5q185 0 304.5 -104.5t144.5 -278.5h-133q-28 138 -109 210.5t-211 72.5q-70 0 -133.5 -28.5t-114.5 -83.5t-81.5 -145.5t-30.5 -203.5q0 -121 29 -215t78.5 -150.5t111 -85t131.5 -28.5z" />
    <glyph glyph-name="egrave" unicode="&#xe8;" horiz-adv-x="1103" 
d="M518 1188l-162 225h125l125 -225h-88zM1024 571q0 -34 -4 -67h-821q5 -115 35.5 -201t80 -135t108.5 -72.5t128 -23.5q118 0 208 70.5t118 199.5h133q-37 -181 -166 -276t-301 -95q-103 0 -189.5 36t-152.5 105.5t-103 179.5t-37 249q0 170 66 301t180 200.5t256 69.5
q147 0 253 -73.5t157 -194.5t51 -273zM559 1010q-142 0 -244.5 -106.5t-115.5 -299.5h696q-10 201 -101.5 303.5t-234.5 102.5z" />
    <glyph glyph-name="eacute" unicode="&#xe9;" horiz-adv-x="1103" 
d="M584 1188h-86l125 225h122zM1024 571q0 -34 -4 -67h-821q5 -115 35.5 -201t80 -135t108.5 -72.5t128 -23.5q118 0 208 70.5t118 199.5h133q-37 -181 -166 -276t-301 -95q-103 0 -189.5 36t-152.5 105.5t-103 179.5t-37 249q0 170 66 301t180 200.5t256 69.5
q147 0 253 -73.5t157 -194.5t51 -273zM559 1010q-142 0 -244.5 -106.5t-115.5 -299.5h696q-10 201 -101.5 303.5t-234.5 102.5z" />
    <glyph glyph-name="ecircumflex" unicode="&#xea;" horiz-adv-x="1103" 
d="M469 1188h-98l135 225h92l137 -225h-100l-84 153zM1024 571q0 -34 -4 -67h-821q5 -115 35.5 -201t80 -135t108.5 -72.5t128 -23.5q118 0 208 70.5t118 199.5h133q-37 -181 -166 -276t-301 -95q-103 0 -189.5 36t-152.5 105.5t-103 179.5t-37 249q0 170 66 301t180 200.5
t256 69.5q147 0 253 -73.5t157 -194.5t51 -273zM559 1010q-142 0 -244.5 -106.5t-115.5 -299.5h696q-10 201 -101.5 303.5t-234.5 102.5z" />
    <glyph glyph-name="edieresis" unicode="&#xeb;" horiz-adv-x="1103" 
d="M426 1217q-30 0 -52 22.5t-22 52.5q0 29 22.5 51.5t51.5 22.5q31 0 53.5 -22.5t22.5 -51.5q0 -31 -22.5 -53t-53.5 -22zM676 1217q-31 0 -53.5 22t-22.5 53q0 29 22.5 51.5t53.5 22.5q29 0 51.5 -22.5t22.5 -51.5q0 -30 -22 -52.5t-52 -22.5zM1024 571q0 -34 -4 -67h-821
q5 -115 35.5 -201t80 -135t108.5 -72.5t128 -23.5q118 0 208 70.5t118 199.5h133q-37 -181 -166 -276t-301 -95q-103 0 -189.5 36t-152.5 105.5t-103 179.5t-37 249q0 170 66 301t180 200.5t256 69.5q147 0 253 -73.5t157 -194.5t51 -273zM559 1010q-142 0 -244.5 -106.5
t-115.5 -299.5h696q-10 201 -101.5 303.5t-234.5 102.5z" />
    <glyph glyph-name="igrave" unicode="&#xec;" horiz-adv-x="430" 
d="M252 1188h-88l-162 225h125zM276 0h-126v1083h126v-1083z" />
    <glyph glyph-name="iacute" unicode="&#xed;" horiz-adv-x="430" 
d="M246 1188h-86l125 225h123zM276 0h-126v1083h126v-1083z" />
    <glyph glyph-name="icircumflex" unicode="&#xee;" horiz-adv-x="430" 
d="M397 1188h-100l-84 153l-82 -153h-98l135 225h92zM150 1083h126v-1083h-126v1083z" />
    <glyph glyph-name="idieresis" unicode="&#xef;" horiz-adv-x="430" 
d="M88 1366q31 0 53.5 -22.5t22.5 -51.5q0 -31 -22.5 -53t-53.5 -22q-30 0 -52 22.5t-22 52.5q0 29 22.5 51.5t51.5 22.5zM338 1366q29 0 51.5 -22.5t22.5 -51.5q0 -30 -22 -52.5t-52 -22.5q-31 0 -53.5 22t-22.5 53q0 29 22.5 51.5t53.5 22.5zM276 0h-126v1083h126v-1083z
" />
    <glyph glyph-name="eth" unicode="&#xf0;" 
d="M963 1380l-107 -43q101 -114 149 -286.5t48 -421.5q0 -171 -39.5 -300.5t-110 -206t-160 -114t-198.5 -37.5q-116 0 -209 42t-152.5 117t-91 175.5t-31.5 220.5q0 174 65 309t176 207t249 72q142 0 252 -72l94 -127q-21 240 -152 375l-305 -125l-32 82l262 109
q-85 56 -183 84l80 86q124 -45 221 -123l142 59zM915 555v53q0 99 -29 178t-79 128t-112 74.5t-132 25.5q-158 0 -260 -128.5t-102 -344.5q0 -220 95 -344.5t259 -124.5q163 0 261.5 125.5t98.5 357.5z" />
    <glyph glyph-name="ntilde" unicode="&#xf1;" horiz-adv-x="1165" 
d="M485 1294q-32 0 -32 -43h-64q0 66 23.5 94.5t70.5 28.5q44 0 123 -26q70 -23 92 -23q33 0 33 41h64q0 -66 -24 -94.5t-71 -28.5q-40 0 -122 27q-73 24 -93 24zM1020 788q4 -55 4 -182v-606h-127v592q0 109 -4 164q-11 117 -79.5 184.5t-199.5 67.5q-147 0 -242.5 -115.5
t-95.5 -353.5v-539h-126v1083h126v-209l58 117q121 121 305 121q169 0 267.5 -86t113.5 -238z" />
    <glyph glyph-name="ograve" unicode="&#xf2;" horiz-adv-x="1175" 
d="M555 1188l-162 225h125l125 -225h-88zM588 1112q167 0 288 -77t179.5 -204.5t58.5 -289.5q0 -120 -34.5 -223t-99 -180.5t-165.5 -122t-227 -44.5q-167 0 -288 77t-180 204.5t-59 288.5q0 162 59 289.5t180 204.5t288 77zM588 72q172 0 279.5 126t107.5 343t-107.5 343
t-279.5 126t-279.5 -126t-107.5 -343t107.5 -343t279.5 -126z" />
    <glyph glyph-name="oacute" unicode="&#xf3;" horiz-adv-x="1175" 
d="M621 1188h-86l124 225h123zM588 1112q167 0 288 -77t179.5 -204.5t58.5 -289.5q0 -120 -34.5 -223t-99 -180.5t-165.5 -122t-227 -44.5q-167 0 -288 77t-180 204.5t-59 288.5q0 162 59 289.5t180 204.5t288 77zM588 72q172 0 279.5 126t107.5 343t-107.5 343t-279.5 126
t-279.5 -126t-107.5 -343t107.5 -343t279.5 -126z" />
    <glyph glyph-name="ocircumflex" unicode="&#xf4;" horiz-adv-x="1175" 
d="M506 1188h-98l135 225h92l137 -225h-100l-84 153zM588 1112q167 0 288 -77t179.5 -204.5t58.5 -289.5q0 -120 -34.5 -223t-99 -180.5t-165.5 -122t-227 -44.5q-167 0 -288 77t-180 204.5t-59 288.5q0 162 59 289.5t180 204.5t288 77zM588 72q172 0 279.5 126t107.5 343
t-107.5 343t-279.5 126t-279.5 -126t-107.5 -343t107.5 -343t279.5 -126z" />
    <glyph glyph-name="otilde" unicode="&#xf5;" horiz-adv-x="1175" 
d="M481 1294q-32 0 -32 -43h-64q0 66 23.5 94.5t70.5 28.5q44 0 123 -26q70 -23 92 -23q33 0 33 41h64q0 -66 -24 -94.5t-71 -28.5q-40 0 -123 27q-74 24 -92 24zM588 1112q167 0 288 -77t179.5 -204.5t58.5 -289.5q0 -120 -34.5 -223t-99 -180.5t-165.5 -122t-227 -44.5
q-167 0 -288 77t-180 204.5t-59 288.5q0 162 59 289.5t180 204.5t288 77zM588 72q172 0 279.5 126t107.5 343t-107.5 343t-279.5 126t-279.5 -126t-107.5 -343t107.5 -343t279.5 -126z" />
    <glyph glyph-name="odieresis" unicode="&#xf6;" horiz-adv-x="1175" 
d="M463 1217q-29 0 -51.5 22.5t-22.5 52.5q0 29 22.5 51.5t51.5 22.5q31 0 53.5 -22.5t22.5 -51.5q0 -31 -22.5 -53t-53.5 -22zM713 1217q-31 0 -53.5 22t-22.5 53q0 29 22.5 51.5t53.5 22.5q29 0 51 -22.5t22 -51.5q0 -31 -22 -53t-51 -22zM588 1112q167 0 288 -77
t179.5 -204.5t58.5 -289.5q0 -120 -34.5 -223t-99 -180.5t-165.5 -122t-227 -44.5q-167 0 -288 77t-180 204.5t-59 288.5q0 162 59 289.5t180 204.5t288 77zM588 72q172 0 279.5 126t107.5 343t-107.5 343t-279.5 126t-279.5 -126t-107.5 -343t107.5 -343t279.5 -126z" />
    <glyph glyph-name="divide" unicode="&#xf7;" 
d="M578 1065q40 0 66 -26t26 -66q0 -39 -26.5 -65.5t-65.5 -26.5q-40 0 -66.5 26.5t-26.5 65.5q0 40 26.5 66t66.5 26zM997 608h-845v88h845v-88zM578 418q40 0 66 -26t26 -66t-26 -66.5t-66 -26.5t-66.5 26.5t-26.5 66.5t26.5 66t66.5 26z" />
    <glyph glyph-name="oslash" unicode="&#xf8;" horiz-adv-x="1249" 
d="M1196 1049l-154 -154q97 -148 97 -354q0 -161 -59 -288.5t-180 -204.5t-288 -77q-224 0 -360 133l-135 -135l-64 64l140 139q-107 150 -107 369q0 162 58.5 289.5t179.5 204.5t288 77q233 0 375 -145l146 145zM223 541q0 -159 62 -277l612 613q-108 133 -285 133
q-172 0 -280.5 -126t-108.5 -343zM999 541q0 152 -53 258l-608 -609q106 -118 274 -118q171 0 279 126t108 343z" />
    <glyph glyph-name="ugrave" unicode="&#xf9;" horiz-adv-x="1161" 
d="M524 1188l-162 225h125l125 -225h-88zM1008 1083v-1083h-127v209l-60 -121q-120 -117 -303 -117q-161 0 -259.5 81.5t-117.5 215.5q-8 73 -8 183v632h127v-604q0 -89 8 -162q12 -111 84.5 -177t194.5 -66q70 0 128.5 26.5t105.5 81t73.5 147.5t26.5 216v538h127z" />
    <glyph glyph-name="uacute" unicode="&#xfa;" horiz-adv-x="1161" 
d="M602 1188h-86l125 225h123zM1008 1083v-1083h-127v209l-60 -121q-120 -117 -303 -117q-161 0 -259.5 81.5t-117.5 215.5q-8 73 -8 183v632h127v-604q0 -89 8 -162q12 -111 84.5 -177t194.5 -66q70 0 128.5 26.5t105.5 81t73.5 147.5t26.5 216v538h127z" />
    <glyph glyph-name="ucircumflex" unicode="&#xfb;" horiz-adv-x="1161" 
d="M487 1188h-98l135 225h92l138 -225h-101l-84 153zM1008 1083v-1083h-127v209l-60 -121q-120 -117 -303 -117q-161 0 -259.5 81.5t-117.5 215.5q-8 73 -8 183v632h127v-604q0 -89 8 -162q12 -111 84.5 -177t194.5 -66q70 0 128.5 26.5t105.5 81t73.5 147.5t26.5 216v538
h127z" />
    <glyph glyph-name="udieresis" unicode="&#xfc;" horiz-adv-x="1161" 
d="M444 1217q-29 0 -51 22t-22 53q0 29 22 51.5t51 22.5q31 0 53.5 -22.5t22.5 -51.5q0 -31 -22.5 -53t-53.5 -22zM694 1217q-31 0 -53.5 22t-22.5 53q0 29 22.5 51.5t53.5 22.5q29 0 51.5 -22.5t22.5 -51.5q0 -30 -22 -52.5t-52 -22.5zM1008 1083v-1083h-127v209l-60 -121
q-120 -117 -303 -117q-161 0 -259.5 81.5t-117.5 215.5q-8 73 -8 183v632h127v-604q0 -89 8 -162q12 -111 84.5 -177t194.5 -66q70 0 128.5 26.5t105.5 81t73.5 147.5t26.5 216v538h127z" />
    <glyph glyph-name="yacute" unicode="&#xfd;" horiz-adv-x="1007" 
d="M539 1188h-86l125 225h122zM993 1083l-434 -1140q-81 -209 -165.5 -291t-203.5 -82q-59 0 -84 6v105q34 -5 70 -5q77 0 134.5 50.5t107.5 175.5l22 57l-428 1124h144l350 -989l348 989h139z" />
    <glyph glyph-name="thorn" unicode="&#xfe;" horiz-adv-x="1200" 
d="M655 1112q223 0 353.5 -155.5t130.5 -401.5q0 -143 -42 -256.5t-114 -184t-163.5 -107t-196.5 -36.5q-81 0 -155 25t-124 72l-68 116v-585h-126v1906h126v-622l72 118q114 111 307 111zM623 72q166 0 271 125.5t105 341.5q0 133 -40 238t-123.5 169t-198.5 64
q-76 0 -138.5 -24t-114 -74t-80 -138t-28.5 -207v-82q0 -111 31 -194t83 -129t110.5 -68t122.5 -22z" />
    <glyph glyph-name="ydieresis" unicode="&#xff;" horiz-adv-x="1007" 
d="M381 1217q-29 0 -51.5 22.5t-22.5 52.5q0 29 22.5 51.5t51.5 22.5q31 0 53.5 -22.5t22.5 -51.5q0 -31 -22.5 -53t-53.5 -22zM631 1217q-31 0 -53.5 22t-22.5 53q0 29 22.5 51.5t53.5 22.5q29 0 51.5 -22.5t22.5 -51.5q0 -30 -22.5 -52.5t-51.5 -22.5zM993 1083
l-434 -1140q-81 -209 -165.5 -291t-203.5 -82q-59 0 -84 6v105q34 -5 70 -5q77 0 134.5 50.5t107.5 175.5l22 57l-428 1124h144l350 -989l348 989h139z" />
    <glyph glyph-name="Amacron" unicode="&#x100;" horiz-adv-x="1290" 
d="M879 1563h-414v82h414v-82zM946 518h-563l-182 -518h-135l522 1413h170l510 -1413h-138zM420 625h489l-239 686z" />
    <glyph glyph-name="amacron" unicode="&#x101;" horiz-adv-x="1058" 
d="M741 1249h-413v82h413v-82zM799 0l-19 197l-53 -115q-111 -111 -301 -111q-155 0 -249.5 78.5t-94.5 222.5q0 183 164 276t463 93h69v39q0 90 -4 133q-16 197 -242 197q-116 0 -188 -62.5t-84 -185.5h-133q10 159 121.5 254.5t283.5 95.5q343 0 369 -287q4 -47 4 -143
v-379q0 -109 21 -303h-127zM465 72q140 0 226.5 96.5t86.5 249.5v125q-117 8 -216 -3t-176.5 -41t-121 -85t-43.5 -131q0 -103 62.5 -157t181.5 -54z" />
    <glyph glyph-name="Abreve" unicode="&#x102;" horiz-adv-x="1290" 
d="M672 1479q-101 0 -153 57.5t-52 163.5h82q1 -65 34.5 -100t88.5 -35t88.5 35t34.5 100h82q0 -105 -52.5 -163t-152.5 -58zM946 518h-563l-182 -518h-135l522 1413h170l510 -1413h-138zM420 625h489l-239 686z" />
    <glyph glyph-name="abreve" unicode="&#x103;" horiz-adv-x="1058" 
d="M535 1163q-201 0 -201 250h82q3 -164 119 -164q115 0 118 164h82q0 -250 -200 -250zM799 0l-19 197l-53 -115q-111 -111 -301 -111q-155 0 -249.5 78.5t-94.5 222.5q0 183 164 276t463 93h69v39q0 90 -4 133q-16 197 -242 197q-116 0 -188 -62.5t-84 -185.5h-133
q10 159 121.5 254.5t283.5 95.5q343 0 369 -287q4 -47 4 -143v-379q0 -109 21 -303h-127zM465 72q140 0 226.5 96.5t86.5 249.5v125q-117 8 -216 -3t-176.5 -41t-121 -85t-43.5 -131q0 -103 62.5 -157t181.5 -54z" />
    <glyph glyph-name="Aogonek" unicode="&#x104;" horiz-adv-x="1290" 
d="M1268 0h-45q-92 -27 -152.5 -100t-60.5 -168q0 -105 92 -105q64 0 121 49v-79q-69 -54 -168 -54q-168 0 -168 162q0 107 66 190t169 125l-176 498h-563l-182 -518h-135l522 1413h170zM420 625h489l-239 686z" />
    <glyph glyph-name="aogonek" unicode="&#x105;" horiz-adv-x="1058" 
d="M926 0h-37q-92 -20 -152.5 -95.5t-60.5 -172.5q0 -105 92 -105q64 0 121 49v-79q-69 -54 -168 -54q-168 0 -168 162q0 111 69 196t175 124l-17 172l-53 -115q-111 -111 -301 -111q-155 0 -249.5 78.5t-94.5 222.5q0 183 164 276t463 93h69v39q0 90 -4 133
q-16 197 -242 197q-116 0 -188 -62.5t-84 -185.5h-133q10 159 121.5 254.5t283.5 95.5q343 0 369 -287q4 -47 4 -143v-379q0 -109 21 -303zM465 72q140 0 226.5 96.5t86.5 249.5v125q-117 8 -216 -3t-176.5 -41t-121 -85t-43.5 -131q0 -103 62.5 -157t181.5 -54z" />
    <glyph glyph-name="Cacute" unicode="&#x106;" horiz-adv-x="1415" 
d="M768 1507h-86l111 193h122zM758 1442q245 0 387.5 -129t171.5 -340l2 -21h-127l-4 21q-34 169 -144 267.5t-292 98.5q-222 0 -366 -174t-144 -458q0 -290 138 -461.5t357 -171.5q188 0 299.5 101.5t145.5 273.5l4 20h127l-2 -20q-14 -100 -56.5 -185t-112.5 -151.5
t-176 -104t-237 -37.5q-190 0 -333.5 92.5t-219.5 257.5t-76 379q0 215 83.5 384t233.5 263.5t341 94.5z" />
    <glyph glyph-name="cacute" unicode="&#x107;" horiz-adv-x="1075" 
d="M582 1188h-86l125 225h122zM565 1112q185 0 304.5 -104.5t144.5 -278.5h-133q-28 138 -109 210.5t-211 72.5q-70 0 -133.5 -28.5t-114.5 -83.5t-81.5 -145.5t-30.5 -203.5q0 -121 29 -215t78.5 -150.5t111 -85t131.5 -28.5q122 0 207 69t114 197h132
q-36 -177 -159.5 -272t-301.5 -95q-103 0 -189.5 36t-152.5 105t-103 179t-37 250q0 131 40.5 240t109.5 180.5t160.5 111t193.5 39.5z" />
    <glyph glyph-name="Cdotaccent" unicode="&#x10a;" horiz-adv-x="1415" 
d="M733 1677q31 0 52.5 -21t21.5 -52t-21.5 -52.5t-52.5 -21.5t-52.5 21.5t-21.5 52.5t21.5 52t52.5 21zM758 1442q245 0 387.5 -129t171.5 -340l2 -21h-127l-4 21q-34 169 -144 267.5t-292 98.5q-222 0 -366 -174t-144 -458q0 -290 138 -461.5t357 -171.5
q188 0 299.5 101.5t145.5 273.5l4 20h127l-2 -20q-14 -100 -56.5 -185t-112.5 -151.5t-176 -104t-237 -37.5q-190 0 -333.5 92.5t-219.5 257.5t-76 379q0 215 83.5 384t233.5 263.5t341 94.5z" />
    <glyph glyph-name="cdotaccent" unicode="&#x10b;" horiz-adv-x="1075" 
d="M549 1403q37 0 61.5 -24.5t24.5 -61.5q0 -36 -25 -61t-61 -25q-35 0 -60.5 25.5t-25.5 60.5q0 36 25 61t61 25zM565 1112q185 0 304.5 -104.5t144.5 -278.5h-133q-28 138 -109 210.5t-211 72.5q-70 0 -133.5 -28.5t-114.5 -83.5t-81.5 -145.5t-30.5 -203.5
q0 -121 29 -215t78.5 -150.5t111 -85t131.5 -28.5q122 0 207 69t114 197h132q-36 -177 -159.5 -272t-301.5 -95q-103 0 -189.5 36t-152.5 105t-103 179t-37 250q0 131 40.5 240t109.5 180.5t160.5 111t193.5 39.5z" />
    <glyph glyph-name="Ccaron" unicode="&#x10c;" horiz-adv-x="1415" 
d="M688 1507l-135 193h102l80 -135l80 135h103l-138 -193h-92zM1186 469h127l-2 -20q-14 -100 -56.5 -185t-112.5 -151.5t-176 -104t-237 -37.5q-190 0 -333.5 92.5t-219.5 257.5t-76 379q0 215 83.5 384t233.5 263.5t341 94.5q245 0 387.5 -129t171.5 -340l2 -21h-127
l-4 21q-34 169 -144 267.5t-292 98.5q-222 0 -366 -174t-144 -458q0 -290 138 -461.5t357 -171.5q188 0 299.5 101.5t145.5 273.5z" />
    <glyph glyph-name="ccaron" unicode="&#x10d;" horiz-adv-x="1075" 
d="M504 1188l-135 225h100l82 -153l84 153h98l-137 -225h-92zM551 72q122 0 207 69t114 197h132q-36 -177 -159.5 -272t-301.5 -95q-103 0 -189.5 36t-152.5 105t-103 179t-37 250q0 131 40.5 240t109.5 180.5t160.5 111t193.5 39.5q185 0 304.5 -104.5t144.5 -278.5h-133
q-28 138 -109 210.5t-211 72.5q-70 0 -133.5 -28.5t-114.5 -83.5t-81.5 -145.5t-30.5 -203.5q0 -121 29 -215t78.5 -150.5t111 -85t131.5 -28.5z" />
    <glyph glyph-name="Dcaron" unicode="&#x10e;" horiz-adv-x="1429" 
d="M692 1507l-135 193h102l80 -135l80 135h103l-138 -193h-92zM793 1407q112 -13 209 -59t177 -127t126.5 -210t46.5 -292q0 -161 -47.5 -293t-127 -217.5t-176.5 -136t-204 -64.5q-72 -8 -181 -8h-413v1413h420q107 0 170 -6zM784 115q89 13 165.5 58t135.5 119t93 183.5
t34 243.5q0 132 -34.5 238.5t-94.5 176.5t-136.5 111.5t-166.5 54.5q-52 7 -164 7h-286v-1201h280q112 0 174 9z" />
    <glyph glyph-name="dcaron" unicode="&#x10f;" horiz-adv-x="1204" 
d="M924 1505h127v-1505h-127v201l-72 -119q-111 -111 -307 -111q-223 0 -353.5 155.5t-130.5 401.5q0 143 42 256.5t114 184t164 107t197 36.5q177 0 278 -98l68 -117v608zM1313 1505v-18l-113 -260h-94l100 278h107zM563 72q76 0 138.5 24t114 74.5t80 138.5t28.5 207v82
q0 110 -31 193t-82.5 129t-110 68t-122.5 22q-167 0 -272 -125t-105 -340q0 -133 40 -238.5t123.5 -170t198.5 -64.5z" />
    <glyph glyph-name="Dcroat" unicode="&#x110;" horiz-adv-x="1423" 
d="M786 1407q89 -10 169 -40.5t152 -86.5t124.5 -133t83.5 -187t31 -241q0 -161 -47.5 -293t-127 -217.5t-176 -136t-202.5 -64.5q-72 -8 -181 -8h-415v639h-123v88h123v686h421q105 0 168 -6zM778 115q89 13 165.5 58t135.5 119t93 183.5t34 243.5q0 132 -34.5 238.5
t-94.5 176.5t-136.5 111.5t-166.5 54.5q-52 7 -162 7h-288v-580h315v-88h-315v-533h280q114 0 174 9z" />
    <glyph glyph-name="dcroat" unicode="&#x111;" horiz-adv-x="1212" 
d="M1139 1233h-88v-1233h-127v201l-72 -119q-111 -111 -307 -111q-223 0 -353.5 155.5t-130.5 401.5q0 143 42 256.5t114 184t164 107t197 36.5q177 0 278 -98l68 -117v336h-238v88h238v184h127v-184h88v-88zM563 72q76 0 138.5 24t114 74.5t80 138.5t28.5 207v82
q0 110 -31 193t-82.5 129t-110 68t-122.5 22q-167 0 -272 -125t-105 -340q0 -133 40 -238.5t123.5 -170t198.5 -64.5z" />
    <glyph glyph-name="Emacron" unicode="&#x112;" horiz-adv-x="1179" 
d="M860 1563h-414v82h414v-82zM1118 104v-104h-915v1413h895v-104h-768v-549h714v-107h-714v-549h788z" />
    <glyph glyph-name="emacron" unicode="&#x113;" horiz-adv-x="1103" 
d="M758 1249h-414v82h414v-82zM1024 571q0 -34 -4 -67h-821q5 -115 35.5 -201t80 -135t108.5 -72.5t128 -23.5q118 0 208 70.5t118 199.5h133q-37 -181 -166 -276t-301 -95q-103 0 -189.5 36t-152.5 105.5t-103 179.5t-37 249q0 170 66 301t180 200.5t256 69.5
q147 0 253 -73.5t157 -194.5t51 -273zM559 1010q-142 0 -244.5 -106.5t-115.5 -299.5h696q-10 201 -101.5 303.5t-234.5 102.5z" />
    <glyph glyph-name="Edotaccent" unicode="&#x116;" horiz-adv-x="1179" 
d="M653 1530q-31 0 -52 21.5t-21 52.5t21 52t52 21t52.5 -21t21.5 -52t-21.5 -52.5t-52.5 -21.5zM1118 104v-104h-915v1413h895v-104h-768v-549h714v-107h-714v-549h788z" />
    <glyph glyph-name="edotaccent" unicode="&#x117;" horiz-adv-x="1103" 
d="M551 1231q-35 0 -60.5 25.5t-25.5 60.5q0 36 25 61t61 25q37 0 61.5 -24.5t24.5 -61.5q0 -36 -25 -61t-61 -25zM1024 571q0 -34 -4 -67h-821q5 -115 35.5 -201t80 -135t108.5 -72.5t128 -23.5q118 0 208 70.5t118 199.5h133q-37 -181 -166 -276t-301 -95
q-103 0 -189.5 36t-152.5 105.5t-103 179.5t-37 249q0 170 66 301t180 200.5t256 69.5q147 0 253 -73.5t157 -194.5t51 -273zM559 1010q-142 0 -244.5 -106.5t-115.5 -299.5h696q-10 201 -101.5 303.5t-234.5 102.5z" />
    <glyph glyph-name="Eogonek" unicode="&#x118;" horiz-adv-x="1179" 
d="M907 -268q0 -105 92 -105q64 0 121 49v-79q-69 -54 -168 -54q-168 0 -168 162q0 96 52.5 172t140.5 123h-774v1413h895v-104h-768v-549h714v-107h-714v-549h788v-104h2q-92 -27 -152.5 -100t-60.5 -168z" />
    <glyph glyph-name="eogonek" unicode="&#x119;" horiz-adv-x="1103" 
d="M1024 571q0 -34 -4 -67h-821q5 -115 35.5 -201t80 -135t108.5 -72.5t128 -23.5q118 0 208 70.5t118 199.5h133q-30 -143 -117.5 -232.5t-212.5 -121.5q-76 -30 -125 -100t-49 -156q0 -105 92 -105q64 0 121 49v-79q-69 -54 -168 -54q-168 0 -168 162q0 82 38.5 150
t104.5 116q-206 6 -335.5 153.5t-129.5 416.5q0 170 66 301t180 200.5t256 69.5q147 0 253 -73.5t157 -194.5t51 -273zM559 1010q-142 0 -244.5 -106.5t-115.5 -299.5h696q-10 201 -101.5 303.5t-234.5 102.5z" />
    <glyph glyph-name="Ecaron" unicode="&#x11a;" horiz-adv-x="1179" 
d="M608 1507l-135 193h102l80 -135l80 135h103l-138 -193h-92zM1118 104v-104h-915v1413h895v-104h-768v-549h714v-107h-714v-549h788z" />
    <glyph glyph-name="ecaron" unicode="&#x11b;" horiz-adv-x="1103" 
d="M506 1188l-135 225h100l82 -153l84 153h98l-137 -225h-92zM1024 571q0 -34 -4 -67h-821q5 -115 35.5 -201t80 -135t108.5 -72.5t128 -23.5q118 0 208 70.5t118 199.5h133q-37 -181 -166 -276t-301 -95q-103 0 -189.5 36t-152.5 105.5t-103 179.5t-37 249q0 170 66 301
t180 200.5t256 69.5q147 0 253 -73.5t157 -194.5t51 -273zM559 1010q-142 0 -244.5 -106.5t-115.5 -299.5h696q-10 201 -101.5 303.5t-234.5 102.5z" />
    <glyph glyph-name="Gbreve" unicode="&#x11e;" horiz-adv-x="1441" 
d="M741 1479q-101 0 -152.5 57.5t-51.5 163.5h81q1 -65 34.5 -100t88.5 -35t88.5 35t34.5 100h82q0 -105 -52.5 -163t-152.5 -58zM803 662h512v-662h-115v291l-55 -127q-69 -96 -176 -144.5t-238 -48.5q-191 0 -335 92.5t-220 257.5t-76 379q0 215 84 384t235.5 263.5
t344.5 94.5q124 0 225 -35.5t169 -99t110 -148t57 -186.5l2 -21h-127l-4 21q-34 169 -144 267.5t-292 98.5q-226 0 -372 -173.5t-146 -458.5q0 -290 138.5 -461.5t358.5 -171.5q86 0 165.5 31.5t143 90t102 152.5t38.5 209h-385v105z" />
    <glyph glyph-name="gbreve" unicode="&#x11f;" horiz-adv-x="1204" 
d="M594 1163q-201 0 -201 250h82q3 -164 119 -164t119 164h82q0 -250 -201 -250zM1051 1085v-811q0 -191 -2 -254q-7 -217 -136 -337.5t-352 -120.5q-419 0 -459 346l-2 24h127l4 -24q13 -118 102 -182t228 -64q169 0 262 94t99 258q2 59 2 160v27l-72 -119
q-111 -111 -307 -111q-223 0 -353.5 155.5t-130.5 401.5q0 143 42 256.5t114 184t164 107t197 36.5q177 0 278 -98l68 -117v188h127zM563 72q76 0 138.5 24t114 74.5t80 138.5t28.5 207v82q0 110 -31 193t-82.5 129t-110 68t-122.5 22q-167 0 -272 -125t-105 -340
q0 -133 40 -238.5t123.5 -170t198.5 -64.5z" />
    <glyph glyph-name="Gdotaccent" unicode="&#x120;" horiz-adv-x="1441" 
d="M741 1530q-31 0 -52 21.5t-21 52.5t21 52t52 21t52.5 -21t21.5 -52t-21.5 -52.5t-52.5 -21.5zM803 662h512v-662h-115v291l-55 -127q-69 -96 -176 -144.5t-238 -48.5q-191 0 -335 92.5t-220 257.5t-76 379q0 215 84 384t235.5 263.5t344.5 94.5q124 0 225 -35.5t169 -99
t110 -148t57 -186.5l2 -21h-127l-4 21q-34 169 -144 267.5t-292 98.5q-226 0 -372 -173.5t-146 -458.5q0 -290 138.5 -461.5t358.5 -171.5q86 0 165.5 31.5t143 90t102 152.5t38.5 209h-385v105z" />
    <glyph glyph-name="gdotaccent" unicode="&#x121;" horiz-adv-x="1204" 
d="M594 1231q-35 0 -60.5 25.5t-25.5 60.5q0 36 25 61t61 25q37 0 61.5 -24.5t24.5 -61.5q0 -36 -25 -61t-61 -25zM1051 1085v-811q0 -191 -2 -254q-7 -217 -136 -337.5t-352 -120.5q-419 0 -459 346l-2 24h127l4 -24q13 -118 102 -182t228 -64q169 0 262 94t99 258
q2 59 2 160v27l-72 -119q-111 -111 -307 -111q-223 0 -353.5 155.5t-130.5 401.5q0 143 42 256.5t114 184t164 107t197 36.5q177 0 278 -98l68 -117v188h127zM563 72q76 0 138.5 24t114 74.5t80 138.5t28.5 207v82q0 110 -31 193t-82.5 129t-110 68t-122.5 22
q-167 0 -272 -125t-105 -340q0 -133 40 -238.5t123.5 -170t198.5 -64.5z" />
    <glyph glyph-name="Gcommaaccent" unicode="&#x122;" horiz-adv-x="1441" 
d="M803 662h512v-662h-115v291l-55 -127q-69 -96 -176 -144.5t-238 -48.5q-191 0 -335 92.5t-220 257.5t-76 379q0 215 84 384t235.5 263.5t344.5 94.5q124 0 225 -35.5t169 -99t110 -148t57 -186.5l2 -21h-127l-4 21q-34 169 -144 267.5t-292 98.5q-226 0 -372 -173.5
t-146 -458.5q0 -290 138.5 -461.5t358.5 -171.5q86 0 165.5 31.5t143 90t102 152.5t38.5 209h-385v105zM698 -104h107v-19l-113 -260h-94z" />
    <glyph glyph-name="gcommaaccent" unicode="&#x123;" horiz-adv-x="1204" 
d="M643 1190h-106v18l114 260h92zM1051 1085v-811q0 -191 -2 -254q-7 -217 -136 -337.5t-352 -120.5q-419 0 -459 346l-2 24h127l4 -24q13 -118 102 -182t228 -64q169 0 262 94t99 258q2 59 2 160v27l-72 -119q-111 -111 -307 -111q-223 0 -353.5 155.5t-130.5 401.5
q0 143 42 256.5t114 184t164 107t197 36.5q177 0 278 -98l68 -117v188h127zM563 72q76 0 138.5 24t114 74.5t80 138.5t28.5 207v82q0 110 -31 193t-82.5 129t-110 68t-122.5 22q-167 0 -272 -125t-105 -340q0 -133 40 -238.5t123.5 -170t198.5 -64.5z" />
    <glyph glyph-name="Hbar" unicode="&#x126;" horiz-adv-x="1437" 
d="M1366 1042h-82v-1042h-127v639h-827v-639h-127v1042h-82v88h82v283h127v-283h827v283h127v-283h82v-88zM1157 1042h-827v-294h827v294z" />
    <glyph glyph-name="hbar" unicode="&#x127;" horiz-adv-x="1193" 
d="M1047 788q6 -55 6 -182v-606h-127v592q0 109 -6 164q-11 117 -79 185t-198 67q-70 -1 -129 -27.5t-107 -80.5t-75 -146t-27 -215v-539h-127v1233h-110v88h110v195h127v-195h217v-88h-217v-359l57 117q121 121 304 121q171 0 269 -86t112 -238z" />
    <glyph glyph-name="Imacron" unicode="&#x12a;" horiz-adv-x="483" 
d="M471 1563h-414v82h414v-82zM330 0h-127v1413h127v-1413z" />
    <glyph glyph-name="imacron" unicode="&#x12b;" horiz-adv-x="430" 
d="M420 1249h-414v82h414v-82zM276 0h-126v1083h126v-1083z" />
    <glyph glyph-name="Iogonek" unicode="&#x12e;" horiz-adv-x="483" 
d="M330 1413v-1413h-31q-92 -27 -152.5 -100t-60.5 -168q0 -105 92 -105q64 0 121 49v-79q-69 -54 -168 -54q-168 0 -168 162q0 109 67 192.5t173 125.5v1390h127z" />
    <glyph glyph-name="iogonek" unicode="&#x12f;" horiz-adv-x="430" 
d="M213 1231q-35 0 -60.5 25.5t-25.5 60.5q0 36 25 61t61 25q37 0 61.5 -24.5t24.5 -61.5q0 -36 -25 -61t-61 -25zM150 1083h126v-1083h-36q-92 -20 -152.5 -95.5t-60.5 -172.5q0 -105 92 -105q64 0 121 49v-79q-69 -54 -168 -54q-168 0 -168 162q0 111 70 197t176 123v1058
z" />
    <glyph glyph-name="Idotaccent" unicode="&#x130;" horiz-adv-x="483" 
d="M264 1677q31 0 52.5 -21t21.5 -52t-21.5 -52.5t-52.5 -21.5t-52.5 21.5t-21.5 52.5t21.5 52t52.5 21zM330 0h-127v1413h127v-1413z" />
    <glyph glyph-name="dotlessi" unicode="&#x131;" horiz-adv-x="430" 
d="M276 0h-126v1083h126v-1083z" />
    <glyph glyph-name="IJ" unicode="&#x132;" horiz-adv-x="1560" 
d="M330 0h-127v1413h127v-1413zM1438 1413v-874q0 -109 -4 -177q-5 -84 -33.5 -153.5t-79.5 -123.5t-132 -84t-185 -30q-190 0 -298 111.5t-114 314.5l-2 76h127l4 -76q7 -165 84.5 -244t214.5 -79q131 0 204 78t85 219q2 43 2 164v878h127z" />
    <glyph glyph-name="ij" unicode="&#x133;" horiz-adv-x="847" 
d="M213 1403q37 0 61.5 -24.5t24.5 -61.5q0 -36 -25 -61t-61 -25q-35 0 -60.5 25.5t-25.5 60.5q0 36 25 61t61 25zM631 1403q37 0 61.5 -24.5t24.5 -61.5q0 -36 -25 -61t-61 -25q-35 0 -60.5 25.5t-25.5 60.5q0 36 25 61t61 25zM276 0h-126v1083h126v-1083zM694 1083v-1198
q0 -86 -4 -123q-18 -192 -221 -192q-53 0 -80 6v105q86 -11 128 13t48 91q2 29 2 86v1212h127z" />
    <glyph glyph-name="Kcommaaccent" unicode="&#x136;" horiz-adv-x="1204" 
d="M545 725l647 -725h-180l-563 641l-119 -125v-516h-127v1413h127v-749l737 749h152zM614 -104h107v-19l-113 -260h-94z" />
    <glyph glyph-name="kcommaaccent" unicode="&#x137;" horiz-adv-x="1019" 
d="M1001 0h-176l-450 485l-99 -104v-381h-126v1505h126v-985l555 563h166l-530 -518zM477 -104h107v-19l-113 -260h-94z" />
    <glyph glyph-name="Lacute" unicode="&#x139;" horiz-adv-x="1150" 
d="M299 1507h-86l111 193h122zM1118 104v-104h-915v1413h127v-1309h788z" />
    <glyph glyph-name="lacute" unicode="&#x13a;" horiz-adv-x="448" 
d="M238 1608h-86l124 225h123zM268 1505v-1218q0 -84 2 -117q3 -52 30.5 -69t96.5 -9v-94q-33 -6 -100 -6q-70 0 -110 31.5t-44 113.5q-2 37 -2 146v1222h127z" />
    <glyph glyph-name="Lcommaaccent" unicode="&#x13b;" horiz-adv-x="1150" 
d="M1118 104v-104h-915v1413h127v-1309h788zM604 -104h107v-19l-113 -260h-94z" />
    <glyph glyph-name="lcommaaccent" unicode="&#x13c;" horiz-adv-x="448" 
d="M268 1505v-1218q0 -84 2 -117q3 -52 30.5 -69t96.5 -9v-94q-33 -6 -100 -6q-70 0 -110 31.5t-44 113.5q-2 37 -2 146v1222h127zM301 -123l-113 -260h-94l101 279h106v-19z" />
    <glyph glyph-name="Lcaron" unicode="&#x13d;" horiz-adv-x="1150" 
d="M1118 104v-104h-915v1413h127v-1309h788z" />
    <glyph glyph-name="lcaron" unicode="&#x13e;" horiz-adv-x="448" 
d="M268 1505v-1218q0 -84 2 -117q3 -52 30.5 -69t96.5 -9v-94q-33 -6 -100 -6q-70 0 -110 31.5t-44 113.5q-2 37 -2 146v1222h127z" />
    <glyph glyph-name="Ldot" unicode="&#x13f;" horiz-adv-x="1150" 
d="M1118 104v-104h-915v1413h127v-1309h788zM756 733q-36 0 -61 25t-25 61q0 37 24.5 61.5t61.5 24.5q36 0 61 -25t25 -61q0 -35 -25.5 -60.5t-60.5 -25.5z" />
    <glyph glyph-name="ldot" unicode="&#x140;" horiz-adv-x="585" 
d="M268 1505v-1218q0 -84 2 -117q3 -52 30.5 -69t96.5 -9v-94q-33 -6 -100 -6q-70 0 -110 31.5t-44 113.5q-2 37 -2 146v1222h127zM481 905q35 0 59.5 -24.5t24.5 -61.5q0 -35 -24.5 -60.5t-59.5 -25.5q-36 0 -61 25t-25 61q0 37 24.5 61.5t61.5 24.5z" />
    <glyph glyph-name="Lslash" unicode="&#x141;" horiz-adv-x="1202" 
d="M1171 104v-104h-917v608l-225 -133v105l225 133v700h127v-625l303 181v-105l-303 -180v-580h790z" />
    <glyph glyph-name="lslash" unicode="&#x142;" horiz-adv-x="518" 
d="M319 170q3 -52 30.5 -69t96.5 -9v-94q-33 -6 -100 -6q-70 0 -109.5 31.5t-43.5 113.5q-3 56 -3 146v284l-127 -80v107l127 80v831h127v-751l127 80v-107l-127 -80v-360q0 -84 2 -117z" />
    <glyph glyph-name="Nacute" unicode="&#x143;" horiz-adv-x="1409" 
d="M762 1507h-86l110 193h123zM1253 0h-194l-735 1290q6 -261 6 -561v-729h-127v1413h192l738 -1290q-7 308 -7 561v729h125z" />
    <glyph glyph-name="nacute" unicode="&#x144;" horiz-adv-x="1165" 
d="M625 1188h-86l125 225h122zM1020 788q4 -55 4 -182v-606h-127v592q0 109 -4 164q-11 117 -79.5 184.5t-199.5 67.5q-147 0 -242.5 -115.5t-95.5 -353.5v-539h-126v1083h126v-209l58 117q121 121 305 121q169 0 267.5 -86t113.5 -238z" />
    <glyph glyph-name="Ncommaaccent" unicode="&#x145;" horiz-adv-x="1409" 
d="M1253 0h-194l-735 1290q6 -261 6 -561v-729h-127v1413h192l738 -1290q-7 308 -7 561v729h125zM793 -123l-113 -260h-94l100 279h107v-19z" />
    <glyph glyph-name="ncommaaccent" unicode="&#x146;" horiz-adv-x="1165" 
d="M1020 788q4 -55 4 -182v-606h-127v592q0 109 -4 164q-11 117 -79.5 184.5t-199.5 67.5q-147 0 -242.5 -115.5t-95.5 -353.5v-539h-126v1083h126v-209l58 117q121 121 305 121q169 0 267.5 -86t113.5 -238zM532 -104h107v-19l-113 -260h-94z" />
    <glyph glyph-name="Ncaron" unicode="&#x147;" horiz-adv-x="1409" 
d="M682 1507l-135 193h102l80 -135l80 135h102l-137 -193h-92zM1059 0l-735 1290q6 -261 6 -561v-729h-127v1413h192l738 -1290q-7 308 -7 561v729h125l2 -1413h-194z" />
    <glyph glyph-name="ncaron" unicode="&#x148;" horiz-adv-x="1165" 
d="M547 1188l-135 225h100l82 -153l84 153h98l-137 -225h-92zM1020 788q4 -55 4 -182v-606h-127v592q0 109 -4 164q-11 117 -79.5 184.5t-199.5 67.5q-147 0 -242.5 -115.5t-95.5 -353.5v-539h-126v1083h126v-209l58 117q121 121 305 121q169 0 267.5 -86t113.5 -238z" />
    <glyph glyph-name="Eng" unicode="&#x14a;" horiz-adv-x="1409" 
d="M1253 1413v-1550q0 -55 -2 -84q-12 -126 -88 -180t-217 -56v107q96 0 138 42t42 138v115l-802 1335q6 -261 6 -551v-729h-127v1413h192l738 -1239q-7 308 -7 535v704h127z" />
    <glyph glyph-name="eng" unicode="&#x14b;" horiz-adv-x="1165" 
d="M1020 788q4 -55 4 -182v-717q0 -55 -2 -84q-9 -131 -86.5 -183t-230.5 -52v106q95 0 139.5 29.5t50.5 106.5q2 23 2 67v713q0 109 -4 164q-11 117 -79.5 184.5t-199.5 67.5q-147 0 -242.5 -115.5t-95.5 -353.5v-539h-126v1083h126v-209l58 117q121 121 305 121
q169 0 267.5 -86t113.5 -238z" />
    <glyph glyph-name="Omacron" unicode="&#x14c;" horiz-adv-x="1490" 
d="M963 1563h-414v82h414v-82zM756 1442q203 0 353 -94.5t227 -259.5t77 -381q0 -214 -77 -379.5t-227 -261t-353 -95.5q-202 0 -352 95.5t-227 261t-77 379.5q0 215 77 380.5t227 260t352 94.5zM756 74q232 0 374 170t142 463q0 294 -142 463t-374 169
q-231 0 -372.5 -169.5t-141.5 -462.5q0 -292 142 -462.5t372 -170.5z" />
    <glyph glyph-name="omacron" unicode="&#x14d;" horiz-adv-x="1175" 
d="M795 1249h-414v82h414v-82zM588 1112q167 0 288 -77t179.5 -204.5t58.5 -289.5q0 -120 -34.5 -223t-99 -180.5t-165.5 -122t-227 -44.5q-167 0 -288 77t-180 204.5t-59 288.5q0 162 59 289.5t180 204.5t288 77zM588 72q172 0 279.5 126t107.5 343t-107.5 343t-279.5 126
t-279.5 -126t-107.5 -343t107.5 -343t279.5 -126z" />
    <glyph glyph-name="Ohungarumlaut" unicode="&#x150;" horiz-adv-x="1490" 
d="M668 1507h-86l108 193h125zM788 1507l109 193h125l-148 -193h-86zM756 1442q203 0 353 -94.5t227 -259.5t77 -381q0 -214 -77 -379.5t-227 -261t-353 -95.5q-202 0 -352 95.5t-227 261t-77 379.5q0 215 77 380.5t227 260t352 94.5zM756 74q232 0 374 170t142 463
q0 294 -142 463t-374 169q-231 0 -372.5 -169.5t-141.5 -462.5q0 -292 142 -462.5t372 -170.5z" />
    <glyph glyph-name="ohungarumlaut" unicode="&#x151;" horiz-adv-x="1175" 
d="M510 1188h-86l123 225h125zM657 1188l123 225h125l-162 -225h-86zM588 1112q167 0 288 -77t179.5 -204.5t58.5 -289.5q0 -120 -34.5 -223t-99 -180.5t-165.5 -122t-227 -44.5q-167 0 -288 77t-180 204.5t-59 288.5q0 162 59 289.5t180 204.5t288 77zM588 72
q172 0 279.5 126t107.5 343t-107.5 343t-279.5 126t-279.5 -126t-107.5 -343t107.5 -343t279.5 -126z" />
    <glyph glyph-name="OE" unicode="&#x152;" horiz-adv-x="2248" 
d="M2189 104v-104h-917v340l-58 -154q-87 -113 -202.5 -164t-268.5 -51q-195 0 -342.5 98t-224 264t-76.5 374q0 156 45 290.5t126.5 233t203 155t268.5 56.5q164 0 270.5 -49t200.5 -166l58 -154v340h897v-104h-770v-549h717v-107h-717v-549h790zM756 74q234 0 375 172.5
t141 460.5q0 290 -141 461t-375 171q-230 0 -372 -171.5t-142 -460.5q0 -287 142.5 -460t371.5 -173z" />
    <glyph glyph-name="oe" unicode="&#x153;" horiz-adv-x="2017" 
d="M1937 571q0 -34 -2 -67h-819q4 -112 34.5 -197t79.5 -135.5t107.5 -75t126.5 -24.5q118 0 208 70.5t118 199.5h133q-37 -181 -165.5 -276t-299.5 -95q-142 0 -252 74.5t-168 226.5q-59 -148 -173 -224.5t-277 -76.5q-167 0 -288 77t-180 204.5t-59 288.5q0 162 59 289.5
t180 204.5t288 77q166 0 283.5 -77.5t175.5 -227.5q58 150 173 227.5t259 77.5q111 0 199 -42.5t144 -116.5t85.5 -171.5t29.5 -210.5zM588 72q172 0 279.5 126t107.5 343t-107.5 343t-279.5 126t-279.5 -126t-107.5 -343t107.5 -343t279.5 -126zM1116 604h692
q-10 202 -100.5 304t-232.5 102q-144 0 -246 -105.5t-113 -300.5z" />
    <glyph glyph-name="Racute" unicode="&#x154;" horiz-adv-x="1230" 
d="M680 1507h-86l111 193h122zM1087 377q15 -146 36.5 -231.5t58.5 -145.5h-142q-55 142 -79 362q-32 264 -232 275q-37 2 -111 2h-288v-639h-127v1413h415q127 0 193 -8q163 -21 255.5 -112.5t92.5 -254.5q0 -133 -74.5 -219.5t-191.5 -116.5q87 -35 135 -121.5t59 -203.5z
M330 745h291q84 0 143 5q119 9 188.5 82t69.5 196q0 234 -242 270q-73 9 -162 9h-288v-562z" />
    <glyph glyph-name="racute" unicode="&#x155;" horiz-adv-x="620" 
d="M367 1188h-86l125 225h122zM541 1108q39 0 63 -8v-101q-149 11 -238.5 -86t-89.5 -305v-608h-126v1083h126v-196l78 139q79 82 187 82z" />
    <glyph glyph-name="Rcommaaccent" unicode="&#x156;" horiz-adv-x="1230" 
d="M1087 377q15 -146 36.5 -231.5t58.5 -145.5h-142q-55 142 -79 362q-32 264 -232 275q-37 2 -111 2h-288v-639h-127v1413h415q127 0 193 -8q163 -21 255.5 -112.5t92.5 -254.5q0 -133 -74.5 -219.5t-191.5 -116.5q87 -35 135 -121.5t59 -203.5zM330 745h291q84 0 143 5
q119 9 188.5 82t69.5 196q0 234 -242 270q-73 9 -162 9h-288v-562zM590 -104h106v-19l-112 -260h-95z" />
    <glyph glyph-name="rcommaaccent" unicode="&#x157;" horiz-adv-x="620" 
d="M541 1108q39 0 63 -8v-101q-149 11 -238.5 -86t-89.5 -305v-608h-126v1083h126v-196l78 139q79 82 187 82zM164 -104h106v-19l-112 -260h-95z" />
    <glyph glyph-name="Rcaron" unicode="&#x158;" horiz-adv-x="1230" 
d="M600 1507l-135 193h102l80 -135l80 135h102l-137 -193h-92zM1087 377q15 -146 36.5 -231.5t58.5 -145.5h-142q-55 142 -79 362q-32 264 -232 275q-37 2 -111 2h-288v-639h-127v1413h415q127 0 193 -8q163 -21 255.5 -112.5t92.5 -254.5q0 -133 -74.5 -219.5
t-191.5 -116.5q87 -35 135 -121.5t59 -203.5zM330 745h291q84 0 143 5q119 9 188.5 82t69.5 196q0 234 -242 270q-73 9 -162 9h-288v-562z" />
    <glyph glyph-name="rcaron" unicode="&#x159;" horiz-adv-x="620" 
d="M289 1188l-135 225h100l82 -153l84 153h98l-137 -225h-92zM541 1108q39 0 63 -8v-101q-149 11 -238.5 -86t-89.5 -305v-608h-126v1083h126v-196l78 139q79 82 187 82z" />
    <glyph glyph-name="Sacute" unicode="&#x15a;" horiz-adv-x="1179" 
d="M639 1507h-86l111 193h122zM621 1442q203 0 319 -113t137 -295h-133q-19 145 -106.5 225t-227.5 80q-130 0 -220.5 -66t-90.5 -186q0 -124 76 -186t266 -110q235 -61 345 -158.5t110 -267.5q0 -173 -135.5 -283.5t-339.5 -110.5q-220 0 -361 109t-164 309h135
q26 -150 132.5 -232.5t261.5 -82.5q143 0 239.5 75t96.5 195q0 133 -84 204t-287 122q-107 28 -181 59.5t-132.5 76.5t-86.5 108.5t-28 146.5q0 168 133.5 274.5t325.5 106.5z" />
    <glyph glyph-name="sacute" unicode="&#x15b;" horiz-adv-x="921" 
d="M494 1188h-86l124 225h123zM457 1112q170 0 268.5 -91t118.5 -241h-133q-48 230 -265 230q-99 0 -159 -52t-60 -141q0 -46 17.5 -80.5t54 -59t80 -41t106.5 -32.5q193 -47 281 -124t88 -210q0 -141 -107.5 -220t-279.5 -79q-111 0 -197 35t-145 114.5t-74 198.5h131
q42 -247 293 -247q108 0 179 49t71 139t-65 142t-224 90q-77 20 -133 43.5t-105.5 59.5t-75.5 88.5t-26 119.5q0 139 100 224t261 85z" />
    <glyph glyph-name="Scedilla" unicode="&#x15e;" horiz-adv-x="1179" 
d="M1096 365q0 -170 -130 -279.5t-329 -114.5l-35 -61q83 -9 127.5 -51t44.5 -115q0 -84 -66 -129t-169 -45q-61 0 -105 18v74q43 -22 109 -22q65 0 102 26.5t37 75.5q0 118 -199 104l68 127q-192 18 -313 125t-142 291h135q26 -150 132.5 -232.5t261.5 -82.5
q143 0 239.5 75t96.5 195q0 133 -84 204t-287 122q-107 28 -181 59.5t-132.5 76.5t-86.5 108.5t-28 146.5q0 168 133.5 274.5t325.5 106.5q203 0 319 -113t137 -295h-133q-19 145 -106.5 225t-227.5 80q-130 0 -220.5 -66t-90.5 -186q0 -124 76 -186t266 -110
q235 -61 345 -158.5t110 -267.5z" />
    <glyph glyph-name="scedilla" unicode="&#x15f;" horiz-adv-x="921" 
d="M854 270q0 -131 -94 -209.5t-248 -87.5l-35 -63q83 -9 127.5 -51t44.5 -115q0 -84 -66 -129t-169 -45q-62 0 -105 18v74q43 -22 109 -22q65 0 102 26.5t37 75.5q0 118 -199 104l68 127q-155 9 -254.5 95t-120.5 251h131q42 -247 293 -247q108 0 179 49t71 139t-65 142
t-224 90q-77 20 -133 43.5t-105.5 59.5t-75.5 88.5t-26 119.5q0 139 100 224t261 85q170 0 268.5 -91t118.5 -241h-133q-48 230 -265 230q-99 0 -159 -52t-60 -141q0 -46 17.5 -80.5t54 -59t80 -41t106.5 -32.5q193 -47 281 -124t88 -210z" />
    <glyph glyph-name="Scaron" unicode="&#x160;" horiz-adv-x="1179" 
d="M559 1507l-135 193h102l80 -135l80 135h102l-137 -193h-92zM641 791q235 -61 345 -158.5t110 -267.5q0 -173 -135.5 -283.5t-339.5 -110.5q-220 0 -361 109t-164 309h135q26 -150 132.5 -232.5t261.5 -82.5q143 0 239.5 75t96.5 195q0 133 -84 204t-287 122
q-107 28 -181 59.5t-132.5 76.5t-86.5 108.5t-28 146.5q0 168 133.5 274.5t325.5 106.5q203 0 319 -113t137 -295h-133q-19 145 -106.5 225t-227.5 80q-130 0 -220.5 -66t-90.5 -186q0 -124 76 -186t266 -110z" />
    <glyph glyph-name="scaron" unicode="&#x161;" horiz-adv-x="921" 
d="M416 1188l-135 225h100l82 -153l84 153h98l-137 -225h-92zM485 604q193 -47 281 -124t88 -210q0 -141 -107.5 -220t-279.5 -79q-111 0 -197 35t-145 114.5t-74 198.5h131q42 -247 293 -247q108 0 179 49t71 139t-65 142t-224 90q-77 20 -133 43.5t-105.5 59.5t-75.5 88.5
t-26 119.5q0 139 100 224t261 85q170 0 268.5 -91t118.5 -241h-133q-48 230 -265 230q-99 0 -159 -52t-60 -141q0 -46 17.5 -80.5t54 -59t80 -41t106.5 -32.5z" />
    <glyph glyph-name="Tcedilla" unicode="&#x162;" horiz-adv-x="1228" 
d="M698 0l-51 -90q83 -9 127.5 -51t44.5 -115q0 -84 -66 -129t-169 -45q-62 0 -105 18v74q43 -22 109 -22q65 0 102 26.5t37 75.5q0 118 -199 104l82 154h-24v1309h-518v104h1163v-104h-518v-1309h-15z" />
    <glyph glyph-name="tcedilla" unicode="&#x163;" horiz-adv-x="581" 
d="M313 977v-680q0 -67 2 -96q6 -78 48.5 -102t150.5 -11v-94q-54 -10 -131 -10l-41 -74q83 -9 127.5 -51t44.5 -115q0 -84 -66 -129t-169 -45q-61 0 -105 18v74q43 -22 109 -22q65 0 102 26.5t37 75.5q0 118 -199 104l78 148q-101 30 -113 162q-2 37 -2 139v682h-139v98
h139v240h127v-240h207v-98h-207z" />
    <glyph glyph-name="Tcaron" unicode="&#x164;" horiz-adv-x="1228" 
d="M604 1507l-135 193h102l80 -135l80 135h103l-138 -193h-92zM1231 1309h-518v-1309h-127v1309h-518v104h1163v-104z" />
    <glyph glyph-name="tcaron" unicode="&#x165;" horiz-adv-x="557" 
d="M610 1505v-20l-112 -258h-95l101 278h106zM313 1075h207v-98h-207v-680q0 -67 2 -96q6 -78 48.5 -102t150.5 -11v-94q-54 -10 -131 -10q-91 0 -139.5 41.5t-55.5 130.5q-2 37 -2 139v682h-139v98h139v240h127v-240z" />
    <glyph glyph-name="Tbar" unicode="&#x166;" horiz-adv-x="1228" 
d="M713 1309v-582h254v-88h-254v-639h-127v639h-254v88h254v582h-518v104h1163v-104h-518z" />
    <glyph glyph-name="tbar" unicode="&#x167;" horiz-adv-x="581" 
d="M313 977v-262h154v-82h-154v-336q0 -67 2 -96q6 -78 48.5 -102t150.5 -11v-94q-54 -10 -131 -10q-91 0 -139.5 41.5t-55.5 130.5q-2 37 -2 139v338h-133v82h133v262h-139v98h139v240h127v-240h207v-98h-207z" />
    <glyph glyph-name="Umacron" unicode="&#x16a;" horiz-adv-x="1333" 
d="M899 1563h-414v82h414v-82zM1194 1413v-907q0 -58 -6 -131q-13 -181 -138.5 -292.5t-357.5 -111.5t-357.5 111t-139.5 293q-5 61 -5 131v907h127v-901q0 -76 5 -125q13 -141 106 -227t264 -86q170 0 263 86t106 227q6 59 6 125v901h127z" />
    <glyph glyph-name="umacron" unicode="&#x16b;" horiz-adv-x="1161" 
d="M776 1249h-414v82h414v-82zM1008 1083v-1083h-127v209l-60 -121q-120 -117 -303 -117q-161 0 -259.5 81.5t-117.5 215.5q-8 73 -8 183v632h127v-604q0 -89 8 -162q12 -111 84.5 -177t194.5 -66q70 0 128.5 26.5t105.5 81t73.5 147.5t26.5 216v538h127z" />
    <glyph glyph-name="Uring" unicode="&#x16e;" horiz-adv-x="1333" 
d="M692 1767q71 0 118.5 -41t47.5 -106t-47.5 -107.5t-118.5 -42.5t-117.5 42t-46.5 108q0 65 46.5 106t117.5 41zM692 1704q-36 0 -59 -24t-23 -60q0 -37 23 -61.5t59 -24.5t59 24.5t23 61.5q0 36 -23 60t-59 24zM1194 1413v-907q0 -58 -6 -131q-13 -181 -138.5 -292.5
t-357.5 -111.5t-357.5 111t-139.5 293q-5 61 -5 131v907h127v-901q0 -76 5 -125q13 -141 106 -227t264 -86q170 0 263 86t106 227q6 59 6 125v901h127z" />
    <glyph glyph-name="uring" unicode="&#x16f;" horiz-adv-x="1161" 
d="M569 1163q-71 0 -117 43.5t-46 110.5q0 69 46 112.5t117 43.5t117.5 -43.5t46.5 -112.5q0 -67 -46.5 -110.5t-117.5 -43.5zM569 1411q-37 0 -59.5 -26.5t-22.5 -67.5t22.5 -66.5t59.5 -25.5t59.5 25.5t22.5 66.5t-22.5 67.5t-59.5 26.5zM1008 1083v-1083h-127v209
l-60 -121q-120 -117 -303 -117q-161 0 -259.5 81.5t-117.5 215.5q-8 73 -8 183v632h127v-604q0 -89 8 -162q12 -111 84.5 -177t194.5 -66q70 0 128.5 26.5t105.5 81t73.5 147.5t26.5 216v538h127z" />
    <glyph glyph-name="Uhungarumlaut" unicode="&#x170;" horiz-adv-x="1333" 
d="M604 1507h-86l109 193h125zM811 1507h-86l109 193h124zM1194 1413v-907q0 -58 -6 -131q-13 -181 -138.5 -292.5t-357.5 -111.5t-357.5 111t-139.5 293q-5 61 -5 131v907h127v-901q0 -76 5 -125q13 -141 106 -227t264 -86q170 0 263 86t106 227q6 59 6 125v901h127z" />
    <glyph glyph-name="uhungarumlaut" unicode="&#x171;" horiz-adv-x="1161" 
d="M492 1188h-86l122 225h125zM639 1188l123 225h125l-162 -225h-86zM1008 1083v-1083h-127v209l-60 -121q-120 -117 -303 -117q-161 0 -259.5 81.5t-117.5 215.5q-8 73 -8 183v632h127v-604q0 -89 8 -162q12 -111 84.5 -177t194.5 -66q70 0 128.5 26.5t105.5 81t73.5 147.5
t26.5 216v538h127z" />
    <glyph glyph-name="Uogonek" unicode="&#x172;" horiz-adv-x="1333" 
d="M1194 1413v-907q0 -58 -6 -131q-9 -135 -83 -233.5t-208 -141.5q-92 -27 -152.5 -100t-60.5 -168q0 -105 92 -105q64 0 121 49v-79q-69 -54 -168 -54q-168 0 -168 162t146 266h-15q-232 0 -357.5 111t-139.5 293q-5 61 -5 131v907h127v-901q0 -76 5 -125
q13 -141 106 -227t264 -86q170 0 263 86t106 227q6 59 6 125v901h127z" />
    <glyph glyph-name="uogonek" unicode="&#x173;" horiz-adv-x="1161" 
d="M1008 1083v-1083h-37q-92 -20 -152.5 -95.5t-60.5 -172.5q0 -105 92 -105q64 0 121 49v-79q-69 -54 -168 -54q-168 0 -168 162q0 111 70 197t176 123v184l-60 -121q-120 -117 -303 -117q-161 0 -259.5 81.5t-117.5 215.5q-8 73 -8 183v632h127v-604q0 -89 8 -162
q12 -111 84.5 -177t194.5 -66q70 0 128.5 26.5t105.5 81t73.5 147.5t26.5 216v538h127z" />
    <glyph glyph-name="Wcircumflex" unicode="&#x174;" horiz-adv-x="1851" 
d="M862 1507h-100l135 193h92l137 -193h-104l-80 135zM1843 1413l-387 -1413h-166l-342 1266l-360 -1266h-168l-367 1413h144l313 -1298l356 1278h170l342 -1278l332 1298h133z" />
    <glyph glyph-name="wcircumflex" unicode="&#x175;" horiz-adv-x="1554" 
d="M698 1188h-98l135 225h92l138 -225h-101l-84 153zM1540 1083l-342 -1083h-154l-266 954l-266 -954h-156l-344 1083h146l278 -966l264 964h162l266 -954l277 956h135z" />
    <glyph glyph-name="Ycircumflex" unicode="&#x176;" horiz-adv-x="1163" 
d="M526 1507h-100l135 193h92l138 -193h-105l-80 135zM670 565v-565h-127v563l-500 850h145l424 -725l414 725h145z" />
    <glyph glyph-name="ycircumflex" unicode="&#x177;" horiz-adv-x="1007" 
d="M424 1188h-98l135 225h92l137 -225h-100l-84 153zM993 1083l-434 -1140q-81 -209 -165.5 -291t-203.5 -82q-59 0 -84 6v105q34 -5 70 -5q77 0 134.5 50.5t107.5 175.5l22 57l-428 1124h144l350 -989l348 989h139z" />
    <glyph glyph-name="Ydieresis" unicode="&#x178;" horiz-adv-x="1163" 
d="M489 1530q-31 0 -52 21.5t-21 52.5t21 52t52 21t52.5 -21t21.5 -52t-21.5 -52.5t-52.5 -21.5zM723 1530q-31 0 -52.5 21.5t-21.5 52.5t21.5 52t52.5 21t52.5 -21t21.5 -52t-21.5 -52.5t-52.5 -21.5zM670 565v-565h-127v563l-500 850h145l424 -725l414 725h145z" />
    <glyph glyph-name="Zacute" unicode="&#x179;" horiz-adv-x="1169" 
d="M637 1507h-86l111 193h122zM1122 106v-106h-1036v98l877 1209h-820v106h967v-104l-872 -1203h884z" />
    <glyph glyph-name="zacute" unicode="&#x17a;" horiz-adv-x="931" 
d="M498 1188h-86l125 225h122zM879 102v-102h-844v98l684 871h-635v102h786v-104l-682 -865h691z" />
    <glyph glyph-name="Zdotaccent" unicode="&#x17b;" horiz-adv-x="1169" 
d="M602 1530q-31 0 -52.5 21.5t-21.5 52.5t21.5 52t52.5 21t52.5 -21t21.5 -52t-21.5 -52.5t-52.5 -21.5zM1122 106v-106h-1036v98l877 1209h-820v106h967v-104l-872 -1203h884z" />
    <glyph glyph-name="zdotaccent" unicode="&#x17c;" horiz-adv-x="931" 
d="M465 1231q-35 0 -60.5 25.5t-25.5 60.5q0 36 25 61t61 25q37 0 61.5 -24.5t24.5 -61.5q0 -36 -25 -61t-61 -25zM879 102v-102h-844v98l684 871h-635v102h786v-104l-682 -865h691z" />
    <glyph glyph-name="Zcaron" unicode="&#x17d;" horiz-adv-x="1169" 
d="M557 1507l-135 193h102l80 -135l80 135h102l-137 -193h-92zM1122 106v-106h-1036v98l877 1209h-820v106h967v-104l-872 -1203h884z" />
    <glyph glyph-name="zcaron" unicode="&#x17e;" horiz-adv-x="931" 
d="M420 1188l-135 225h100l82 -153l84 153h98l-137 -225h-92zM879 102v-102h-844v98l684 871h-635v102h786v-104l-682 -865h691z" />
    <glyph glyph-name="Scommaaccent" unicode="&#x218;" horiz-adv-x="1179" 
d="M621 1442q203 0 319 -113t137 -295h-133q-19 145 -106.5 225t-227.5 80q-130 0 -220.5 -66t-90.5 -186q0 -124 76 -186t266 -110q235 -61 345 -158.5t110 -267.5q0 -173 -135.5 -283.5t-339.5 -110.5q-220 0 -361 109t-164 309h135q26 -150 132.5 -232.5t261.5 -82.5
q143 0 239.5 75t96.5 195q0 133 -84 204t-287 122q-107 28 -181 59.5t-132.5 76.5t-86.5 108.5t-28 146.5q0 168 133.5 274.5t325.5 106.5zM670 -123l-113 -260h-94l100 279h107v-19z" />
    <glyph glyph-name="scommaaccent" unicode="&#x219;" horiz-adv-x="921" 
d="M457 1112q170 0 268.5 -91t118.5 -241h-133q-48 230 -265 230q-99 0 -159 -52t-60 -141q0 -46 17.5 -80.5t54 -59t80 -41t106.5 -32.5q193 -47 281 -124t88 -210q0 -141 -107.5 -220t-279.5 -79q-111 0 -197 35t-145 114.5t-74 198.5h131q42 -247 293 -247q108 0 179 49
t71 139t-65 142t-224 90q-77 20 -133 43.5t-105.5 59.5t-75.5 88.5t-26 119.5q0 139 100 224t261 85zM537 -123l-113 -260h-94l100 279h107v-19z" />
    <glyph glyph-name="uni021A" unicode="&#x21a;" horiz-adv-x="1228" 
d="M1231 1413v-104h-518v-1309h-127v1309h-518v104h1163zM608 -104h107v-19l-113 -260h-94z" />
    <glyph glyph-name="uni021B" unicode="&#x21b;" horiz-adv-x="581" 
d="M313 977v-680q0 -67 2 -96q6 -78 48.5 -102t150.5 -11v-94q-54 -10 -131 -10q-91 0 -139.5 41.5t-55.5 130.5q-2 37 -2 139v682h-139v98h139v240h127v-240h207v-98h-207zM295 -104h106v-19l-112 -260h-94z" />
    <glyph glyph-name="circumflex" unicode="&#x2c6;" horiz-adv-x="614" 
d="M391 1188l-84 153l-82 -153h-98l135 225h92l138 -225h-101z" />
    <glyph glyph-name="caron" unicode="&#x2c7;" horiz-adv-x="614" 
d="M492 1413l-138 -225h-92l-135 225h100l82 -153l84 153h99z" />
    <glyph glyph-name="breve" unicode="&#x2d8;" horiz-adv-x="614" 
d="M426 1413h82q0 -250 -201 -250t-201 250h82q3 -164 119 -164t119 164z" />
    <glyph glyph-name="dotaccent" unicode="&#x2d9;" horiz-adv-x="614" 
d="M307 1403q37 0 61.5 -24.5t24.5 -61.5q0 -36 -25 -61t-61 -25q-35 0 -60.5 25.5t-25.5 60.5q0 36 25 61t61 25z" />
    <glyph glyph-name="ring" unicode="&#x2da;" horiz-adv-x="614" 
d="M307 1473q71 0 117.5 -43.5t46.5 -112.5q0 -67 -46.5 -110.5t-117.5 -43.5t-117.5 43.5t-46.5 110.5q0 69 46.5 112.5t117.5 43.5zM307 1411q-37 0 -59.5 -26.5t-22.5 -67.5t22.5 -66.5t59.5 -25.5t59.5 25.5t22.5 66.5t-22.5 67.5t-59.5 26.5z" />
    <glyph glyph-name="ogonek" unicode="&#x2db;" horiz-adv-x="614" 
d="M307 25l90 -25q-92 -20 -152.5 -95.5t-60.5 -172.5q0 -105 92 -105q64 0 121 49v-79q-69 -54 -168 -54q-168 0 -168 162q0 111 70 197t176 123z" />
    <glyph glyph-name="tilde" unicode="&#x2dc;" horiz-adv-x="614" 
d="M199 1374q44 0 123 -26q70 -23 92 -23q32 0 32 41h64q0 -66 -23.5 -94.5t-70.5 -28.5q-40 0 -123 27q-73 24 -92 24q-33 0 -33 -43h-64q0 66 24 94.5t71 28.5z" />
    <glyph glyph-name="hungarumlaut" unicode="&#x2dd;" horiz-adv-x="614" 
d="M229 1188h-86l123 225h125zM463 1188h-86l123 225h125z" />
    <glyph glyph-name="uni0326" unicode="&#x326;" horiz-adv-x="0" 
d="M373 -123l-113 -260h-94l100 279h107v-19z" />
    <glyph glyph-name="Wgrave" unicode="&#x1e80;" horiz-adv-x="1851" 
d="M903 1507l-147 193h125l108 -193h-86zM1843 1413l-387 -1413h-166l-342 1266l-360 -1266h-168l-367 1413h144l313 -1298l356 1278h170l342 -1278l332 1298h133z" />
    <glyph glyph-name="wgrave" unicode="&#x1e81;" horiz-adv-x="1554" 
d="M745 1188l-161 225h125l125 -225h-89zM1540 1083l-342 -1083h-154l-266 954l-266 -954h-156l-344 1083h146l278 -966l264 964h162l266 -954l277 956h135z" />
    <glyph glyph-name="Wacute" unicode="&#x1e82;" horiz-adv-x="1851" 
d="M977 1507h-86l110 193h123zM1843 1413l-387 -1413h-166l-342 1266l-360 -1266h-168l-367 1413h144l313 -1298l356 1278h170l342 -1278l332 1298h133z" />
    <glyph glyph-name="wacute" unicode="&#x1e83;" horiz-adv-x="1554" 
d="M813 1188h-86l125 225h123zM1540 1083l-342 -1083h-154l-266 954l-266 -954h-156l-344 1083h146l278 -966l264 964h162l266 -954l277 956h135z" />
    <glyph glyph-name="Wdieresis" unicode="&#x1e84;" horiz-adv-x="1851" 
d="M825 1530q-31 0 -52 21.5t-21 52.5t21 52t52 21t52.5 -21t21.5 -52t-21.5 -52.5t-52.5 -21.5zM1059 1530q-31 0 -52.5 21.5t-21.5 52.5t21.5 52t52.5 21t52.5 -21t21.5 -52t-21.5 -52.5t-52.5 -21.5zM1843 1413l-387 -1413h-166l-342 1266l-360 -1266h-168l-367 1413h144
l313 -1298l356 1278h170l342 -1278l332 1298h133z" />
    <glyph glyph-name="wdieresis" unicode="&#x1e85;" horiz-adv-x="1554" 
d="M655 1217q-29 0 -51 22t-22 53q0 29 22 51.5t51 22.5q31 0 53.5 -22.5t22.5 -51.5q0 -31 -22.5 -53t-53.5 -22zM905 1217q-31 0 -53.5 22t-22.5 53q0 29 22.5 51.5t53.5 22.5q29 0 51.5 -22.5t22.5 -51.5q0 -30 -22.5 -52.5t-51.5 -22.5zM1540 1083l-342 -1083h-154
l-266 954l-266 -954h-156l-344 1083h146l278 -966l264 964h162l266 -954l277 956h135z" />
    <glyph glyph-name="Ygrave" unicode="&#x1ef2;" horiz-adv-x="1163" 
d="M567 1507l-147 193h125l108 -193h-86zM670 565v-565h-127v563l-500 850h145l424 -725l414 725h145z" />
    <glyph glyph-name="ygrave" unicode="&#x1ef3;" horiz-adv-x="1007" 
d="M471 1188l-162 225h125l125 -225h-88zM993 1083l-434 -1140q-81 -209 -165.5 -291t-203.5 -82q-59 0 -84 6v105q34 -5 70 -5q77 0 134.5 50.5t107.5 175.5l22 57l-428 1124h144l350 -989l348 989h139z" />
    <glyph glyph-name="endash" unicode="&#x2013;" horiz-adv-x="1024" 
d="M881 553h-738v88h738v-88z" />
    <glyph glyph-name="emdash" unicode="&#x2014;" horiz-adv-x="2048" 
d="M1905 553h-1762v88h1762v-88z" />
    <glyph glyph-name="quoteleft" unicode="&#x2018;" horiz-adv-x="403" 
d="M80 1014l178 491h113l-154 -508h-137v17z" />
    <glyph glyph-name="quoteright" unicode="&#x2019;" horiz-adv-x="403" 
d="M324 1489l-177 -492h-114l153 508h138v-16z" />
    <glyph glyph-name="quotesinglbase" unicode="&#x201a;" horiz-adv-x="397" 
d="M231 129l-153 -373h-119l135 391h137v-18z" />
    <glyph glyph-name="quotedblleft" unicode="&#x201c;" horiz-adv-x="690" 
d="M80 1014l176 491h115l-154 -508h-137v17zM367 1014l176 491h114l-153 -508h-137v17z" />
    <glyph glyph-name="quotedblright" unicode="&#x201d;" horiz-adv-x="690" 
d="M324 1489l-177 -492h-114l153 508h138v-16zM610 1489l-176 -492h-115l154 508h137v-16z" />
    <glyph glyph-name="quotedblbase" unicode="&#x201e;" horiz-adv-x="667" 
d="M231 129l-153 -373h-119l135 391h137v-18zM504 129l-156 -373h-119l136 391h137z" />
    <glyph glyph-name="dagger" unicode="&#x2020;" horiz-adv-x="1126" 
d="M997 788l-374 11l16 -1127h-150l15 1127l-373 -11v117l373 -10l-17 518h152l-16 -518l374 10v-117z" />
    <glyph glyph-name="daggerdbl" unicode="&#x2021;" horiz-adv-x="1126" 
d="M623 799v-514l374 10v-117l-374 10l16 -516h-150l15 516l-373 -10v117l373 -10v514l-373 -11v117l373 -10l-17 518h152l-16 -518l374 10v-117z" />
    <glyph glyph-name="bullet" unicode="&#x2022;" horiz-adv-x="600" 
d="M299 793q72 0 120 -48t48 -120t-48 -120t-120 -48q-71 0 -118.5 48t-47.5 120t47.5 120t118.5 48z" />
    <glyph glyph-name="ellipsis" unicode="&#x2026;" horiz-adv-x="1062" 
d="M176 166q41 0 68.5 -27.5t27.5 -68.5q0 -43 -27.5 -71t-68.5 -28q-43 0 -70.5 28t-27.5 71q0 41 27.5 68.5t70.5 27.5zM508 166q41 0 69.5 -27.5t28.5 -68.5q0 -42 -28 -70.5t-70 -28.5q-41 0 -68.5 28t-27.5 71q0 41 27.5 68.5t68.5 27.5zM842 166q41 0 68.5 -27.5
t27.5 -68.5q0 -43 -27.5 -71t-68.5 -28q-43 0 -71 28t-28 71q0 41 28 68.5t71 27.5z" />
    <glyph glyph-name="perthousand" unicode="&#x2030;" horiz-adv-x="2150" 
d="M682 1112q0 -146 -78 -236t-209 -90t-210 90t-79 236q0 147 79 236.5t210 89.5t209 -89.5t78 -236.5zM1268 1413l-918 -1413h-131l916 1413h133zM233 1112q0 -107 43.5 -170t118.5 -63t118.5 63t43.5 170q0 108 -43.5 169.5t-118.5 61.5t-118.5 -61.5t-43.5 -169.5z
M1090 623q131 0 208.5 -89.5t77.5 -236.5q0 -146 -77.5 -236t-208.5 -90t-210 90t-79 236q0 147 79 236.5t210 89.5zM1757 623q131 0 209 -89.5t78 -236.5q0 -146 -78 -236t-209 -90q-132 0 -210.5 90t-78.5 236q0 147 78 236.5t211 89.5zM1090 63q75 0 118 63t43 171
q0 109 -43 171t-118 62t-118.5 -62t-43.5 -171q0 -108 43.5 -171t118.5 -63zM1757 63q75 0 118.5 63t43.5 171q0 109 -43.5 171t-118.5 62q-76 0 -119 -62t-43 -171q0 -108 43 -171t119 -63z" />
    <glyph glyph-name="guilsinglleft" unicode="&#x2039;" horiz-adv-x="788" 
d="M657 848l-280 -340l280 -340h-116l-281 340l281 340h116z" />
    <glyph glyph-name="guilsinglright" unicode="&#x203a;" horiz-adv-x="788" 
d="M528 508l-280 -340h-115l281 340l-281 340h115z" />
    <glyph glyph-name="fraction" unicode="&#x2044;" horiz-adv-x="356" 
d="M-215 0h-131l917 1413h131z" />
    <glyph glyph-name="Euro" unicode="&#x20ac;" 
d="M913 549h-589q26 -246 135 -360.5t301 -114.5q166 0 295 82v-109q-133 -76 -305 -76q-254 0 -398 136.5t-172 441.5h-145l20 86h121l-2 65q0 49 2 74h-98l20 86h84q23 194 104 326.5t202.5 194t277.5 61.5q218 0 334 -125l-66 -86q-102 108 -272 108q-83 0 -153 -26
t-130 -81t-100 -149.5t-55 -222.5h663l-22 -86h-648l-2 -65q0 -49 2 -74h615z" />
    <glyph glyph-name="trademark" unicode="&#x2122;" horiz-adv-x="1087" 
d="M444 1352v-68h-159v-350h-82v350h-158v68h399zM950 1350v-416h-80l4 323l-110 -317h-84l-109 315l2 -321h-77v416h118l111 -340l109 340h116z" />
    <glyph glyph-name="partialdiff" unicode="&#x2202;" 
d="M522 1552q98 0 177 -31.5t134 -90.5t95 -136t62.5 -175.5t33 -201t10.5 -219.5q0 -368 -129 -547.5t-366 -179.5q-191 0 -318 132t-127 358q0 147 55.5 263.5t167 186.5t261.5 70q105 0 188 -44.5t127 -119.5q-26 635 -379 635q-93 0 -160.5 -25.5t-136.5 -83.5l-57 80
q81 69 166 99t196 30zM549 72q338 0 350 600q-100 209 -317 209q-165 0 -257 -113.5t-92 -300.5q0 -188 89 -291.5t227 -103.5z" />
    <glyph glyph-name="emptyset" unicode="&#x2205;" horiz-adv-x="1716" 
d="M1606 1411l-166 -166q188 -220 188 -518q0 -214 -102.5 -394t-279.5 -284t-388 -104q-148 0 -280.5 52t-237.5 148l-166 -165l-63 63l168 168q-91 105 -141 237t-50 279q0 161 60.5 306.5t163.5 249.5t245.5 165t300.5 61q148 0 280.5 -52t237.5 -148l166 166zM186 727
q0 -256 158 -451l965 965q-91 85 -207 131.5t-244 46.5q-137 0 -261.5 -54.5t-214.5 -147t-143 -220.5t-53 -270zM858 35q138 0 262.5 54t214.5 146.5t142.5 220.5t52.5 271q0 257 -158 449l-964 -963q191 -178 450 -178z" />
    <glyph glyph-name="product" unicode="&#x220f;" 
d="M1077 1307h-121v-1532h-127v1532h-507v-1532h-127v1532h-121v106h1003v-106z" />
    <glyph glyph-name="summation" unicode="&#x2211;" 
d="M1067 -119v-106h-985v102l573 739l-512 695v102h912v-106h-764l512 -693l-576 -733h840z" />
    <glyph glyph-name="minus" unicode="&#x2212;" 
d="M997 608h-845v88h845v-88z" />
    <glyph glyph-name="radical" unicode="&#x221a;" 
d="M1081 1597l-442 -1925h-119l-262 875h-137v88h207l250 -852l405 1814h98z" />
    <glyph glyph-name="infinity" unicode="&#x221e;" horiz-adv-x="2025" 
d="M1475 1114q118 0 212.5 -44t154 -122t91 -181t31.5 -224q0 -163 -53.5 -290t-166 -204.5t-269.5 -77.5q-331 0 -465 371q-69 -189 -181 -280t-278 -91q-118 0 -212.5 44.5t-154.5 122.5t-91.5 181t-31.5 224q0 163 54 290t166.5 204t269.5 77q162 0 280 -91.5t185 -274.5
q68 185 180.5 275.5t278.5 90.5zM551 72q67 0 127 25.5t113 79t90.5 147.5t50.5 219q-21 126 -59.5 219t-89.5 147t-108.5 79.5t-123.5 25.5q-148 0 -249 -128t-101 -343t101 -343t249 -128zM1475 72q150 0 250 128t100 343t-100 343t-250 128q-67 0 -127 -25.5t-113 -79
t-90.5 -147.5t-50.5 -219q21 -126 59.5 -219t89.5 -147t108.5 -79.5t123.5 -25.5z" />
    <glyph glyph-name="integral" unicode="&#x222b;" 
d="M662 1544q85 0 145 -49l-29 -82q-48 43 -114 43t-106 -68t-40 -200q0 -90 18 -205.5t76 -361.5q57 -248 78 -371.5t21 -220.5q0 -174 -68.5 -265.5t-171.5 -91.5q-87 0 -147 49l30 82q45 -43 113 -43q66 0 105.5 68.5t39.5 200.5q0 92 -17.5 206.5t-76.5 362.5
q-56 243 -77 367.5t-21 222.5q0 174 68.5 265t173.5 91z" />
    <glyph glyph-name="approxequal" unicode="&#x2248;" 
d="M362 899q54 0 100.5 -17t133.5 -63q72 -39 113 -55t84 -16q56 0 93 25t75 85l67 -51q-49 -79 -106.5 -116.5t-137.5 -37.5q-37 0 -73.5 10.5t-65 24t-92.5 47.5q-75 39 -115 54.5t-82 15.5q-55 0 -93 -25.5t-75 -85.5l-67 58q47 76 105 111.5t136 35.5zM362 557
q54 0 99 -17t135 -65q73 -38 114 -53.5t83 -15.5q56 0 93 25t75 85l67 -51q-48 -79 -106 -116.5t-138 -37.5q-53 0 -98 17t-133 63q-73 40 -114 56t-83 16q-55 0 -93 -25.5t-75 -85.5l-67 56q47 78 105 113.5t136 35.5z" />
    <glyph glyph-name="notequal" unicode="&#x2260;" 
d="M715 801l-178 -307h469v-88h-521l-116 -199h-103l117 199h-238v88h289l178 307h-467v88h519l116 198h103l-117 -198h240v-88h-291z" />
    <glyph glyph-name="lessequal" unicode="&#x2264;" 
d="M1016 905l-746 -301l746 -295v-108l-846 354v102l846 353v-105zM170 88h846v-88h-846v88z" />
    <glyph glyph-name="greaterequal" unicode="&#x2265;" 
d="M979 657v-102l-844 -354v106l744 299l-744 295v109zM135 88h844v-88h-844v88z" />
    <glyph glyph-name="lozenge" unicode="&#x25ca;" horiz-adv-x="1015" 
d="M901 707l-342 -707h-102l-342 707l342 706h102zM797 707l-289 612l-291 -612l291 -613z" />
    </font>
</defs>
</svg>
