<?xml version="1.0" standalone="no"?>
<!DOCTYPE svg PUBLIC "-//W3C//DTD SVG 1.1//EN" "http://www.w3.org/Graphics/SVG/1.1/DTD/svg11.dtd" >
<svg xmlns="http://www.w3.org/2000/svg" xmlns:xlink="http://www.w3.org/1999/xlink" version="1.1">
<metadata>
Created by FontForge 20170731 at Wed Dec 14 12:20:11 2022
 By Aleksey,,,
No Rights Reserved.
</metadata>
<defs>
<font id="Aileron-SemiBoldItalic" horiz-adv-x="1230" >
  <font-face 
    font-family="Aileron SemiBold"
    font-weight="600"
    font-style="italic"
    font-stretch="normal"
    units-per-em="2048"
    panose-1="0 0 7 0 0 0 0 0 0 0"
    ascent="1577"
    descent="-471"
    x-height="1079"
    cap-height="1413"
    bbox="-420 -457 2343 1837"
    underline-thickness="102"
    underline-position="-307"
    slope="-10"
    unicode-range="U+0020-FB02"
  />
<missing-glyph horiz-adv-x="1157" 
d="M133 0v1434h1024v-1434h-1024zM645 809l348 522h-696zM707 717l348 -522v1044zM297 102h696l-348 523zM236 1239v-1044l348 522z" />
    <glyph glyph-name="fi" unicode="fi" horiz-adv-x="1122" 
d="M1075 1079l-188 -1079h-223l161 922h-379l-161 -922h-224l160 922h-94l27 157h96l4 25q7 46 29 127q86 313 510 313q78 0 139 -12l-31 -168q-185 20 -276 -15.5t-121 -129.5q-18 -64 -23 -103l-6 -37h600z" />
    <glyph glyph-name="fl" unicode="fl" horiz-adv-x="1155" 
d="M924 225q0 -42 27.5 -59.5t88.5 -13.5l-26 -154q-75 -10 -146 -10q-91 0 -136.5 32t-45.5 111q0 37 29 195l182 1040q-48 14 -123 14q-221 0 -270 -161q-18 -64 -23 -103l-6 -37h221l-28 -157h-222l-163 -922h-224l162 922h-96l29 157h96l4 25q10 63 27 127
q86 313 532 313q197 0 328 -41h6l-209 -1171q-14 -93 -14 -107z" />
    <glyph glyph-name=".notdef" horiz-adv-x="1157" 
d="M133 0v1434h1024v-1434h-1024zM645 809l348 522h-696zM707 717l348 -522v1044zM297 102h696l-348 523zM236 1239v-1044l348 522z" />
    <glyph glyph-name=".null" horiz-adv-x="0" 
 />
    <glyph glyph-name="nonmarkingreturn" horiz-adv-x="682" 
 />
    <glyph glyph-name="space" unicode=" " horiz-adv-x="366" 
 />
    <glyph glyph-name="exclam" unicode="!" horiz-adv-x="559" 
d="M344 385h-190l180 1028h239zM225 260q58 0 91.5 -32.5t33.5 -86.5q0 -70 -48 -120t-122 -50q-57 0 -91 32t-34 85q0 71 48.5 121.5t121.5 50.5z" />
    <glyph glyph-name="quotedbl" unicode="&#x22;" horiz-adv-x="641" 
d="M254 971h-168l82 534h209zM567 971h-168l80 534h211z" />
    <glyph glyph-name="numbersign" unicode="#" 
d="M932 840l-103 -265h205l-24 -135h-234l-172 -440h-141l172 440h-184l-172 -440h-142l172 440h-180l25 135h208l103 265h-205l25 135h233l170 438h141l-170 -438h185l170 438h141l-170 -438h180l-24 -135h-209zM791 840h-185l-102 -265h184z" />
    <glyph glyph-name="dollar" unicode="$" 
d="M784 1260l-79 -453q191 -69 280.5 -167t89.5 -251q0 -187 -142 -298.5t-378 -119.5l-27 -155h-141l29 161q-355 50 -379 412h229q12 -196 180 -239l84 475q-174 57 -260 143.5t-86 241.5q0 80 31 153.5t89.5 134.5t154 99.5t215.5 44.5l28 155h142l-29 -163
q163 -25 250 -134t92 -268h-227q-1 84 -40 143.5t-106 84.5zM414 1030q0 -70 38.5 -112t116.5 -74l76 430q-112 -13 -171.5 -80.5t-59.5 -163.5zM666 588l-80 -447q256 16 256 234q0 79 -42 129t-134 84z" />
    <glyph glyph-name="percent" unicode="%" horiz-adv-x="1548" 
d="M438 780q-124 0 -198 75t-74 198q0 75 22.5 143.5t65.5 124t113.5 88.5t158.5 33q124 0 198.5 -74t74.5 -199q0 -75 -22.5 -143.5t-66 -124t-114 -88.5t-158.5 -33zM1491 1413l-1161 -1413h-215l1161 1413h215zM510 1307q-70 0 -114 -72t-44 -188q0 -62 26 -97t77 -35
q70 0 113.5 73t43.5 188q0 62 -25.5 96.5t-76.5 34.5zM1165 633q126 0 200.5 -74t74.5 -199q0 -75 -22.5 -143.5t-66 -124t-114 -88.5t-158.5 -33q-124 0 -198 75t-74 198q0 75 22.5 143.5t65.5 124t113 88.5t157 33zM1096 106q70 0 113.5 73t43.5 188q0 62 -25.5 96.5
t-76.5 34.5q-71 0 -115.5 -72.5t-44.5 -187.5q0 -62 26.5 -97t78.5 -35z" />
    <glyph glyph-name="ampersand" unicode="&#x26;" horiz-adv-x="1363" 
d="M1329 807l-33 -180h-194l-107 -609q-212 -47 -440 -47q-504 0 -504 332q0 161 110.5 275t289.5 145q-99 28 -156 101.5t-57 181.5q0 197 165 316.5t426 119.5q124 0 232 -21l-31 -172q-108 21 -233 21q-149 0 -231.5 -71.5t-82.5 -207.5q0 -172 201 -182q37 -2 125 -2
h100l37 211h223l-34 -211h194zM877 627h-109q-80 0 -121 -2q-175 -14 -259.5 -90.5t-84.5 -198.5q0 -104 70 -148.5t219 -44.5q103 0 203 19z" />
    <glyph glyph-name="quotesingle" unicode="'" horiz-adv-x="327" 
d="M254 971h-168l82 534h209z" />
    <glyph glyph-name="parenleft" unicode="(" horiz-adv-x="690" 
d="M492 -164h-136q-137 243 -137 592q0 189 46 388t149.5 408t253.5 373h135q-218 -274 -324 -577t-106 -588q0 -331 119 -596z" />
    <glyph glyph-name="parenright" unicode=")" horiz-adv-x="690" 
d="M260 1597h135q137 -243 137 -591q0 -292 -113.5 -608.5t-334.5 -561.5h-135q218 274 324 577.5t106 587.5q0 337 -119 596z" />
    <glyph glyph-name="asterisk" unicode="*" horiz-adv-x="1101" 
d="M618 627l320 118l20 -147l-323 -78l176 -268l-143 -92l-136 293l-243 -293l-109 92l269 268l-295 78l73 147l277 -118l41 346h155z" />
    <glyph glyph-name="plus" unicode="+" 
d="M1032 582h-368l-72 -412h-141l73 412h-368l24 131h367l74 415h139l-74 -415h369z" />
    <glyph glyph-name="comma" unicode="," horiz-adv-x="503" 
d="M289 219l-279 -467h-196l247 490h232z" />
    <glyph glyph-name="hyphen" unicode="-" horiz-adv-x="581" 
d="M504 512h-451l25 135h450z" />
    <glyph glyph-name="period" unicode="." horiz-adv-x="503" 
d="M172 270q55 0 89 -33t34 -87q0 -79 -50 -129t-126 -50q-56 0 -90.5 33.5t-34.5 87.5q0 78 51 128t127 50z" />
    <glyph glyph-name="slash" unicode="/" horiz-adv-x="643" 
d="M25 -61h-150l787 1536h147z" />
    <glyph glyph-name="zero" unicode="0" 
d="M696 1442q240 0 361 -146.5t121 -388.5q0 -85 -9.5 -171.5t-31.5 -179.5t-55 -176.5t-84 -159t-114.5 -130.5t-150 -87t-186.5 -32q-123 0 -216.5 40.5t-150.5 113.5t-85.5 169t-28.5 214q0 85 9.5 172t31.5 180t55 176t83.5 158t114 129.5t150 86.5t186.5 32zM549 143
q87 0 157 59t111 146.5t69 196.5t38 201t10 169q0 166 -59.5 260.5t-180.5 94.5q-73 0 -134 -40.5t-101.5 -108t-71 -148.5t-47 -170.5t-24 -164t-7.5 -138.5q0 -166 60 -261.5t180 -95.5z" />
    <glyph glyph-name="one" unicode="1" 
d="M1006 1413l-250 -1413h-224l207 1178l-440 -230l39 221l346 191q98 53 197 53h125z" />
    <glyph glyph-name="two" unicode="2" 
d="M393 180h647l-30 -180h-985l20 115l584 497q127 108 194 179t102.5 142t35.5 148q0 91 -48.5 141t-144.5 50q-124 0 -199.5 -69.5t-113.5 -219.5l-4 -20h-224l4 20q116 461 590 461q189 0 289 -92t100 -240q0 -138 -98 -275t-354 -350z" />
    <glyph glyph-name="three" unicode="3" 
d="M885 750q113 -32 173 -105.5t60 -183.5q0 -146 -81.5 -258.5t-220 -172t-308.5 -59.5q-225 0 -340 108t-98 327l2 20h225l-2 -20q-7 -128 61.5 -195.5t194.5 -67.5q136 0 227.5 80t91.5 209q0 198 -272 201h-39l29 166l41 2q138 2 232.5 81.5t94.5 207.5q0 81 -52 130.5
t-142 49.5q-117 0 -197 -64.5t-106 -187.5l-4 -21h-226l4 21q43 197 192.5 310.5t393.5 113.5q183 0 284 -85t101 -224q0 -141 -86.5 -243.5t-232.5 -139.5z" />
    <glyph glyph-name="four" unicode="4" 
d="M1130 346h-176l-61 -346h-225l61 346h-690l18 117l867 950h231l-168 -887h174zM762 526l119 609q-66 -90 -133 -162l-412 -447h426z" />
    <glyph glyph-name="five" unicode="5" 
d="M537 1235l-138 -447l95 95q111 57 233 57q192 0 293.5 -105.5t101.5 -281.5q0 -109 -33 -203.5t-90.5 -163t-135 -117.5t-168 -73.5t-187.5 -24.5q-208 0 -325.5 105.5t-100.5 304.5v20h225v-20q0 -121 53 -179.5t170 -58.5q154 0 249 104t95 271q0 116 -59 183t-168 67
q-93 0 -165 -43t-132 -139h-211l248 827h836l-33 -178h-653z" />
    <glyph glyph-name="six" unicode="6" 
d="M819 1442q194 0 296.5 -104.5t90.5 -282.5l-2 -21h-233v21q-9 215 -199 215q-151 0 -264 -139.5t-156 -405.5l115 141q120 86 270 86q191 0 293.5 -106t102.5 -279q0 -130 -51 -243.5t-135 -189.5t-193.5 -119.5t-225.5 -43.5q-206 0 -321 122.5t-115 361.5q0 185 39 345
t107.5 276.5t160.5 200t199 124.5t221 41zM655 780q-64 0 -122.5 -26t-105 -73.5t-74 -120.5t-27.5 -161q0 -113 59 -184.5t164 -71.5q140 0 237 110t97 275q0 113 -57 182.5t-171 69.5z" />
    <glyph glyph-name="seven" unicode="7" 
d="M1294 1413l-20 -113l-922 -1300h-256l883 1235h-756l33 178h1038z" />
    <glyph glyph-name="eight" unicode="8" 
d="M901 748q94 -34 153.5 -113t59.5 -186q0 -98 -34 -179t-91.5 -136t-135.5 -93t-163.5 -55t-177.5 -17q-99 0 -180 20t-143 61.5t-96 110.5t-34 161q0 107 51.5 197.5t128 145.5t169.5 83q-78 32 -123 98t-45 158q0 194 150.5 316t395.5 122q193 0 301.5 -88t108.5 -238
q0 -138 -84 -233t-211 -135zM756 1270q-128 0 -203.5 -76t-75.5 -188q0 -84 50.5 -134.5t146.5 -50.5q129 0 205.5 75.5t76.5 190.5q0 81 -51.5 132t-148.5 51zM547 141q158 0 241.5 84t83.5 215q0 93 -58.5 151t-178.5 58q-105 0 -182 -43t-113.5 -109.5t-36.5 -146.5
q0 -95 63 -152t181 -57z" />
    <glyph glyph-name="nine" unicode="9" 
d="M741 1442q206 0 321.5 -121t115.5 -360q0 -231 -60 -421.5t-161.5 -313t-231 -189t-272.5 -66.5q-194 0 -298 105t-92 284l3 21h233v-21q9 -217 199 -217q151 0 264.5 139.5t157.5 407.5l-117 -143q-121 -86 -271 -86q-189 0 -291 106.5t-102 278.5q0 130 50.5 243.5
t134 189.5t192.5 119.5t225 43.5zM614 633q64 0 122.5 26t105 73.5t74.5 121t28 162.5q0 113 -59 183.5t-164 70.5q-139 0 -236.5 -109.5t-97.5 -275.5q0 -113 56.5 -182.5t170.5 -69.5z" />
    <glyph glyph-name="colon" unicode=":" horiz-adv-x="503" 
d="M326 1116q56 0 90.5 -33.5t34.5 -87.5q0 -78 -51 -128t-126 -50q-55 0 -89.5 33.5t-34.5 87.5q0 78 50.5 128t125.5 50zM178 270q56 0 90.5 -33t34.5 -87q0 -79 -51 -129t-127 -50q-55 0 -89 33.5t-34 87.5q0 79 50 128.5t126 49.5z" />
    <glyph glyph-name="semicolon" unicode=";" horiz-adv-x="503" 
d="M326 1116q56 0 90.5 -33.5t34.5 -87.5q0 -78 -51 -128t-126 -50q-55 0 -89.5 33.5t-34.5 87.5q0 78 50.5 128t125.5 50zM287 213l-277 -461h-194l247 490h228z" />
    <glyph glyph-name="less" unicode="&#x3c;" 
d="M1124 856l-768 -319l656 -320l-29 -160l-786 400l30 174l926 399z" />
    <glyph glyph-name="equal" unicode="=" 
d="M1079 786h-897l23 132h897zM1006 377h-897l24 131h895z" />
    <glyph glyph-name="greater" unicode="&#x3e;" 
d="M1028 631l-31 -174l-927 -400l28 172l770 320l-657 319l29 162z" />
    <glyph glyph-name="question" unicode="?" horiz-adv-x="1232" 
d="M788 1442q187 0 292.5 -85.5t105.5 -226.5q0 -127 -64.5 -231t-230.5 -244q-97 -79 -140 -136t-65 -134h-207q19 93 62.5 160.5t152.5 173.5q147 142 197.5 221.5t50.5 163.5q0 80 -50 123t-138 43q-108 0 -181.5 -67.5t-99.5 -201.5h-229q33 204 181.5 322.5
t362.5 118.5zM561 260q58 0 91.5 -32.5t33.5 -86.5q0 -70 -48 -120t-122 -50q-57 0 -91 32t-34 85q0 71 48.5 121.5t121.5 50.5z" />
    <glyph glyph-name="at" unicode="@" horiz-adv-x="1785" 
d="M1329 956l-115 -473q-14 -66 -14 -106q0 -88 78 -88q97 0 166 102t69 289q0 135 -41.5 242.5t-115.5 176.5t-173 105.5t-216 36.5q-105 0 -208 -30.5t-194.5 -92.5t-161 -148t-110.5 -205.5t-41 -256.5q0 -285 162.5 -441.5t425.5 -156.5q130 0 262.5 40t236.5 116
l56 -119q-136 -91 -283.5 -133.5t-284.5 -42.5q-111 0 -215 27t-197.5 85.5t-163 143t-110.5 206.5t-41 269q0 196 74 363.5t196 278.5t279 173.5t324 62.5q155 0 285.5 -52.5t219 -144.5t138 -219.5t49.5 -275.5q0 -138 -37.5 -244.5t-101 -169t-139 -93.5t-158.5 -31
q-199 0 -232 163l-49 -96q-90 -76 -198 -76q-53 0 -101 17t-90.5 54t-68 104.5t-25.5 158.5q0 137 53.5 255t153 190.5t221.5 72.5q119 0 174 -61l23 -103l36 127h203zM1012 512l20 96q26 114 -6 167.5t-102 53.5q-103 0 -167.5 -101t-64.5 -239q0 -184 123 -184
q68 0 121.5 61t75.5 146z" />
    <glyph glyph-name="A" unicode="A" horiz-adv-x="1353" 
d="M940 467h-502l-237 -467h-250l756 1413h307l239 -1413h-243zM913 645l-88 578l-295 -578h383z" />
    <glyph glyph-name="B" unicode="B" horiz-adv-x="1337" 
d="M979 754q238 -69 238 -312q0 -80 -26.5 -147.5t-70.5 -115t-104 -83.5t-123 -56t-131 -30q-72 -10 -189 -10h-483l250 1413h457q114 0 182 -8q145 -20 221 -94.5t76 -196.5q0 -275 -297 -360zM535 1235l-74 -418h244q56 0 108 8q219 34 219 244q0 72 -43 112t-117 48
q-53 6 -106 6h-231zM715 182q109 10 184.5 81.5t75.5 191.5q0 158 -174 182q-39 6 -105 6h-266l-82 -463h268q70 0 99 2z" />
    <glyph glyph-name="C" unicode="C" horiz-adv-x="1492" 
d="M922 1442q180 0 303.5 -63.5t178 -171.5t44.5 -249l-2 -20h-225v20q0 162 -82.5 237t-247.5 75q-152 0 -272 -90t-186 -247.5t-66 -354.5q0 -217 91 -326t251 -109q293 0 413 316l8 20h226l-6 -20q-64 -227 -236 -357.5t-440 -130.5q-262 0 -408.5 156t-144.5 428
q-1 189 60.5 354t167.5 282t255 184t318 67z" />
    <glyph glyph-name="D" unicode="D" horiz-adv-x="1472" 
d="M924 1407q108 -10 198.5 -52t160.5 -114.5t109.5 -184t39.5 -251.5q0 -115 -28.5 -223.5t-89 -207t-146.5 -175.5t-208.5 -128t-267.5 -65q-74 -6 -182 -6h-420l250 1413h401q113 0 183 -6zM694 186q101 14 184 54t140.5 98.5t96.5 133.5t57 157t18 172
q0 195 -88.5 301.5t-233.5 124.5q-60 8 -149 8h-184l-187 -1055h193q106 0 153 6z" />
    <glyph glyph-name="E" unicode="E" horiz-adv-x="1232" 
d="M535 1235l-78 -438h673l-30 -179h-676l-76 -438h752l-33 -180h-977l250 1413h956l-32 -178h-729z" />
    <glyph glyph-name="F" unicode="F" horiz-adv-x="1193" 
d="M535 1235l-78 -438h653l-31 -179h-655l-109 -618h-225l250 1413h956l-32 -178h-729z" />
    <glyph glyph-name="G" unicode="G" horiz-adv-x="1560" 
d="M946 1442q136 0 238 -36t163 -101.5t88 -153t19 -193.5l-2 -20h-225v20q0 165 -76.5 238.5t-239.5 73.5q-153 0 -277.5 -89t-195.5 -247.5t-71 -353.5q0 -202 89 -319.5t246 -117.5q158 0 279.5 104t159.5 273h-316l33 180h535l-123 -700h-189l33 238l-86 -136
q-146 -131 -381 -131q-252 0 -390 158.5t-138 421.5q0 192 65.5 359t177 283t263.5 182.5t321 66.5z" />
    <glyph glyph-name="H" unicode="H" horiz-adv-x="1509" 
d="M1513 1413l-249 -1413h-224l107 602h-725l-107 -602h-225l250 1413h225l-110 -629h725l110 629h223z" />
    <glyph glyph-name="I" unicode="I" horiz-adv-x="561" 
d="M315 0h-225l250 1413h225z" />
    <glyph glyph-name="J" unicode="J" horiz-adv-x="1134" 
d="M1157 1413l-151 -854q-14 -80 -37 -182q-44 -191 -174 -298.5t-359 -107.5q-212 0 -318 120.5t-75 326.5l12 78h224l-9 -78q-36 -275 201 -275q112 0 180 61.5t99 186.5q5 23 15.5 75.5l16.5 82.5l150 864h225z" />
    <glyph glyph-name="K" unicode="K" horiz-adv-x="1333" 
d="M680 713l532 -713h-274l-424 596l-111 -98l-88 -498h-225l250 1413h225l-119 -676l771 676h272z" />
    <glyph glyph-name="L" unicode="L" horiz-adv-x="1204" 
d="M1100 186l-33 -186h-977l250 1413h225l-217 -1227h752z" />
    <glyph glyph-name="M" unicode="M" horiz-adv-x="1798" 
d="M1802 1413l-250 -1413h-225l213 1182l-582 -1182h-274l-160 1204l-209 -1204h-225l250 1413h369l155 -1180l566 1180h372z" />
    <glyph glyph-name="N" unicode="N" horiz-adv-x="1503" 
d="M1507 1413l-250 -1413h-321l-418 1169l-203 -1169h-225l250 1413h317l420 -1180l207 1180h223z" />
    <glyph glyph-name="O" unicode="O" horiz-adv-x="1560" 
d="M926 1442q142 0 256.5 -48t188 -132t112.5 -194.5t39 -238.5q0 -136 -32 -261.5t-98.5 -234.5t-160 -189.5t-225 -126.5t-285.5 -46q-142 0 -256.5 48t-188 132t-112.5 194.5t-39 238.5q0 136 32 262t98.5 234.5t160 189t225 126.5t285.5 46zM752 143q105 0 193.5 41.5
t149 110.5t103.5 158.5t62.5 184.5t19.5 189q0 201 -102.5 322t-282.5 121q-105 0 -193.5 -41.5t-149 -110.5t-103.5 -158.5t-62.5 -184.5t-19.5 -189q0 -200 102 -321.5t283 -121.5z" />
    <glyph glyph-name="P" unicode="P" horiz-adv-x="1261" 
d="M989 1405q144 -19 229 -107t85 -235q0 -107 -37.5 -197.5t-102 -151.5t-145.5 -99t-172 -50q-70 -8 -195 -8h-237l-99 -557h-225l250 1413h457q126 0 192 -8zM834 748q99 19 163 91t64 197q0 82 -38.5 129t-102.5 58q-47 8 -144 8h-244l-86 -492h244q88 0 144 9z" />
    <glyph glyph-name="Q" unicode="Q" horiz-adv-x="1568" 
d="M1516 836q0 -202 -78 -380t-224 -284q102 -26 211 -127l-135 -149q-108 69 -161.5 91.5t-112.5 22.5q-74 0 -152 -22q-67 -17 -139 -17q-151 0 -268 47t-189 131t-108.5 193t-36.5 238q0 110 22.5 216t66 202t111 177t153 140.5t197 93t238.5 33.5q151 0 268.5 -47
t190 -130t109.5 -191.5t37 -237.5zM365 582q0 -201 99 -320t277 -119q107 0 197 42t150.5 111.5t103.5 160t62.5 185t19.5 189.5q0 200 -101 319.5t-278 119.5q-106 0 -195.5 -42t-150 -111.5t-103 -160t-62 -185t-19.5 -189.5z" />
    <glyph glyph-name="R" unicode="R" horiz-adv-x="1290" 
d="M1323 1098q0 -170 -101 -275.5t-259 -140.5q62 -15 95.5 -59t48.5 -133.5t15 -249.5q0 -169 39 -240h-243q-16 82 -21 369q-2 102 -36.5 158.5t-115.5 60.5q-35 2 -104 2h-221l-105 -590h-225l250 1413h487q127 0 195 -8q138 -18 219.5 -94.5t81.5 -212.5zM815 768
q114 10 188 82t74 201q0 156 -164 176q-47 8 -129 8h-249l-84 -471h235q92 0 129 4z" />
    <glyph glyph-name="S" unicode="S" horiz-adv-x="1189" 
d="M748 1442q226 0 337.5 -118.5t100.5 -311.5h-234q9 122 -54.5 190t-186.5 68q-117 0 -191 -62t-74 -172q0 -82 61.5 -130.5t203.5 -82.5q198 -48 293.5 -140.5t95.5 -244.5q0 -142 -78.5 -249.5t-210 -162.5t-295.5 -55q-233 0 -364.5 115t-116.5 324h233
q4 -129 78.5 -198t200.5 -69q133 0 220 68t87 186q0 88 -64.5 142.5t-209.5 91.5q-185 46 -282 126.5t-97 219.5q0 142 76 249.5t199.5 161.5t271.5 54z" />
    <glyph glyph-name="T" unicode="T" horiz-adv-x="1265" 
d="M1391 1235h-490l-219 -1235h-225l219 1235h-494l33 178h1208z" />
    <glyph glyph-name="U" unicode="U" horiz-adv-x="1417" 
d="M1444 1413l-152 -856q-15 -85 -30 -149q-106 -437 -617 -437q-238 0 -359.5 105t-121.5 295q0 76 22 202l148 840h225l-151 -860q-19 -111 -19 -164q0 -116 72.5 -181t208.5 -65q152 0 241.5 67t130.5 218q16 64 25 115l152 870h225z" />
    <glyph glyph-name="V" unicode="V" horiz-adv-x="1382" 
d="M766 0h-307l-240 1413h244l180 -1241l629 1241h250z" />
    <glyph glyph-name="W" unicode="W" horiz-adv-x="1984" 
d="M2132 1413l-633 -1413h-297l-74 1186l-503 -1186h-299l-119 1413h242l65 -1204l490 1184h319l66 -1192l495 1212h248z" />
    <glyph glyph-name="X" unicode="X" horiz-adv-x="1323" 
d="M827 715l396 -715h-267l-290 567l-469 -567h-267l635 723l-350 690h254l260 -543l455 543h264z" />
    <glyph glyph-name="Y" unicode="Y" horiz-adv-x="1243" 
d="M764 545l-94 -545h-226l99 551l-348 862h239l254 -663l473 663h256z" />
    <glyph glyph-name="Z" unicode="Z" horiz-adv-x="1239" 
d="M1303 1237l-986 -1057h809l-32 -180h-1092l31 172l989 1063h-746l33 178h1024z" />
    <glyph glyph-name="bracketleft" unicode="[" horiz-adv-x="681" 
d="M360 1597h390l-23 -135h-250l-264 -1491h250l-25 -135h-389z" />
    <glyph glyph-name="backslash" unicode="\" horiz-adv-x="643" 
d="M539 -61h-148l-244 1536h148z" />
    <glyph glyph-name="bracketright" unicode="]" horiz-adv-x="681" 
d="M350 -164h-391l25 135h249l265 1491h-250l24 135h390z" />
    <glyph glyph-name="asciicircum" unicode="^" 
d="M831 440l-155 686l-397 -686h-166l499 822h166l213 -822h-160z" />
    <glyph glyph-name="underscore" unicode="_" horiz-adv-x="1024" 
d="M909 -178h-819l25 135h819z" />
    <glyph glyph-name="grave" unicode="`" horiz-adv-x="614" 
d="M371 1182h-135l-168 233h204z" />
    <glyph glyph-name="a" unicode="a" horiz-adv-x="1079" 
d="M643 1116q188 0 278.5 -74t90.5 -202q0 -54 -21 -183l-67 -381q-22 -126 -29 -276h-221l6 156l-74 -101q-96 -84 -282 -84q-126 0 -212.5 73.5t-86.5 211.5q0 145 96 242t262 136t385 23l4 25q14 92 14 131q0 63 -37 101t-118 38q-116 0 -178 -52t-86 -157h-226
q35 176 170 274.5t332 98.5zM723 408l18 102q-132 15 -238.5 -4t-172.5 -76.5t-66 -146.5q0 -71 45.5 -109.5t122.5 -38.5q94 0 181.5 77.5t109.5 195.5z" />
    <glyph glyph-name="b" unicode="b" horiz-adv-x="1290" 
d="M829 1116q199 0 305.5 -120t106.5 -320q0 -105 -24.5 -205.5t-77 -191.5t-126.5 -159t-181 -108.5t-234 -40.5q-69 0 -140.5 23t-105.5 59l-51 111l-29 -164h-225l266 1505h226l-105 -585l103 114q52 38 130.5 60t161.5 22zM606 135q120 0 211.5 76t136.5 193t45 251
q0 138 -62 217.5t-181 79.5q-66 0 -124.5 -21.5t-111 -67t-92 -124.5t-57.5 -184l-11 -55q-15 -70 -5 -136t36.5 -117t82.5 -81.5t132 -30.5z" />
    <glyph glyph-name="c" unicode="c" horiz-adv-x="1126" 
d="M684 1114q204 0 307 -108.5t105 -296.5h-228q-9 241 -215 241q-158 0 -260 -151t-102 -385q0 -139 60 -209t157 -70q103 0 182 58t121 167h229q-79 -197 -215.5 -293t-343.5 -96q-195 0 -313.5 112.5t-118.5 326.5q0 139 43.5 265.5t122.5 224.5t200.5 156t268.5 58z" />
    <glyph glyph-name="d" unicode="d" horiz-adv-x="1288" 
d="M1317 1505l-266 -1505h-224l31 170l-104 -117q-51 -37 -130.5 -59.5t-162.5 -22.5q-197 0 -304.5 121t-107.5 320q0 105 24.5 205.5t77.5 191t127.5 159t181.5 108.5t234 40q69 0 140 -22.5t106 -57.5l51 -110l103 579h223zM922 532l10 58q16 97 -2 176.5t-81 132.5
t-165 53q-119 0 -210.5 -76t-137 -193t-45.5 -251q0 -138 63.5 -217.5t182.5 -79.5q65 0 124 22t111.5 67.5t92 124t57.5 183.5z" />
    <glyph glyph-name="e" unicode="e" horiz-adv-x="1142" 
d="M1067 481h-778q-2 -25 -2 -71q0 -139 61 -207t164 -68q100 0 180 58t113 159h229q-64 -187 -212.5 -284t-338.5 -97q-196 0 -315 112.5t-119 322.5q0 105 23.5 205.5t74 192t122 161t174.5 110.5t225 41q205 0 318.5 -114t113.5 -302q0 -110 -33 -219zM641 952
q-127 0 -208 -86.5t-118 -226.5h555q2 23 2 61q0 120 -61 186t-170 66z" />
    <glyph glyph-name="f" unicode="f" horiz-adv-x="598" 
d="M516 1266q-21 -66 -29 -105l-14 -82h223l-26 -157h-224l-161 -922h-224l162 922h-98l29 157h96l12 70q15 78 31 129q38 130 124 198t210 68q109 0 170 -12l-31 -168q-36 8 -76 8q-136 0 -174 -106z" />
    <glyph glyph-name="g" unicode="g" horiz-adv-x="1288" 
d="M1245 1087l-145 -817q-26 -145 -39 -211q-53 -249 -209.5 -372t-423.5 -123q-215 0 -333 95.5t-105 268.5l2 21h223l-2 -19q-5 -90 59.5 -143t188.5 -53q148 0 243 77.5t127 223.5q4 23 13 64t12 61l2 14l-104 -119q-51 -37 -130.5 -59.5t-162.5 -22.5
q-197 0 -304.5 121.5t-107.5 317.5q0 105 24.5 205.5t77.5 191t127.5 159t181.5 108.5t234 40q69 0 140 -22.5t106 -57.5l51 -110l29 161h225zM537 139q66 0 124.5 21.5t111 66t92 122.5t57.5 183v-4l10 64v-2q16 97 -2 176.5t-81 132.5t-165 53q-119 0 -210.5 -76
t-137 -193t-45.5 -251q0 -137 63 -215t183 -78z" />
    <glyph glyph-name="h" unicode="h" horiz-adv-x="1243" 
d="M817 1116q163 0 247.5 -74t84.5 -204q0 -80 -27 -222l-110 -616h-224l105 586q22 121 22 184q0 183 -194 180q-129 -3 -225.5 -114t-139.5 -351l-84 -485h-225l266 1516h226l-107 -605l96 121q70 47 137.5 65.5t151.5 18.5z" />
    <glyph glyph-name="i" unicode="i" horiz-adv-x="507" 
d="M420 1466q52 0 83.5 -30t31.5 -78q0 -62 -43.5 -107t-110.5 -45q-52 0 -83.5 30.5t-31.5 80.5q0 61 44 105t110 44zM272 0h-225l193 1087h225z" />
    <glyph glyph-name="j" unicode="j" horiz-adv-x="450" 
d="M379 1466q53 0 85 -30t32 -78q0 -68 -42 -110t-110 -42q-53 0 -85 30.5t-32 78.5q0 67 42 109t110 42zM432 1087l-201 -1150q-20 -102 -28 -132q-32 -117 -114 -176t-232 -59q-64 0 -93 4l31 170q153 -18 187 92q8 24 26 111l201 1140h223z" />
    <glyph glyph-name="k" unicode="k" horiz-adv-x="1122" 
d="M633 575l407 -575h-270l-307 459l-129 -113l-62 -346h-225l266 1505h226l-164 -932l565 514h277z" />
    <glyph glyph-name="l" unicode="l" horiz-adv-x="538" 
d="M528 1505l-206 -1173q-15 -80 -15 -107q0 -50 25.5 -64t89.5 -9l-27 -154q-75 -10 -143 -10q-92 0 -137 32t-45 111q0 53 26 195l209 1179h223z" />
    <glyph glyph-name="m" unicode="m" horiz-adv-x="1808" 
d="M1423 1116q146 0 221.5 -73t75.5 -189q0 -62 -24 -197l-115 -657h-225l102 575q25 161 25 211q0 81 -43 122.5t-123 41.5q-95 0 -176.5 -105.5t-114.5 -279.5l-4 -18l-96 -547h-224l101 575q26 149 26 211q0 81 -44 122.5t-126 41.5q-98 0 -178 -109.5t-112 -293.5
l-97 -547h-225l191 1087h225l-27 -155l94 121q95 63 244 63q123 0 195 -54.5t90 -146.5l117 134q96 67 247 67z" />
    <glyph glyph-name="n" unicode="n" horiz-adv-x="1243" 
d="M817 1116q163 0 247.5 -74t84.5 -204q0 -80 -27 -222l-110 -616h-224l105 586q22 121 22 184q0 183 -194 180q-129 -3 -225.5 -114t-139.5 -351l-84 -485h-225l191 1087h225l-31 -176l96 121q70 47 137.5 65.5t151.5 18.5z" />
    <glyph glyph-name="o" unicode="o" 
d="M694 1116q123 0 218 -38.5t151.5 -106t84.5 -152t28 -184.5q0 -95 -23.5 -187.5t-74 -179t-123.5 -152.5t-180.5 -105.5t-235.5 -39.5q-124 0 -219 38.5t-152 106t-85 152.5t-28 185q0 95 23.5 187t74.5 178.5t124 152.5t180.5 105.5t236.5 39.5zM561 135q89 0 162 43.5
t118 115.5t69 159t24 178q0 142 -66.5 231.5t-197.5 89.5q-89 0 -161.5 -43t-117.5 -114.5t-69.5 -158t-24.5 -177.5q0 -143 67 -233.5t197 -90.5z" />
    <glyph glyph-name="p" unicode="p" horiz-adv-x="1290" 
d="M829 1116q199 0 305.5 -120t106.5 -320q0 -105 -24.5 -205.5t-77 -191.5t-126.5 -159t-181 -108.5t-234 -40.5q-69 0 -140.5 23t-105.5 59l-51 111l-100 -565h-226l265 1488h225l-31 -167l103 114q52 38 130.5 60t161.5 22zM606 135q120 0 211.5 76t136.5 193t45 251
q0 138 -62 217.5t-181 79.5q-66 0 -124.5 -21.5t-111 -67t-92 -124.5t-57.5 -184l-11 -55q-15 -70 -5 -136t36.5 -117t82.5 -81.5t132 -30.5z" />
    <glyph glyph-name="q" unicode="q" horiz-adv-x="1288" 
d="M1245 1087l-266 -1488h-223l102 571l-104 -117q-51 -37 -130.5 -59.5t-162.5 -22.5q-197 0 -304.5 121t-107.5 320q0 105 24.5 205.5t77.5 191t127.5 159t181.5 108.5t234 40q69 0 140 -22.5t106 -57.5l51 -110l29 161h225zM922 532l10 58q16 97 -2 176.5t-81 132.5
t-165 53q-119 0 -210.5 -76t-137 -193t-45.5 -251q0 -138 63.5 -217.5t182.5 -79.5q65 0 124 22t111.5 67.5t92 124t57.5 183.5z" />
    <glyph glyph-name="r" unicode="r" horiz-adv-x="710" 
d="M729 1114q44 0 74 -12l-31 -176q-72 5 -134.5 -11t-116.5 -57t-92.5 -115t-57.5 -178l-99 -565h-225l193 1085h223l-33 -184l121 152q86 61 178 61z" />
    <glyph glyph-name="s" unicode="s" horiz-adv-x="956" 
d="M532 1114q193 0 288 -91.5t100 -248.5h-228q-13 182 -168 182q-91 0 -136.5 -42.5t-45.5 -106.5q0 -67 48 -106t155 -72q164 -51 240.5 -126.5t76.5 -203.5q0 -151 -121 -245.5t-325 -94.5q-110 0 -195 28.5t-136 79t-77.5 112t-30.5 134.5h230q19 -194 221 -194
q85 0 140 43.5t55 116.5q0 66 -50.5 109t-173.5 83q-70 22 -119 45t-92 58.5t-64.5 87t-21.5 118.5q0 143 112.5 238.5t317.5 95.5z" />
    <glyph glyph-name="t" unicode="t" horiz-adv-x="667" 
d="M461 922l-101 -570q-14 -79 -14 -116q0 -60 43 -78t139 -4l-28 -154q-82 -20 -162 -20q-116 0 -171.5 41.5t-55.5 130.5q0 54 22 180l105 590h-150l29 157h149l45 260h224l-46 -260h199l-29 -157h-198z" />
    <glyph glyph-name="u" unicode="u" horiz-adv-x="1232" 
d="M1188 1087l-191 -1087h-225l31 176l-96 -121q-71 -48 -137 -66t-152 -18q-162 0 -247 75t-85 204q0 79 27 223l110 614h226l-107 -585q-23 -124 -23 -185q0 -84 47.5 -132.5t147.5 -45.5q129 2 225 110.5t138 346.5l2 6l86 485h223z" />
    <glyph glyph-name="v" unicode="v" horiz-adv-x="1058" 
d="M1171 1087l-608 -1087h-270l-223 1087h254l137 -907l459 907h251z" />
    <glyph glyph-name="w" unicode="w" horiz-adv-x="1599" 
d="M1714 1087l-538 -1087h-261l-61 877l-369 -877h-262l-153 1087h254l69 -874l359 872h278l62 -876l378 878h244z" />
    <glyph glyph-name="x" unicode="x" horiz-adv-x="1024" 
d="M631 543l295 -543h-264l-191 387l-321 -387h-263l484 543l-273 544h264l170 -391l322 391h264z" />
    <glyph glyph-name="y" unicode="y" horiz-adv-x="1058" 
d="M1171 1087l-608 -1087q-139 -249 -246.5 -339.5t-267.5 -90.5q-61 0 -102 8l26 166q41 -6 74 -6q79 0 135 39t107 135l16 31l-235 1144h254l137 -913l459 913h251z" />
    <glyph glyph-name="z" unicode="z" horiz-adv-x="1005" 
d="M997 918l-739 -756h619l-29 -162h-887l27 156l745 762h-565l29 161h829z" />
    <glyph glyph-name="braceleft" unicode="{" horiz-adv-x="686" 
d="M770 1597l-22 -135h-31q-56 0 -88 -9.5t-55 -41t-31 -89t-6 -155.5q2 -97 -8 -170t-35.5 -134t-74 -98t-118.5 -48q72 -11 110 -52t38 -108q0 -101 -72 -291q-39 -105 -51.5 -147.5t-12.5 -73.5q0 -38 33.5 -56t108.5 -18h28l-24 -135h-43q-122 0 -184 45t-62 144
q0 44 13.5 91.5t60.5 170.5q61 163 61 250q0 101 -145 112l24 135q51 5 83.5 15t59.5 32.5t41 62.5t21 101.5t6 151.5q-2 181 28 276.5t100 134.5t204 39h43z" />
    <glyph glyph-name="bar" unicode="|" horiz-adv-x="555" 
d="M170 -410h-150l361 2048h149z" />
    <glyph glyph-name="braceright" unicode="}" horiz-adv-x="686" 
d="M428 897q0 -100 143 -113l-22 -135q-64 -5 -101 -19.5t-64.5 -53.5t-37.5 -108t-8 -181q2 -137 -13 -221.5t-55 -137t-102.5 -72.5t-163.5 -20h-43l25 135h30q56 0 88 9.5t55.5 41t31.5 89.5t6 155t8 170t35 134.5t72 99t116 49.5q-145 25 -145 158q0 97 73 290
q40 107 52 149t12 73q0 38 -33 55.5t-108 17.5h-29l22 135h43q124 0 186 -44.5t62 -143.5q0 -44 -13.5 -91.5t-60.5 -170.5q-61 -163 -61 -250z" />
    <glyph glyph-name="asciitilde" unicode="~" 
d="M944 756h135q-53 -299 -291 -299q-39 0 -77 11.5t-64 24.5t-86 48q-61 37 -101 54t-77 17q-54 0 -82.5 -38.5t-42.5 -116.5h-135q50 299 289 299q58 0 101 -17.5t126 -66.5q48 -28 69.5 -39.5t52 -22t56.5 -10.5q53 0 82 38t45 118z" />
    <glyph glyph-name="exclamdown" unicode="&#xa1;" horiz-adv-x="542" 
d="M317 829q-58 0 -91 32t-33 85q0 71 47.5 120.5t121.5 49.5q57 0 91 -32t34 -85q0 -70 -49 -120t-121 -50zM199 705h190l-180 -1031h-240z" />
    <glyph glyph-name="cent" unicode="&#xa2;" 
d="M741 942l-143 -799q160 35 231 217h230q-73 -180 -193 -276t-297 -111l-28 -157h-142l29 159q-166 21 -263 131.5t-97 303.5q0 130 38 250t107.5 215t177 158t238.5 77l28 160h142l-29 -160q173 -17 259.5 -123t86.5 -278h-227q-6 197 -148 233zM309 414
q0 -113 40.5 -180.5t109.5 -88.5l139 795q-130 -34 -209.5 -178t-79.5 -348z" />
    <glyph glyph-name="sterling" unicode="&#xa3;" horiz-adv-x="1214" 
d="M522 543q0 -121 -53 -210.5t-178 -152.5h733l-31 -180h-1009l28 160q64 14 114 43t80 64.5t50 79.5t27.5 84t7.5 81q0 52 -19 123h-157l22 131h99q-29 114 -29 219q0 89 33 170t94.5 145.5t160 103t218.5 38.5q387 0 413 -410h-233q-6 120 -56 179t-151 59
q-106 0 -173 -78.5t-67 -198.5q0 -63 9.5 -109.5t31.5 -117.5h433l-23 -131h-383q8 -44 8 -92z" />
    <glyph glyph-name="currency" unicode="&#xa4;" 
d="M1069 940l-143 -121q41 -74 41 -168q0 -141 -97 -258l91 -110l-103 -86l-92 108q-96 -57 -217 -57q-116 0 -199 74l-137 -117l-76 92l139 119q-38 74 -38 166q0 144 94 260l-88 108l104 88l92 -106q86 53 213 53q113 0 197 -74l143 121zM383 594q0 -96 51.5 -152.5
t134.5 -56.5q113 0 181.5 78t68.5 178q0 94 -52.5 150.5t-135.5 56.5q-113 0 -180.5 -77.5t-67.5 -176.5z" />
    <glyph glyph-name="yen" unicode="&#xa5;" 
d="M809 743h238l-25 -135h-313l-17 -22l-18 -105h325l-24 -135h-324l-61 -346h-225l61 346h-326l25 135h324l20 117l-2 10h-322l25 135h246l-250 670h254l196 -661l437 661h247z" />
    <glyph glyph-name="brokenbar" unicode="&#xa6;" horiz-adv-x="546" 
d="M360 717h-141l123 696h141zM176 -328h-141l123 697h141z" />
    <glyph glyph-name="section" unicode="&#xa7;" horiz-adv-x="1200" 
d="M1133 512q0 -106 -69.5 -196.5t-193.5 -133.5q56 -77 56 -178q0 -164 -133.5 -262t-343.5 -98q-168 0 -283 91.5t-129 268.5h229q9 -100 67.5 -151.5t139.5 -51.5q99 0 156 45.5t57 135.5q0 80 -59.5 132t-214.5 107q-82 30 -139.5 61t-104.5 73.5t-70.5 98t-23.5 126.5
q0 107 66.5 197.5t197.5 137.5q-47 71 -47 172q0 65 28 127t79.5 113.5t135.5 83t187 31.5q171 0 270.5 -92.5t114.5 -253.5h-229q-8 90 -53.5 139t-123.5 49q-75 0 -122.5 -52t-47.5 -136q0 -72 56 -122t178 -85q188 -56 278.5 -147.5t90.5 -229.5zM721 311q81 12 126.5 62
t45.5 123q0 74 -58 123.5t-190 95.5q-106 36 -166 69q-83 -17 -124.5 -66t-41.5 -116q0 -74 57 -123t171 -90q98 -33 180 -78z" />
    <glyph glyph-name="dieresis" unicode="&#xa8;" horiz-adv-x="614" 
d="M156 1403q42 0 68 -25t26 -65q0 -52 -39.5 -88.5t-87.5 -36.5q-42 0 -68 25t-26 65q0 52 39.5 88.5t87.5 36.5zM483 1403q41 0 68 -25t27 -65q0 -52 -39.5 -88.5t-87.5 -36.5q-43 0 -69 25t-26 65q0 52 39.5 88.5t87.5 36.5z" />
    <glyph glyph-name="copyright" unicode="&#xa9;" horiz-adv-x="1728" 
d="M864 1532q168 0 316.5 -61.5t255 -168t168 -256.5t61.5 -319t-61.5 -319t-168 -256.5t-255 -168t-316.5 -61.5t-316.5 61.5t-255 168t-168 256.5t-61.5 319t61.5 319t168 256.5t255 168t316.5 61.5zM864 1393q-183 0 -331.5 -87t-233 -239.5t-84.5 -339.5
q0 -188 84.5 -340.5t233 -239t331.5 -86.5q182 0 330.5 86.5t233.5 239t85 340.5q0 140 -50 263.5t-136 212t-206.5 139.5t-256.5 51zM879 1198q171 0 277.5 -93t133.5 -251h-217q-28 188 -199 188q-107 0 -163 -83.5t-56 -229.5q0 -148 60 -232.5t162 -84.5q79 0 131 51
t63 135h217q-34 -160 -140 -251t-288 -91q-192 0 -312 128t-120 341q0 217 123.5 345t327.5 128z" />
    <glyph glyph-name="guillemotleft" unicode="&#xab;" horiz-adv-x="1173" 
d="M414 492l211 -324h-172l-222 340l340 340h199zM782 492l211 -324h-172l-221 340l340 340h199z" />
    <glyph glyph-name="logicalnot" unicode="&#xac;" 
d="M926 412h-142l43 247h-637l25 136h776z" />
    <glyph glyph-name="registered" unicode="&#xae;" horiz-adv-x="1030" 
d="M565 1565q181 0 288.5 -109t107.5 -274q0 -94 -35 -180t-97 -152t-156.5 -105.5t-205.5 -39.5q-181 0 -288 108.5t-107 273.5q0 126 58.5 234t173 176t261.5 68zM485 805q169 0 270 108.5t101 268.5q0 127 -82.5 205.5t-224.5 78.5q-171 0 -272 -109.5t-101 -269.5
q0 -127 82.5 -204.5t226.5 -77.5zM594 1352q56 -6 86.5 -35t30.5 -78q0 -41 -26 -71t-77 -42q54 -18 51 -84q-4 -61 17 -110h-121q-10 55 -8 98q0 41 -49 41h-43l-25 -139h-106l73 422h142q37 0 55 -2zM471 1159h35q25 0 37 2q25 3 40 18.5t15 39.5q0 40 -39 47q-12 2 -35 2
h-35z" />
    <glyph glyph-name="macron" unicode="&#xaf;" horiz-adv-x="614" 
d="M557 1227h-522l22 129h523z" />
    <glyph glyph-name="degree" unicode="&#xb0;" horiz-adv-x="628" 
d="M473 1534q106 0 170 -62t64 -157q0 -122 -79.5 -203.5t-209.5 -81.5q-105 0 -169.5 62.5t-64.5 156.5q0 123 79 204t210 81zM461 1403q-58 0 -94.5 -37t-36.5 -104q0 -48 28 -74.5t72 -26.5q57 0 94 38t37 104q0 49 -27.5 74.5t-72.5 25.5z" />
    <glyph glyph-name="plusminus" unicode="&#xb1;" 
d="M1057 721l-25 -135h-356l-62 -350h-139l62 350h-355l25 135h354l60 342h141l-62 -342h357zM102 131h850l-22 -131h-850z" />
    <glyph glyph-name="acute" unicode="&#xb4;" horiz-adv-x="614" 
d="M342 1182h-135l182 233h205z" />
    <glyph glyph-name="paragraph" unicode="&#xb6;" horiz-adv-x="1173" 
d="M1188 1413l-291 -1638h-141l266 1503h-199l-266 -1503h-141l155 880h-34q-80 0 -115 2q-83 5 -144 54t-89.5 119.5t-28.5 152.5q0 54 14 110t45 111.5t76 99.5t112.5 73t147.5 34q37 2 117 2h516z" />
    <glyph glyph-name="periodcentered" unicode="&#xb7;" horiz-adv-x="454" 
d="M270 782q58 0 94.5 -34.5t36.5 -90.5q0 -81 -54.5 -135.5t-131.5 -54.5q-59 0 -96 35t-37 92q0 79 55.5 133.5t132.5 54.5z" />
    <glyph glyph-name="cedilla" unicode="&#xb8;" horiz-adv-x="614" 
d="M397 18l-73 -102q72 -12 109.5 -51.5t37.5 -97.5q0 -98 -80.5 -147.5t-206.5 -49.5q-77 0 -127 16l21 99q39 -15 106 -15q69 0 105.5 23.5t36.5 64.5q0 44 -49 65t-134 11l127 184h127z" />
    <glyph glyph-name="guillemotright" unicode="&#xbb;" horiz-adv-x="1179" 
d="M561 508l-340 -340h-201l357 356l-211 324h174zM930 508l-340 -340h-201l356 356l-210 324h174z" />
    <glyph glyph-name="questiondown" unicode="&#xbf;" horiz-adv-x="1110" 
d="M641 829q-58 0 -91.5 32t-33.5 85q0 70 48 120t122 50q57 0 91 -32t34 -85q0 -70 -49 -120t-121 -50zM414 -354q-186 0 -292 85.5t-106 225.5q0 129 64.5 232t232.5 243q96 82 138.5 139.5t64.5 133.5h207q-17 -94 -60.5 -161t-154.5 -173q-147 -141 -197.5 -222
t-50.5 -165q0 -80 51 -123t140 -43q107 0 180.5 67t97.5 201h232q-35 -204 -183.5 -322t-363.5 -118z" />
    <glyph glyph-name="Agrave" unicode="&#xc0;" horiz-adv-x="1353" 
d="M831 1507l-163 209h204l95 -209h-136zM940 467h-502l-237 -467h-250l756 1413h307l239 -1413h-243zM913 645l-88 578l-295 -578h383z" />
    <glyph glyph-name="Aacute" unicode="&#xc1;" horiz-adv-x="1353" 
d="M942 1507h-135l166 209h205zM940 467h-502l-237 -467h-250l756 1413h307l239 -1413h-243zM913 645l-88 578l-295 -578h383z" />
    <glyph glyph-name="Acircumflex" unicode="&#xc2;" horiz-adv-x="1353" 
d="M821 1507h-153l170 209h168l98 -209h-156l-43 121zM940 467h-502l-237 -467h-250l756 1413h307l239 -1413h-243zM913 645l-88 578l-295 -578h383z" />
    <glyph glyph-name="Atilde" unicode="&#xc3;" horiz-adv-x="1353" 
d="M791 1579q-33 0 -41 -47h-109q18 97 54.5 137.5t99.5 40.5q53 0 133 -31q63 -24 88 -24q17 0 27 10.5t16 36.5h106q-18 -98 -54 -138t-99 -40q-53 0 -133 30q-63 25 -88 25zM940 467h-502l-237 -467h-250l756 1413h307l239 -1413h-243zM913 645l-88 578l-295 -578h383z
" />
    <glyph glyph-name="Adieresis" unicode="&#xc4;" horiz-adv-x="1353" 
d="M727 1501q-44 0 -70 26t-26 66q0 52 39.5 88.5t87.5 36.5q43 0 68.5 -25.5t25.5 -66.5q0 -51 -39 -88t-86 -37zM1044 1501q-44 0 -70 26t-26 66q0 52 39.5 88.5t87.5 36.5q43 0 68.5 -25.5t25.5 -66.5q0 -51 -39 -88t-86 -37zM940 467h-502l-237 -467h-250l756 1413h307
l239 -1413h-243zM913 645l-88 578l-295 -578h383z" />
    <glyph glyph-name="Aring" unicode="&#xc5;" horiz-adv-x="1353" 
d="M885 1470q-82 0 -130 42t-48 108q0 91 65 146t162 55q81 0 129.5 -43t48.5 -109q0 -91 -65 -145t-162 -54zM926 1731q-42 0 -71.5 -28t-29.5 -75q0 -31 18.5 -50t49.5 -19q41 0 70.5 28t29.5 74q0 31 -18.5 50.5t-48.5 19.5zM940 467h-502l-237 -467h-250l756 1413h307
l239 -1413h-243zM913 645l-88 578l-295 -578h383z" />
    <glyph glyph-name="AE" unicode="&#xc6;" horiz-adv-x="1937" 
d="M1198 1235l-45 -438h682l-31 -179h-667l-45 -438h712l-32 -180h-922l51 481h-452l-353 -481h-264l1061 1413h1108l-33 -178h-770zM977 1202l-395 -540h340z" />
    <glyph glyph-name="Ccedilla" unicode="&#xc7;" horiz-adv-x="1492" 
d="M922 1442q180 0 303.5 -63.5t178 -171.5t44.5 -249l-2 -20h-225v20q0 162 -82.5 237t-247.5 75q-152 0 -272 -90t-186 -247.5t-66 -354.5q0 -217 91 -326t251 -109q293 0 413 316l8 20h226l-6 -20q-64 -227 -236 -357.5t-440 -130.5q-123 0 -211 33l-64 -88
q72 -12 110 -51.5t38 -97.5q0 -98 -80.5 -147.5t-206.5 -49.5q-77 0 -127 16l21 99q39 -15 106 -15q69 0 105 23.5t36 64.5q0 44 -48.5 65t-133.5 11l127 184h76q-146 63 -224 202t-77 335q-1 189 60.5 354t167.5 282t255 184t318 67z" />
    <glyph glyph-name="Egrave" unicode="&#xc8;" horiz-adv-x="1232" 
d="M799 1507l-164 209h205l94 -209h-135zM535 1235l-78 -438h673l-30 -179h-676l-76 -438h752l-33 -180h-977l250 1413h956l-32 -178h-729z" />
    <glyph glyph-name="Eacute" unicode="&#xc9;" horiz-adv-x="1232" 
d="M909 1507h-135l166 209h205zM535 1235l-78 -438h673l-30 -179h-676l-76 -438h752l-33 -180h-977l250 1413h956l-32 -178h-729z" />
    <glyph glyph-name="Ecircumflex" unicode="&#xca;" horiz-adv-x="1232" 
d="M791 1507h-154l170 209h168l98 -209h-155l-44 121zM535 1235l-78 -438h673l-30 -179h-676l-76 -438h752l-33 -180h-977l250 1413h956l-32 -178h-729z" />
    <glyph glyph-name="Edieresis" unicode="&#xcb;" horiz-adv-x="1232" 
d="M696 1501q-44 0 -70 26t-26 66q0 52 39.5 88.5t87.5 36.5q43 0 68.5 -25.5t25.5 -66.5q0 -51 -39 -88t-86 -37zM1014 1501q-44 0 -70 26t-26 66q0 52 39 88.5t87 36.5q43 0 69 -25.5t26 -66.5q0 -51 -39 -88t-86 -37zM535 1235l-78 -438h673l-30 -179h-676l-76 -438h752
l-33 -180h-977l250 1413h956l-32 -178h-729z" />
    <glyph glyph-name="Igrave" unicode="&#xcc;" horiz-adv-x="561" 
d="M551 1507h-135l-164 209h205zM315 0h-225l250 1413h225z" />
    <glyph glyph-name="Iacute" unicode="&#xcd;" horiz-adv-x="561" 
d="M526 1507h-135l166 209h205zM315 0h-225l250 1413h225z" />
    <glyph glyph-name="Icircumflex" unicode="&#xce;" horiz-adv-x="561" 
d="M406 1507h-154l170 209h168l98 -209h-156l-43 121zM340 1413h225l-250 -1413h-225z" />
    <glyph glyph-name="Idieresis" unicode="&#xcf;" horiz-adv-x="561" 
d="M344 1718q43 0 68.5 -25.5t25.5 -66.5q0 -51 -39 -88t-86 -37q-44 0 -70 26t-26 66q0 52 39.5 88.5t87.5 36.5zM662 1718q43 0 68.5 -25.5t25.5 -66.5q0 -51 -39 -88t-86 -37q-44 0 -70 26t-26 66q0 52 39.5 88.5t87.5 36.5zM315 0h-225l250 1413h225z" />
    <glyph glyph-name="Eth" unicode="&#xd0;" horiz-adv-x="1472" 
d="M924 1407q108 -10 198.5 -52t160.5 -114.5t109.5 -184t39.5 -251.5q0 -115 -28.5 -223.5t-89 -207t-146.5 -175.5t-208.5 -128t-267.5 -65q-74 -6 -182 -6h-420l109 618h-174l22 136h176l117 659h401q113 0 183 -6zM694 186q101 14 184 54t140.5 98.5t96.5 133.5t57 157
t18 172q0 195 -88.5 301.5t-233.5 124.5q-60 8 -149 8h-184l-84 -481h237l-22 -136h-240l-78 -438h193q106 0 153 6z" />
    <glyph glyph-name="Ntilde" unicode="&#xd1;" horiz-adv-x="1503" 
d="M850 1579q-33 0 -41 -47h-109q18 97 54.5 137.5t99.5 40.5q53 0 133 -31q63 -24 88 -24q17 0 27 10.5t16 36.5h107q-18 -97 -54.5 -137.5t-99.5 -40.5q-53 0 -133 30q-62 25 -88 25zM1507 1413l-250 -1413h-321l-418 1169l-203 -1169h-225l250 1413h317l420 -1180
l207 1180h223z" />
    <glyph glyph-name="Ograve" unicode="&#xd2;" horiz-adv-x="1560" 
d="M903 1507l-164 209h205l94 -209h-135zM926 1442q142 0 256.5 -48t188 -132t112.5 -194.5t39 -238.5q0 -136 -32 -261.5t-98.5 -234.5t-160 -189.5t-225 -126.5t-285.5 -46q-142 0 -256.5 48t-188 132t-112.5 194.5t-39 238.5q0 136 32 262t98.5 234.5t160 189t225 126.5
t285.5 46zM752 143q105 0 193.5 41.5t149 110.5t103.5 158.5t62.5 184.5t19.5 189q0 201 -102.5 322t-282.5 121q-105 0 -193.5 -41.5t-149 -110.5t-103.5 -158.5t-62.5 -184.5t-19.5 -189q0 -200 102 -321.5t283 -121.5z" />
    <glyph glyph-name="Oacute" unicode="&#xd3;" horiz-adv-x="1560" 
d="M1014 1507h-135l165 209h205zM926 1442q142 0 256.5 -48t188 -132t112.5 -194.5t39 -238.5q0 -136 -32 -261.5t-98.5 -234.5t-160 -189.5t-225 -126.5t-285.5 -46q-142 0 -256.5 48t-188 132t-112.5 194.5t-39 238.5q0 136 32 262t98.5 234.5t160 189t225 126.5t285.5 46
zM752 143q105 0 193.5 41.5t149 110.5t103.5 158.5t62.5 184.5t19.5 189q0 201 -102.5 322t-282.5 121q-105 0 -193.5 -41.5t-149 -110.5t-103.5 -158.5t-62.5 -184.5t-19.5 -189q0 -200 102 -321.5t283 -121.5z" />
    <glyph glyph-name="Ocircumflex" unicode="&#xd4;" horiz-adv-x="1560" 
d="M895 1507h-154l170 209h168l99 -209h-156l-43 121zM926 1442q142 0 256.5 -48t188 -132t112.5 -194.5t39 -238.5q0 -136 -32 -261.5t-98.5 -234.5t-160 -189.5t-225 -126.5t-285.5 -46q-142 0 -256.5 48t-188 132t-112.5 194.5t-39 238.5q0 136 32 262t98.5 234.5
t160 189t225 126.5t285.5 46zM752 143q105 0 193.5 41.5t149 110.5t103.5 158.5t62.5 184.5t19.5 189q0 201 -102.5 322t-282.5 121q-105 0 -193.5 -41.5t-149 -110.5t-103.5 -158.5t-62.5 -184.5t-19.5 -189q0 -200 102 -321.5t283 -121.5z" />
    <glyph glyph-name="Otilde" unicode="&#xd5;" horiz-adv-x="1560" 
d="M864 1579q-33 0 -41 -47h-108q18 98 54 138t99 40q53 0 133 -31q63 -24 89 -24q17 0 27 10.5t16 36.5h106q-18 -97 -54.5 -137.5t-99.5 -40.5q-53 0 -133 30q-63 25 -88 25zM926 1442q142 0 256.5 -48t188 -132t112.5 -194.5t39 -238.5q0 -136 -32 -261.5t-98.5 -234.5
t-160 -189.5t-225 -126.5t-285.5 -46q-142 0 -256.5 48t-188 132t-112.5 194.5t-39 238.5q0 136 32 262t98.5 234.5t160 189t225 126.5t285.5 46zM752 143q105 0 193.5 41.5t149 110.5t103.5 158.5t62.5 184.5t19.5 189q0 201 -102.5 322t-282.5 121q-105 0 -193.5 -41.5
t-149 -110.5t-103.5 -158.5t-62.5 -184.5t-19.5 -189q0 -200 102 -321.5t283 -121.5z" />
    <glyph glyph-name="Odieresis" unicode="&#xd6;" horiz-adv-x="1560" 
d="M801 1501q-44 0 -70 26t-26 66q0 52 39 88.5t87 36.5q43 0 69 -25.5t26 -66.5q0 -51 -39 -88t-86 -37zM1118 1501q-44 0 -70 26t-26 66q0 52 39.5 88.5t87.5 36.5q43 0 68.5 -25.5t25.5 -66.5q0 -51 -39 -88t-86 -37zM926 1442q142 0 256.5 -48t188 -132t112.5 -194.5
t39 -238.5q0 -136 -32 -261.5t-98.5 -234.5t-160 -189.5t-225 -126.5t-285.5 -46q-142 0 -256.5 48t-188 132t-112.5 194.5t-39 238.5q0 136 32 262t98.5 234.5t160 189t225 126.5t285.5 46zM752 143q105 0 193.5 41.5t149 110.5t103.5 158.5t62.5 184.5t19.5 189
q0 201 -102.5 322t-282.5 121q-105 0 -193.5 -41.5t-149 -110.5t-103.5 -158.5t-62.5 -184.5t-19.5 -189q0 -200 102 -321.5t283 -121.5z" />
    <glyph glyph-name="multiply" unicode="&#xd7;" 
d="M711 643l229 -278l-119 -99l-227 277l-336 -285l-96 117l336 284l-228 277l117 100l227 -276l336 284l97 -116z" />
    <glyph glyph-name="Oslash" unicode="&#xd8;" horiz-adv-x="1560" 
d="M1620 1305l-170 -144q80 -145 80 -332q0 -136 -32 -261.5t-98.5 -234.5t-160.5 -189.5t-225.5 -126.5t-286.5 -46q-291 0 -453 189l-176 -150l-82 99l187 157q-72 144 -72 318q0 137 32 262.5t98.5 234t160.5 189t225.5 126.5t286.5 46q281 0 442 -176l162 137zM373 586
q0 -84 18 -158l815 692q-105 150 -303 150q-106 0 -195 -41.5t-149.5 -110.5t-103.5 -158.5t-62.5 -184t-19.5 -189.5zM1288 827q0 98 -24 174l-820 -696q105 -162 314 -162q88 0 165 29t134 80t101.5 117.5t72.5 143.5t42.5 156.5t14.5 157.5z" />
    <glyph glyph-name="Ugrave" unicode="&#xd9;" horiz-adv-x="1417" 
d="M987 1507h-135l-164 209h205zM1444 1413l-152 -856q-15 -85 -30 -149q-106 -437 -617 -437q-238 0 -359.5 105t-121.5 295q0 76 22 202l148 840h225l-151 -860q-19 -111 -19 -164q0 -116 72.5 -181t208.5 -65q152 0 241.5 67t130.5 218q16 64 25 115l152 870h225z" />
    <glyph glyph-name="Uacute" unicode="&#xda;" horiz-adv-x="1417" 
d="M963 1507h-136l166 209h205zM1444 1413l-152 -856q-15 -85 -30 -149q-106 -437 -617 -437q-238 0 -359.5 105t-121.5 295q0 76 22 202l148 840h225l-151 -860q-19 -111 -19 -164q0 -116 72.5 -181t208.5 -65q152 0 241.5 67t130.5 218q16 64 25 115l152 870h225z" />
    <glyph glyph-name="Ucircumflex" unicode="&#xdb;" horiz-adv-x="1417" 
d="M842 1507h-154l170 209h168l98 -209h-155l-43 121zM1444 1413l-152 -856q-15 -85 -30 -149q-106 -437 -617 -437q-238 0 -359.5 105t-121.5 295q0 76 22 202l148 840h225l-151 -860q-19 -111 -19 -164q0 -116 72.5 -181t208.5 -65q152 0 241.5 67t130.5 218q16 64 25 115
l152 870h225z" />
    <glyph glyph-name="Udieresis" unicode="&#xdc;" horiz-adv-x="1417" 
d="M780 1718q43 0 68.5 -25.5t25.5 -66.5q0 -51 -38.5 -88t-85.5 -37q-44 0 -70.5 26t-26.5 66q0 52 39.5 88.5t87.5 36.5zM1098 1718q43 0 68.5 -25.5t25.5 -66.5q0 -51 -39 -88t-86 -37q-44 0 -70 26t-26 66q0 52 39.5 88.5t87.5 36.5zM1444 1413l-152 -856
q-15 -85 -30 -149q-106 -437 -617 -437q-238 0 -359.5 105t-121.5 295q0 76 22 202l148 840h225l-151 -860q-19 -111 -19 -164q0 -116 72.5 -181t208.5 -65q152 0 241.5 67t130.5 218q16 64 25 115l152 870h225z" />
    <glyph glyph-name="Yacute" unicode="&#xdd;" horiz-adv-x="1243" 
d="M881 1507h-136l166 209h205zM764 545l-94 -545h-226l99 551l-348 862h239l254 -663l473 663h256z" />
    <glyph glyph-name="Thorn" unicode="&#xde;" horiz-adv-x="1267" 
d="M975 1225q136 -18 217.5 -98.5t81.5 -215.5q0 -45 -8 -86q-31 -174 -149 -278t-283 -125q-70 -8 -197 -8h-248l-74 -414h-225l250 1413h225l-33 -180h250q127 0 193 -8zM1028 823q4 36 4 49q0 142 -149 170q-52 9 -142 9h-241l-80 -455h242q94 0 143 8q187 33 223 219z
" />
    <glyph glyph-name="germandbls" unicode="&#xdf;" horiz-adv-x="1232" 
d="M801 1544q203 0 311.5 -89.5t108.5 -233.5q0 -134 -93 -252q-99 -48 -136.5 -89t-37.5 -94q0 -42 18.5 -78t65.5 -85q129 -129 129 -283q0 -69 -28.5 -130.5t-83.5 -110.5t-143 -78t-199 -29q-122 0 -217 22l30 174q97 -26 187 -26q110 0 161.5 53t51.5 127q0 97 -88 190
q-68 75 -94.5 125.5t-26.5 124.5q0 162 213 271q49 73 49 157q0 75 -51.5 118.5t-153.5 43.5q-77 0 -135.5 -30t-96.5 -87.5t-61 -124t-39 -155.5l-170 -975h-225l170 958q18 108 43.5 190.5t70.5 160t106.5 127t153.5 79t210 29.5z" />
    <glyph glyph-name="agrave" unicode="&#xe0;" horiz-adv-x="1079" 
d="M618 1182l-167 233h204l99 -233h-136zM643 1116q188 0 278.5 -74t90.5 -202q0 -54 -21 -183l-67 -381q-22 -126 -29 -276h-221l6 156l-74 -101q-96 -84 -282 -84q-126 0 -212.5 73.5t-86.5 211.5q0 145 96 242t262 136t385 23l4 25q14 92 14 131q0 63 -37 101t-118 38
q-116 0 -178 -52t-86 -157h-226q35 176 170 274.5t332 98.5zM723 408l18 102q-132 15 -238.5 -4t-172.5 -76.5t-66 -146.5q0 -71 45.5 -109.5t122.5 -38.5q94 0 181.5 77.5t109.5 195.5z" />
    <glyph glyph-name="aacute" unicode="&#xe1;" horiz-adv-x="1079" 
d="M725 1182h-135l182 233h205zM643 1116q188 0 278.5 -74t90.5 -202q0 -54 -21 -183l-67 -381q-22 -126 -29 -276h-221l6 156l-74 -101q-96 -84 -282 -84q-126 0 -212.5 73.5t-86.5 211.5q0 145 96 242t262 136t385 23l4 25q14 92 14 131q0 63 -37 101t-118 38
q-116 0 -178 -52t-86 -157h-226q35 176 170 274.5t332 98.5zM723 408l18 102q-132 15 -238.5 -4t-172.5 -76.5t-66 -146.5q0 -71 45.5 -109.5t122.5 -38.5q94 0 181.5 77.5t109.5 195.5z" />
    <glyph glyph-name="acircumflex" unicode="&#xe2;" horiz-adv-x="1079" 
d="M604 1182h-149l178 233h166l92 -233h-152l-43 133zM643 1116q188 0 278.5 -74t90.5 -202q0 -54 -21 -183l-67 -381q-22 -126 -29 -276h-221l6 156l-74 -101q-96 -84 -282 -84q-126 0 -212.5 73.5t-86.5 211.5q0 145 96 242t262 136t385 23l4 25q14 92 14 131
q0 63 -37 101t-118 38q-116 0 -178 -52t-86 -157h-226q35 176 170 274.5t332 98.5zM723 408l18 102q-132 15 -238.5 -4t-172.5 -76.5t-66 -146.5q0 -71 45.5 -109.5t122.5 -38.5q94 0 181.5 77.5t109.5 195.5z" />
    <glyph glyph-name="atilde" unicode="&#xe3;" horiz-adv-x="1079" 
d="M578 1262q-33 0 -41 -48h-109q18 98 54.5 138.5t99.5 40.5q53 0 133 -31q65 -25 88 -25q17 0 27 10.5t16 36.5h106q-18 -98 -54 -138t-99 -40q-51 0 -133 31q-62 25 -88 25zM643 1116q188 0 278.5 -74t90.5 -202q0 -54 -21 -183l-67 -381q-22 -126 -29 -276h-221l6 156
l-74 -101q-96 -84 -282 -84q-126 0 -212.5 73.5t-86.5 211.5q0 145 96 242t262 136t385 23l4 25q14 92 14 131q0 63 -37 101t-118 38q-116 0 -178 -52t-86 -157h-226q35 176 170 274.5t332 98.5zM723 408l18 102q-132 15 -238.5 -4t-172.5 -76.5t-66 -146.5
q0 -71 45.5 -109.5t122.5 -38.5q94 0 181.5 77.5t109.5 195.5z" />
    <glyph glyph-name="adieresis" unicode="&#xe4;" horiz-adv-x="1079" 
d="M506 1188q-42 0 -68 25t-26 65q0 52 39.5 88.5t87.5 36.5q42 0 68 -25t26 -65q0 -52 -39.5 -88.5t-87.5 -36.5zM834 1188q-43 0 -69 25t-26 65q0 52 39.5 88.5t87.5 36.5q41 0 68 -25t27 -65q0 -52 -39.5 -88.5t-87.5 -36.5zM643 1116q188 0 278.5 -74t90.5 -202
q0 -54 -21 -183l-67 -381q-22 -126 -29 -276h-221l6 156l-74 -101q-96 -84 -282 -84q-126 0 -212.5 73.5t-86.5 211.5q0 145 96 242t262 136t385 23l4 25q14 92 14 131q0 63 -37 101t-118 38q-116 0 -178 -52t-86 -157h-226q35 176 170 274.5t332 98.5zM723 408l18 102
q-132 15 -238.5 -4t-172.5 -76.5t-66 -146.5q0 -71 45.5 -109.5t122.5 -38.5q94 0 181.5 77.5t109.5 195.5z" />
    <glyph glyph-name="aring" unicode="&#xe5;" horiz-adv-x="1079" 
d="M666 1159q-79 0 -126.5 41.5t-47.5 110.5q0 92 68 153.5t169 61.5q78 0 125 -41.5t47 -110.5q0 -92 -67.5 -153.5t-167.5 -61.5zM713 1438q-44 0 -72.5 -34.5t-28.5 -84.5q0 -33 18.5 -52.5t49.5 -19.5q44 0 72 34.5t28 84.5q0 34 -18 53t-49 19zM643 1116
q188 0 278.5 -74t90.5 -202q0 -54 -21 -183l-67 -381q-22 -126 -29 -276h-221l6 156l-74 -101q-96 -84 -282 -84q-126 0 -212.5 73.5t-86.5 211.5q0 145 96 242t262 136t385 23l4 25q14 92 14 131q0 63 -37 101t-118 38q-116 0 -178 -52t-86 -157h-226q35 176 170 274.5
t332 98.5zM723 408l18 102q-132 15 -238.5 -4t-172.5 -76.5t-66 -146.5q0 -71 45.5 -109.5t122.5 -38.5q94 0 181.5 77.5t109.5 195.5z" />
    <glyph glyph-name="ae" unicode="&#xe6;" horiz-adv-x="1851" 
d="M1776 481h-779q-4 -54 -4 -73q0 -140 61 -206.5t165 -66.5q100 0 179.5 58t114.5 159h228q-45 -125 -132.5 -212.5t-195 -128t-229.5 -40.5q-297 0 -377 236l-92 -123q-79 -62 -159.5 -87.5t-195.5 -25.5q-150 0 -243.5 75t-93.5 200q0 68 22.5 125.5t74 107.5t130 85
t196 55t265.5 20h80q18 100 18 135q0 176 -178 176q-101 0 -165 -53.5t-87 -155.5h-225q35 176 171 274.5t332 98.5q284 0 336 -184q169 184 418 184q194 0 295.5 -112.5t101.5 -301.5q0 -113 -32 -219zM1370 950q-118 0 -207.5 -79.5t-132.5 -231.5h549q22 311 -209 311z
M756 426l10 55q-37 2 -104 2q-197 0 -296.5 -49.5t-99.5 -161.5q0 -66 45 -101.5t127 -35.5q116 0 205.5 80t112.5 211z" />
    <glyph glyph-name="ccedilla" unicode="&#xe7;" horiz-adv-x="1126" 
d="M508 135q103 0 182 58t121 167h229q-76 -189 -204.5 -285.5t-321.5 -103.5l-41 -55q72 -12 110 -51.5t38 -97.5q0 -98 -80.5 -147.5t-206.5 -49.5q-77 0 -127 16l20 99q39 -15 107 -15q69 0 105 23.5t36 64.5q0 44 -48.5 65t-133.5 11l98 143q-158 24 -250 134.5
t-92 298.5q0 139 43.5 265.5t122.5 224.5t200.5 156t268.5 58q204 0 307 -108.5t105 -296.5h-228q-9 241 -215 241q-158 0 -260 -151t-102 -385q0 -139 60 -209t157 -70z" />
    <glyph glyph-name="egrave" unicode="&#xe8;" horiz-adv-x="1142" 
d="M649 1182l-168 233h205l98 -233h-135zM1067 481h-778q-2 -25 -2 -71q0 -139 61 -207t164 -68q100 0 180 58t113 159h229q-64 -187 -212.5 -284t-338.5 -97q-196 0 -315 112.5t-119 322.5q0 105 23.5 205.5t74 192t122 161t174.5 110.5t225 41q205 0 318.5 -114
t113.5 -302q0 -110 -33 -219zM641 952q-127 0 -208 -86.5t-118 -226.5h555q2 23 2 61q0 120 -61 186t-170 66z" />
    <glyph glyph-name="eacute" unicode="&#xe9;" horiz-adv-x="1142" 
d="M756 1182h-135l182 233h205zM1067 481h-778q-2 -25 -2 -71q0 -139 61 -207t164 -68q100 0 180 58t113 159h229q-64 -187 -212.5 -284t-338.5 -97q-196 0 -315 112.5t-119 322.5q0 105 23.5 205.5t74 192t122 161t174.5 110.5t225 41q205 0 318.5 -114t113.5 -302
q0 -110 -33 -219zM641 952q-127 0 -208 -86.5t-118 -226.5h555q2 23 2 61q0 120 -61 186t-170 66z" />
    <glyph glyph-name="ecircumflex" unicode="&#xea;" horiz-adv-x="1142" 
d="M635 1182h-150l179 233h165l93 -233h-152l-43 133zM1067 481h-778q-2 -25 -2 -71q0 -139 61 -207t164 -68q100 0 180 58t113 159h229q-64 -187 -212.5 -284t-338.5 -97q-196 0 -315 112.5t-119 322.5q0 105 23.5 205.5t74 192t122 161t174.5 110.5t225 41
q205 0 318.5 -114t113.5 -302q0 -110 -33 -219zM641 952q-127 0 -208 -86.5t-118 -226.5h555q2 23 2 61q0 120 -61 186t-170 66z" />
    <glyph glyph-name="edieresis" unicode="&#xeb;" horiz-adv-x="1142" 
d="M537 1188q-43 0 -69 25t-26 65q0 52 39.5 88.5t87.5 36.5q43 0 69 -25t26 -65q0 -52 -39.5 -88.5t-87.5 -36.5zM864 1188q-42 0 -68 25t-26 65q0 52 39.5 88.5t87.5 36.5q41 0 67.5 -25t26.5 -65q0 -52 -39.5 -88.5t-87.5 -36.5zM1067 481h-778q-2 -25 -2 -71
q0 -139 61 -207t164 -68q100 0 180 58t113 159h229q-64 -187 -212.5 -284t-338.5 -97q-196 0 -315 112.5t-119 322.5q0 105 23.5 205.5t74 192t122 161t174.5 110.5t225 41q205 0 318.5 -114t113.5 -302q0 -110 -33 -219zM641 952q-127 0 -208 -86.5t-118 -226.5h555
q2 23 2 61q0 120 -61 186t-170 66z" />
    <glyph glyph-name="igrave" unicode="&#xec;" horiz-adv-x="507" 
d="M455 1182h-136l-167 233h204zM272 0h-225l193 1087h225z" />
    <glyph glyph-name="iacute" unicode="&#xed;" horiz-adv-x="507" 
d="M426 1182h-135l182 233h205zM272 0h-225l193 1087h225z" />
    <glyph glyph-name="icircumflex" unicode="&#xee;" horiz-adv-x="507" 
d="M305 1182h-149l178 233h166l92 -233h-152l-43 133zM240 1087h225l-193 -1087h-225z" />
    <glyph glyph-name="idieresis" unicode="&#xef;" horiz-adv-x="507" 
d="M240 1403q42 0 68 -25t26 -65q0 -52 -39.5 -88.5t-87.5 -36.5q-42 0 -68 25t-26 65q0 52 39.5 88.5t87.5 36.5zM567 1403q41 0 68 -25t27 -65q0 -52 -39.5 -88.5t-87.5 -36.5q-43 0 -69 25t-26 65q0 52 39.5 88.5t87.5 36.5zM272 0h-225l193 1087h225z" />
    <glyph glyph-name="eth" unicode="&#xf0;" horiz-adv-x="1257" 
d="M1190 1341l-133 -43q94 -181 94 -534q0 -118 -21 -228.5t-70 -214t-121.5 -180.5t-183.5 -123.5t-247 -46.5q-112 0 -200.5 35t-144.5 97t-85 143.5t-29 177.5q0 93 22.5 188.5t71.5 186t118 161t169.5 113.5t218.5 43q72 0 121.5 -13t99.5 -46l64 -111q-7 185 -70 291
l-274 -88l-35 111l227 73q-53 47 -139 88l172 105q107 -50 172 -127l170 55zM524 141q83 0 150 33t110.5 87t72.5 125.5t41.5 144t12.5 147.5q0 131 -72.5 200.5t-176.5 69.5q-78 0 -142.5 -34t-106 -87.5t-70.5 -122.5t-41.5 -137t-12.5 -133q0 -150 61.5 -221.5
t173.5 -71.5z" />
    <glyph glyph-name="ntilde" unicode="&#xf1;" horiz-adv-x="1243" 
d="M653 1262q-33 0 -41 -48h-108q18 98 54 138.5t99 40.5q54 0 134 -31q65 -25 88 -25q17 0 27 10.5t16 36.5h106q-18 -97 -54.5 -137.5t-99.5 -40.5q-51 0 -133 31q-62 25 -88 25zM817 1116q163 0 247.5 -74t84.5 -204q0 -80 -27 -222l-110 -616h-224l105 586
q22 121 22 184q0 183 -194 180q-129 -3 -225.5 -114t-139.5 -351l-84 -485h-225l191 1087h225l-31 -176l96 121q70 47 137.5 65.5t151.5 18.5z" />
    <glyph glyph-name="ograve" unicode="&#xf2;" 
d="M678 1182l-168 233h205l98 -233h-135zM694 1116q123 0 218 -38.5t151.5 -106t84.5 -152t28 -184.5q0 -95 -23.5 -187.5t-74 -179t-123.5 -152.5t-180.5 -105.5t-235.5 -39.5q-124 0 -219 38.5t-152 106t-85 152.5t-28 185q0 95 23.5 187t74.5 178.5t124 152.5
t180.5 105.5t236.5 39.5zM561 135q89 0 162 43.5t118 115.5t69 159t24 178q0 142 -66.5 231.5t-197.5 89.5q-89 0 -161.5 -43t-117.5 -114.5t-69.5 -158t-24.5 -177.5q0 -143 67 -233.5t197 -90.5z" />
    <glyph glyph-name="oacute" unicode="&#xf3;" 
d="M784 1182h-135l182 233h205zM694 1116q123 0 218 -38.5t151.5 -106t84.5 -152t28 -184.5q0 -95 -23.5 -187.5t-74 -179t-123.5 -152.5t-180.5 -105.5t-235.5 -39.5q-124 0 -219 38.5t-152 106t-85 152.5t-28 185q0 95 23.5 187t74.5 178.5t124 152.5t180.5 105.5
t236.5 39.5zM561 135q89 0 162 43.5t118 115.5t69 159t24 178q0 142 -66.5 231.5t-197.5 89.5q-89 0 -161.5 -43t-117.5 -114.5t-69.5 -158t-24.5 -177.5q0 -143 67 -233.5t197 -90.5z" />
    <glyph glyph-name="ocircumflex" unicode="&#xf4;" 
d="M664 1182h-150l178 233h166l92 -233h-151l-43 133zM694 1116q123 0 218 -38.5t151.5 -106t84.5 -152t28 -184.5q0 -95 -23.5 -187.5t-74 -179t-123.5 -152.5t-180.5 -105.5t-235.5 -39.5q-124 0 -219 38.5t-152 106t-85 152.5t-28 185q0 95 23.5 187t74.5 178.5
t124 152.5t180.5 105.5t236.5 39.5zM561 135q89 0 162 43.5t118 115.5t69 159t24 178q0 142 -66.5 231.5t-197.5 89.5q-89 0 -161.5 -43t-117.5 -114.5t-69.5 -158t-24.5 -177.5q0 -143 67 -233.5t197 -90.5z" />
    <glyph glyph-name="otilde" unicode="&#xf5;" 
d="M637 1262q-33 0 -41 -48h-109q18 98 54.5 138.5t99.5 40.5q53 0 133 -31q65 -25 88 -25q17 0 27 10.5t16 36.5h107q-18 -97 -54.5 -137.5t-99.5 -40.5q-51 0 -133 31q-63 25 -88 25zM694 1116q123 0 218 -38.5t151.5 -106t84.5 -152t28 -184.5q0 -95 -23.5 -187.5
t-74 -179t-123.5 -152.5t-180.5 -105.5t-235.5 -39.5q-124 0 -219 38.5t-152 106t-85 152.5t-28 185q0 95 23.5 187t74.5 178.5t124 152.5t180.5 105.5t236.5 39.5zM561 135q89 0 162 43.5t118 115.5t69 159t24 178q0 142 -66.5 231.5t-197.5 89.5q-89 0 -161.5 -43
t-117.5 -114.5t-69.5 -158t-24.5 -177.5q0 -143 67 -233.5t197 -90.5z" />
    <glyph glyph-name="odieresis" unicode="&#xf6;" 
d="M565 1188q-42 0 -68 25t-26 65q0 52 39.5 88.5t87.5 36.5q42 0 68 -25t26 -65q0 -52 -39.5 -88.5t-87.5 -36.5zM893 1188q-42 0 -68 25t-26 65q0 52 39.5 88.5t87.5 36.5q41 0 67.5 -25t26.5 -65q0 -52 -39.5 -88.5t-87.5 -36.5zM694 1116q123 0 218 -38.5t151.5 -106
t84.5 -152t28 -184.5q0 -95 -23.5 -187.5t-74 -179t-123.5 -152.5t-180.5 -105.5t-235.5 -39.5q-124 0 -219 38.5t-152 106t-85 152.5t-28 185q0 95 23.5 187t74.5 178.5t124 152.5t180.5 105.5t236.5 39.5zM561 135q89 0 162 43.5t118 115.5t69 159t24 178
q0 142 -66.5 231.5t-197.5 89.5q-89 0 -161.5 -43t-117.5 -114.5t-69.5 -158t-24.5 -177.5q0 -143 67 -233.5t197 -90.5z" />
    <glyph glyph-name="divide" unicode="&#xf7;" 
d="M690 1118q47 0 77 -29t30 -73q0 -63 -45 -107.5t-107 -44.5q-47 0 -76.5 29.5t-29.5 75.5q0 62 45.5 105.5t105.5 43.5zM1042 586h-897l25 135h895zM571 434q49 0 78 -29t29 -75q0 -61 -45.5 -105.5t-106.5 -44.5q-47 0 -76.5 29t-29.5 74q0 63 44.5 107t106.5 44z" />
    <glyph glyph-name="oslash" unicode="&#xf8;" horiz-adv-x="1296" 
d="M1317 1032l-176 -149q53 -106 53 -248q0 -95 -23.5 -187.5t-74.5 -179t-124 -152.5t-180.5 -105.5t-236.5 -39.5q-221 0 -346 119l-162 -137l-82 100l166 142q-59 109 -59 258q0 95 23.5 187t74.5 178.5t124 152.5t180.5 105.5t236.5 39.5q228 0 354 -129l170 146z
M313 459q0 -44 11 -101l573 488q-69 106 -209 106q-72 0 -134 -28.5t-105.5 -76.5t-74.5 -111.5t-46 -134t-15 -142.5zM952 631q0 50 -8 86l-569 -486q70 -96 205 -96q71 0 132.5 28.5t105 77.5t74 112.5t45.5 134.5t15 143z" />
    <glyph glyph-name="ugrave" unicode="&#xf9;" horiz-adv-x="1232" 
d="M686 1182l-168 233h205l98 -233h-135zM1188 1087l-191 -1087h-225l31 176l-96 -121q-71 -48 -137 -66t-152 -18q-162 0 -247 75t-85 204q0 79 27 223l110 614h226l-107 -585q-23 -124 -23 -185q0 -84 47.5 -132.5t147.5 -45.5q129 2 225 110.5t138 346.5l2 6l86 485h223z
" />
    <glyph glyph-name="uacute" unicode="&#xfa;" horiz-adv-x="1232" 
d="M793 1182h-136l183 233h204zM1188 1087l-191 -1087h-225l31 176l-96 -121q-71 -48 -137 -66t-152 -18q-162 0 -247 75t-85 204q0 79 27 223l110 614h226l-107 -585q-23 -124 -23 -185q0 -84 47.5 -132.5t147.5 -45.5q129 2 225 110.5t138 346.5l2 6l86 485h223z" />
    <glyph glyph-name="ucircumflex" unicode="&#xfb;" horiz-adv-x="1232" 
d="M672 1182h-150l178 233h166l92 -233h-151l-43 133zM1188 1087l-191 -1087h-225l31 176l-96 -121q-71 -48 -137 -66t-152 -18q-162 0 -247 75t-85 204q0 79 27 223l110 614h226l-107 -585q-23 -124 -23 -185q0 -84 47.5 -132.5t147.5 -45.5q129 2 225 110.5t138 346.5l2 6
l86 485h223z" />
    <glyph glyph-name="udieresis" unicode="&#xfc;" horiz-adv-x="1232" 
d="M573 1188q-42 0 -68 25t-26 65q0 52 39.5 88.5t87.5 36.5q42 0 68 -25t26 -65q0 -52 -39.5 -88.5t-87.5 -36.5zM901 1188q-42 0 -68 25t-26 65q0 52 39.5 88.5t87.5 36.5q41 0 67.5 -25t26.5 -65q0 -52 -39.5 -88.5t-87.5 -36.5zM1188 1087l-191 -1087h-225l31 176
l-96 -121q-71 -48 -137 -66t-152 -18q-162 0 -247 75t-85 204q0 79 27 223l110 614h226l-107 -585q-23 -124 -23 -185q0 -84 47.5 -132.5t147.5 -45.5q129 2 225 110.5t138 346.5l2 6l86 485h223z" />
    <glyph glyph-name="yacute" unicode="&#xfd;" horiz-adv-x="1058" 
d="M688 1182h-135l182 233h205zM1171 1087l-608 -1087q-139 -249 -246.5 -339.5t-267.5 -90.5q-61 0 -102 8l26 166q41 -6 74 -6q79 0 135 39t107 135l16 31l-235 1144h254l137 -913l459 913h251z" />
    <glyph glyph-name="thorn" unicode="&#xfe;" horiz-adv-x="1290" 
d="M829 1116q198 0 305 -122t107 -322q0 -133 -40 -256t-117 -223.5t-203 -161t-283 -60.5q-69 0 -140.5 23t-105.5 59l-51 111l-100 -565h-226l340 1906h226l-105 -585l101 114q52 38 130.5 60t161.5 22zM606 135q73 0 137 28.5t110.5 78t80 115.5t50.5 142t17 156
q0 139 -62.5 218t-182.5 79q-66 0 -124.5 -21.5t-111 -66t-91.5 -122.5t-58 -183v-4l-11 -55q-15 -70 -5 -136t36.5 -117t82.5 -81.5t132 -30.5z" />
    <glyph glyph-name="ydieresis" unicode="&#xff;" horiz-adv-x="1058" 
d="M469 1188q-42 0 -68 25t-26 65q0 52 39.5 88.5t87.5 36.5q42 0 68 -25t26 -65q0 -52 -39.5 -88.5t-87.5 -36.5zM797 1188q-43 0 -69 25t-26 65q0 52 39.5 88.5t87.5 36.5q41 0 68 -25t27 -65q0 -52 -39.5 -88.5t-87.5 -36.5zM1171 1087l-608 -1087
q-139 -249 -246.5 -339.5t-267.5 -90.5q-61 0 -102 8l26 166q41 -6 74 -6q79 0 135 39t107 135l16 31l-235 1144h254l137 -913l459 913h251z" />
    <glyph glyph-name="Amacron" unicode="&#x100;" horiz-adv-x="1353" 
d="M1153 1552h-522l22 129h523zM940 467h-502l-237 -467h-250l756 1413h307l239 -1413h-243zM913 645l-88 578l-295 -578h383z" />
    <glyph glyph-name="amacron" unicode="&#x101;" horiz-adv-x="1079" 
d="M938 1227h-522l22 129h523zM643 1116q188 0 278.5 -74t90.5 -202q0 -54 -21 -183l-67 -381q-22 -126 -29 -276h-221l6 156l-74 -101q-96 -84 -282 -84q-126 0 -212.5 73.5t-86.5 211.5q0 145 96 242t262 136t385 23l4 25q14 92 14 131q0 63 -37 101t-118 38
q-116 0 -178 -52t-86 -157h-226q35 176 170 274.5t332 98.5zM723 408l18 102q-132 15 -238.5 -4t-172.5 -76.5t-66 -146.5q0 -71 45.5 -109.5t122.5 -38.5q94 0 181.5 77.5t109.5 195.5z" />
    <glyph glyph-name="Abreve" unicode="&#x102;" horiz-adv-x="1353" 
d="M881 1483q-115 0 -157.5 67t-27.5 166h129q-16 -106 78 -106q95 0 119 106h127q-44 -233 -268 -233zM940 467h-502l-237 -467h-250l756 1413h307l239 -1413h-243zM913 645l-88 578l-295 -578h383z" />
    <glyph glyph-name="abreve" unicode="&#x103;" horiz-adv-x="1079" 
d="M666 1159q-53 0 -91.5 15t-59 39.5t-29.5 59t-8.5 69.5t7.5 75h127q-7 -62 7 -95.5t69 -33.5q96 0 121 129h129q-49 -258 -272 -258zM643 1116q188 0 278.5 -74t90.5 -202q0 -54 -21 -183l-67 -381q-22 -126 -29 -276h-221l6 156l-74 -101q-96 -84 -282 -84
q-126 0 -212.5 73.5t-86.5 211.5q0 145 96 242t262 136t385 23l4 25q14 92 14 131q0 63 -37 101t-118 38q-116 0 -178 -52t-86 -157h-226q35 176 170 274.5t332 98.5zM723 408l18 102q-132 15 -238.5 -4t-172.5 -76.5t-66 -146.5q0 -71 45.5 -109.5t122.5 -38.5
q94 0 181.5 77.5t109.5 195.5z" />
    <glyph glyph-name="Aogonek" unicode="&#x104;" horiz-adv-x="1353" 
d="M1253 0h-84q-58 -8 -107.5 -49t-75 -92.5t-25.5 -96.5q0 -84 73 -84q63 0 115 39l-21 -106q-88 -68 -217 -68q-77 0 -125.5 37t-48.5 115q0 98 70.5 184t200.5 139l-68 449h-502l-237 -467h-250l756 1413h307zM913 645l-88 578l-295 -578h383z" />
    <glyph glyph-name="aogonek" unicode="&#x105;" horiz-adv-x="1079" 
d="M643 1116q188 0 278.5 -74t90.5 -202q0 -54 -21 -183l-67 -381q-22 -126 -29 -276h-61q-58 -8 -107.5 -49t-75.5 -92.5t-26 -96.5q0 -84 73 -84q63 0 115 39l-20 -106q-88 -68 -218 -68q-77 0 -125.5 37t-48.5 115q0 100 71 185.5t202 137.5l6 138l-74 -101
q-96 -84 -282 -84q-126 0 -212.5 73.5t-86.5 211.5q0 145 96 242t262 136t385 23l4 25q14 92 14 131q0 63 -37 101t-118 38q-116 0 -178 -52t-86 -157h-226q35 176 170 274.5t332 98.5zM432 135q94 0 181.5 77.5t109.5 195.5l18 102q-132 15 -238.5 -4t-172.5 -76.5
t-66 -146.5q0 -71 45.5 -109.5t122.5 -38.5z" />
    <glyph glyph-name="Cacute" unicode="&#x106;" horiz-adv-x="1492" 
d="M922 1442q180 0 303.5 -63.5t178 -171.5t44.5 -249l-2 -20h-225v20q0 162 -82.5 237t-247.5 75h-8l-131 -117h-136l43 53q-136 -80 -214 -247t-78 -381q0 -217 91 -326t251 -109q293 0 413 316l8 20h226l-6 -20q-64 -227 -236 -357.5t-440 -130.5q-262 0 -408.5 156
t-144.5 428q-1 189 60.5 354t167.5 282t255 184t318 67z" />
    <glyph glyph-name="cacute" unicode="&#x107;" horiz-adv-x="1126" 
d="M743 1182h-135l183 233h204zM684 1114q204 0 307 -108.5t105 -296.5h-228q-9 241 -215 241q-158 0 -260 -151t-102 -385q0 -139 60 -209t157 -70q103 0 182 58t121 167h229q-79 -197 -215.5 -293t-343.5 -96q-195 0 -313.5 112.5t-118.5 326.5q0 139 43.5 265.5
t122.5 224.5t200.5 156t268.5 58z" />
    <glyph glyph-name="Cdotaccent" unicode="&#x10a;" horiz-adv-x="1492" 
d="M922 1442q180 0 303.5 -63.5t178 -171.5t44.5 -249l-2 -20h-225v20q0 162 -82.5 237t-247.5 75q-19 0 -55 -4q-6 -47 -46.5 -83t-93.5 -36q-48 0 -78 33q-118 -88 -184.5 -246t-66.5 -356q0 -217 91 -326t251 -109q293 0 413 316l8 20h226l-6 -20q-64 -227 -236 -357.5
t-440 -130.5q-262 0 -408.5 156t-144.5 428q-1 189 60.5 354t167.5 282t255 184t318 67z" />
    <glyph glyph-name="cdotaccent" unicode="&#x10b;" horiz-adv-x="1126" 
d="M737 1466q52 0 83.5 -30t31.5 -78q0 -62 -43.5 -107t-110.5 -45q-52 0 -83 30.5t-31 80.5q0 61 43.5 105t109.5 44zM684 1114q204 0 307 -108.5t105 -296.5h-228q-9 241 -215 241q-158 0 -260 -151t-102 -385q0 -139 60 -209t157 -70q103 0 182 58t121 167h229
q-79 -197 -215.5 -293t-343.5 -96q-195 0 -313.5 112.5t-118.5 326.5q0 139 43.5 265.5t122.5 224.5t200.5 156t268.5 58z" />
    <glyph glyph-name="Ccaron" unicode="&#x10c;" horiz-adv-x="1492" 
d="M922 1442q180 0 303.5 -63.5t178 -171.5t44.5 -249l-2 -20h-225v20q0 162 -82.5 237t-247.5 75h-12l-95 -117h-170l-8 16q-113 -90 -176 -244.5t-63 -346.5q0 -217 91 -326t251 -109q293 0 413 316l8 20h226l-6 -20q-64 -227 -236 -357.5t-440 -130.5q-262 0 -408.5 156
t-144.5 428q-1 258 108.5 464t298.5 318l-12 25h59q163 80 347 80z" />
    <glyph glyph-name="ccaron" unicode="&#x10d;" horiz-adv-x="1126" 
d="M606 1182l-94 233h152l45 -133l90 133h149l-176 -233h-166zM508 135q103 0 182 58t121 167h229q-79 -197 -215.5 -293t-343.5 -96q-195 0 -313.5 112.5t-118.5 326.5q0 139 43.5 265.5t122.5 224.5t200.5 156t268.5 58q204 0 307 -108.5t105 -296.5h-228q-9 241 -215 241
q-158 0 -260 -151t-102 -385q0 -139 60 -209t157 -70z" />
    <glyph glyph-name="Dcaron" unicode="&#x10e;" horiz-adv-x="1472" 
d="M748 1507l-99 209h156l41 -123l84 123h157l-169 -209h-170zM924 1407q108 -10 198.5 -52t160.5 -114.5t109.5 -184t39.5 -251.5q0 -115 -28.5 -223.5t-89 -207t-146.5 -175.5t-208.5 -128t-267.5 -65q-74 -6 -182 -6h-420l250 1413h401q113 0 183 -6zM694 186
q101 14 184 54t140.5 98.5t96.5 133.5t57 157t18 172q0 195 -88.5 301.5t-233.5 124.5q-60 8 -149 8h-184l-187 -1055h193q106 0 153 6z" />
    <glyph glyph-name="dcaron" unicode="&#x10f;" horiz-adv-x="1288" 
d="M1634 1507v-16l-186 -297h-123l141 313h168zM1094 1505h223l-266 -1505h-224l31 170l-104 -117q-51 -37 -130.5 -59.5t-162.5 -22.5q-197 0 -304.5 121t-107.5 320q0 105 24.5 205.5t77.5 191t127.5 159t181.5 108.5t234 40q69 0 140 -22.5t106 -57.5l51 -110zM922 532
l10 58q16 97 -2 176.5t-81 132.5t-165 53q-119 0 -210.5 -76t-137 -193t-45.5 -251q0 -138 63.5 -217.5t182.5 -79.5q65 0 124 22t111.5 67.5t92 124t57.5 183.5z" />
    <glyph glyph-name="Dcroat" unicode="&#x110;" horiz-adv-x="1472" 
d="M924 1407q108 -10 198.5 -52t160.5 -114.5t109.5 -184t39.5 -251.5q0 -115 -28.5 -223.5t-89 -207t-146.5 -175.5t-208.5 -128t-267.5 -65q-74 -6 -182 -6h-420l109 618h-174l22 136h176l117 659h401q113 0 183 -6zM694 186q101 14 184 54t140.5 98.5t96.5 133.5t57 157
t18 172q0 195 -88.5 301.5t-233.5 124.5q-60 8 -149 8h-184l-84 -481h237l-22 -136h-240l-78 -438h193q106 0 153 6z" />
    <glyph glyph-name="dcroat" unicode="&#x111;" horiz-adv-x="1290" 
d="M1350 1208h-86l-213 -1208h-224l31 170l-104 -117q-51 -37 -130.5 -59.5t-162.5 -22.5q-197 0 -304.5 121t-107.5 320q0 105 24.5 205.5t77.5 191t127.5 159t181.5 108.5t234 40q69 0 140 -22.5t106 -57.5l51 -110l49 282h-241l22 135h244l29 162h223l-29 -162h86z
M922 532l10 58q16 97 -2 176.5t-81 132.5t-165 53q-119 0 -210.5 -76t-137 -193t-45.5 -251q0 -138 63.5 -217.5t182.5 -79.5q65 0 124 22t111.5 67.5t92 124t57.5 183.5z" />
    <glyph glyph-name="Emacron" unicode="&#x112;" horiz-adv-x="1232" 
d="M1122 1552h-522l23 129h522zM535 1235l-78 -438h673l-30 -179h-676l-76 -438h752l-33 -180h-977l250 1413h956l-32 -178h-729z" />
    <glyph glyph-name="emacron" unicode="&#x113;" horiz-adv-x="1142" 
d="M971 1227h-522l22 129h522zM1067 481h-778q-2 -25 -2 -71q0 -139 61 -207t164 -68q100 0 180 58t113 159h229q-64 -187 -212.5 -284t-338.5 -97q-196 0 -315 112.5t-119 322.5q0 105 23.5 205.5t74 192t122 161t174.5 110.5t225 41q205 0 318.5 -114t113.5 -302
q0 -110 -33 -219zM641 952q-127 0 -208 -86.5t-118 -226.5h555q2 23 2 61q0 120 -61 186t-170 66z" />
    <glyph glyph-name="Edotaccent" unicode="&#x116;" horiz-adv-x="1232" 
d="M854 1501q-45 0 -72.5 27.5t-27.5 70.5q0 54 40 94t97 40q46 0 74 -27.5t28 -71.5q0 -52 -41 -92.5t-98 -40.5zM535 1235l-78 -438h673l-30 -179h-676l-76 -438h752l-33 -180h-977l250 1413h956l-32 -178h-729z" />
    <glyph glyph-name="edotaccent" unicode="&#x117;" horiz-adv-x="1142" 
d="M711 1206q-52 0 -83.5 30.5t-31.5 80.5q0 61 44 105t110 44q52 0 83 -30t31 -78q0 -62 -43 -107t-110 -45zM1067 481h-778q-2 -25 -2 -71q0 -139 61 -207t164 -68q100 0 180 58t113 159h229q-64 -187 -212.5 -284t-338.5 -97q-196 0 -315 112.5t-119 322.5
q0 105 23.5 205.5t74 192t122 161t174.5 110.5t225 41q205 0 318.5 -114t113.5 -302q0 -110 -33 -219zM641 952q-127 0 -208 -86.5t-118 -226.5h555q2 23 2 61q0 120 -61 186t-170 66z" />
    <glyph glyph-name="Eogonek" unicode="&#x118;" horiz-adv-x="1232" 
d="M535 1235l-78 -438h673l-30 -179h-676l-76 -438h752l-33 -180h-25q-58 -8 -107.5 -49t-75 -92.5t-25.5 -96.5q0 -84 73 -84q63 0 115 39l-21 -106q-88 -68 -217 -68q-77 0 -125.5 37t-48.5 115q0 91 59.5 171.5t170.5 133.5h-750l250 1413h956l-32 -178h-729z" />
    <glyph glyph-name="eogonek" unicode="&#x119;" horiz-adv-x="1142" 
d="M1067 481h-778q-2 -25 -2 -71q0 -139 61 -207t164 -68q100 0 180 58t113 159h229q-57 -165 -180.5 -260.5t-284.5 -114.5q-61 -34 -100 -97t-39 -118q0 -84 74 -84q62 0 114 39l-20 -106q-88 -68 -217 -68q-77 0 -125.5 37t-48.5 115q0 81 48.5 155t139.5 127
q-159 24 -252.5 134t-93.5 295q0 105 23.5 205.5t74 192t122 161t174.5 110.5t225 41q205 0 318.5 -114t113.5 -302q0 -110 -33 -219zM641 952q-127 0 -208 -86.5t-118 -226.5h555q2 23 2 61q0 120 -61 186t-170 66z" />
    <glyph glyph-name="Ecaron" unicode="&#x11a;" horiz-adv-x="1232" 
d="M772 1507l-98 209h155l41 -123l84 123h158l-170 -209h-170zM535 1235l-78 -438h673l-30 -179h-676l-76 -438h752l-33 -180h-977l250 1413h956l-32 -178h-729z" />
    <glyph glyph-name="ecaron" unicode="&#x11b;" horiz-adv-x="1142" 
d="M618 1182l-94 233h152l45 -133l90 133h150l-177 -233h-166zM1067 481h-778q-2 -25 -2 -71q0 -139 61 -207t164 -68q100 0 180 58t113 159h229q-64 -187 -212.5 -284t-338.5 -97q-196 0 -315 112.5t-119 322.5q0 105 23.5 205.5t74 192t122 161t174.5 110.5t225 41
q205 0 318.5 -114t113.5 -302q0 -110 -33 -219zM641 952q-127 0 -208 -86.5t-118 -226.5h555q2 23 2 61q0 120 -61 186t-170 66z" />
    <glyph glyph-name="Gbreve" unicode="&#x11e;" horiz-adv-x="1560" 
d="M1081 1483q-60 0 -101.5 20t-59.5 52.5t-25 74.5t2 86h129q-16 -106 78 -106q95 0 119 106h127q-44 -233 -269 -233zM946 1442q136 0 238 -36t163 -101.5t88 -153t19 -193.5l-2 -20h-225v20q0 165 -76.5 238.5t-239.5 73.5q-153 0 -277.5 -89t-195.5 -247.5t-71 -353.5
q0 -202 89 -319.5t246 -117.5q158 0 279.5 104t159.5 273h-316l33 180h535l-123 -700h-189l33 238l-86 -136q-146 -131 -381 -131q-252 0 -390 158.5t-138 421.5q0 192 65.5 359t177 283t263.5 182.5t321 66.5z" />
    <glyph glyph-name="gbreve" unicode="&#x11f;" horiz-adv-x="1288" 
d="M762 1159q-66 0 -109 22.5t-58.5 59.5t-20 83t7.5 93h127q-3 -36 -2 -64.5t20 -46.5t57 -18q96 0 121 129h129q-49 -258 -272 -258zM1245 1087l-145 -817q-26 -145 -39 -211q-53 -249 -209.5 -372t-423.5 -123q-215 0 -333 95.5t-105 268.5l2 21h223l-2 -19
q-5 -90 59.5 -143t188.5 -53q148 0 243 77.5t127 223.5q4 23 13 64t12 61l2 14l-104 -119q-51 -37 -130.5 -59.5t-162.5 -22.5q-197 0 -304.5 121.5t-107.5 317.5q0 105 24.5 205.5t77.5 191t127.5 159t181.5 108.5t234 40q69 0 140 -22.5t106 -57.5l51 -110l29 161h225z
M537 139q66 0 124.5 21.5t111 66t92 122.5t57.5 183v-4l10 64v-2q16 97 -2 176.5t-81 132.5t-165 53q-119 0 -210.5 -76t-137 -193t-45.5 -251q0 -137 63 -215t183 -78z" />
    <glyph glyph-name="Gdotaccent" unicode="&#x120;" horiz-adv-x="1560" 
d="M1087 1501q-45 0 -72.5 27.5t-27.5 70.5q0 54 40 94t97 40q46 0 74.5 -27.5t28.5 -71.5q0 -52 -41.5 -92.5t-98.5 -40.5zM946 1442q136 0 238 -36t163 -101.5t88 -153t19 -193.5l-2 -20h-225v20q0 165 -76.5 238.5t-239.5 73.5q-153 0 -277.5 -89t-195.5 -247.5
t-71 -353.5q0 -202 89 -319.5t246 -117.5q158 0 279.5 104t159.5 273h-316l33 180h535l-123 -700h-189l33 238l-86 -136q-146 -131 -381 -131q-252 0 -390 158.5t-138 421.5q0 192 65.5 359t177 283t263.5 182.5t321 66.5z" />
    <glyph glyph-name="gdotaccent" unicode="&#x121;" horiz-adv-x="1288" 
d="M776 1206q-52 0 -83 30.5t-31 80.5q0 61 43.5 105t109.5 44q52 0 83.5 -30t31.5 -78q0 -62 -43.5 -107t-110.5 -45zM1245 1087l-145 -817q-26 -145 -39 -211q-53 -249 -209.5 -372t-423.5 -123q-215 0 -333 95.5t-105 268.5l2 21h223l-2 -19q-5 -90 59.5 -143t188.5 -53
q148 0 243 77.5t127 223.5q4 23 13 64t12 61l2 14l-104 -119q-51 -37 -130.5 -59.5t-162.5 -22.5q-197 0 -304.5 121.5t-107.5 317.5q0 105 24.5 205.5t77.5 191t127.5 159t181.5 108.5t234 40q69 0 140 -22.5t106 -57.5l51 -110l29 161h225zM537 139q66 0 124.5 21.5
t111 66t92 122.5t57.5 183v-4l10 64v-2q16 97 -2 176.5t-81 132.5t-165 53q-119 0 -210.5 -76t-137 -193t-45.5 -251q0 -137 63 -215t183 -78z" />
    <glyph glyph-name="Gcommaaccent" unicode="&#x122;" horiz-adv-x="1560" 
d="M946 1442q136 0 238 -36t163 -101.5t88 -153t19 -193.5l-2 -20h-225v20q0 165 -76.5 238.5t-239.5 73.5q-153 0 -277.5 -89t-195.5 -247.5t-71 -353.5q0 -202 89 -319.5t246 -117.5q158 0 279.5 104t159.5 273h-316l33 180h535l-123 -700h-189l33 238l-86 -136
q-146 -131 -381 -131q-252 0 -390 158.5t-138 421.5q0 192 65.5 359t177 283t263.5 182.5t321 66.5zM537 -98h168v-15l-187 -297h-123z" />
    <glyph glyph-name="gcommaaccent" unicode="&#x123;" horiz-adv-x="1288" 
d="M831 1184h-169v14l188 297h123zM1245 1087l-145 -817q-26 -145 -39 -211q-53 -249 -209.5 -372t-423.5 -123q-215 0 -333 95.5t-105 268.5l2 21h223l-2 -19q-5 -90 59.5 -143t188.5 -53q148 0 243 77.5t127 223.5q4 23 13 64t12 61l2 14l-104 -119q-51 -37 -130.5 -59.5
t-162.5 -22.5q-197 0 -304.5 121.5t-107.5 317.5q0 105 24.5 205.5t77.5 191t127.5 159t181.5 108.5t234 40q69 0 140 -22.5t106 -57.5l51 -110l29 161h225zM537 139q66 0 124.5 21.5t111 66t92 122.5t57.5 183v-4l10 64v-2q16 97 -2 176.5t-81 132.5t-165 53
q-119 0 -210.5 -76t-137 -193t-45.5 -251q0 -137 63 -215t183 -78z" />
    <glyph glyph-name="Hbar" unicode="&#x126;" horiz-adv-x="1509" 
d="M1526 1018h-82l-180 -1018h-224l107 602h-725l-107 -602h-225l180 1018h-82l25 135h82l45 260h225l-45 -260h725l45 260h223l-45 -260h82zM1221 1018h-725l-41 -234h725z" />
    <glyph glyph-name="hbar" unicode="&#x127;" horiz-adv-x="1277" 
d="M852 1116q162 0 247 -74.5t85 -203.5q0 -80 -27 -222l-110 -616h-226l107 586q22 121 22 184q0 85 -46.5 133t-147.5 47q-129 -3 -226 -114t-139 -351l-86 -485h-223l213 1208h-119l25 135h116l31 173h223l-30 -173h211l-25 -135h-209l-53 -297l98 121q71 48 137 66
t152 18z" />
    <glyph glyph-name="Imacron" unicode="&#x12a;" horiz-adv-x="561" 
d="M737 1552h-522l23 129h522zM315 0h-225l250 1413h225z" />
    <glyph glyph-name="imacron" unicode="&#x12b;" horiz-adv-x="507" 
d="M639 1227h-522l22 129h523zM272 0h-225l193 1087h225z" />
    <glyph glyph-name="Iogonek" unicode="&#x12e;" horiz-adv-x="561" 
d="M565 1413l-250 -1413h-67q-58 -8 -107.5 -49t-75.5 -92.5t-26 -96.5q0 -84 74 -84q62 0 114 39l-20 -106q-88 -68 -217 -68q-77 0 -125.5 37t-48.5 115q0 101 71.5 187.5t206.5 137.5l246 1393h225z" />
    <glyph glyph-name="iogonek" unicode="&#x12f;" horiz-adv-x="507" 
d="M420 1466q52 0 83.5 -30t31.5 -78q0 -62 -43.5 -107t-110.5 -45q-52 0 -83.5 30.5t-31.5 80.5q0 61 44 105t110 44zM240 1087h225l-193 -1087h-65q-58 -8 -107.5 -49t-75.5 -92.5t-26 -96.5q0 -84 74 -84q62 0 114 39l-20 -106q-88 -68 -217 -68q-77 0 -125.5 37
t-48.5 115q0 101 71 187.5t205 137.5z" />
    <glyph glyph-name="Idotaccent" unicode="&#x130;" horiz-adv-x="561" 
d="M508 1733q46 0 74 -27.5t28 -71.5q0 -52 -41 -92.5t-98 -40.5q-45 0 -72.5 27.5t-27.5 70.5q0 54 40 94t97 40zM315 0h-225l250 1413h225z" />
    <glyph glyph-name="dotlessi" unicode="&#x131;" horiz-adv-x="507" 
d="M272 0h-225l193 1087h225z" />
    <glyph glyph-name="IJ" unicode="&#x132;" horiz-adv-x="1695" 
d="M315 0h-225l250 1413h225zM1718 1413l-151 -854q-14 -80 -37 -182q-44 -191 -174 -298.5t-359 -107.5q-212 0 -318 120.5t-75 326.5l12 78h224l-9 -78q-36 -275 201 -275q112 0 180 61.5t99 186.5q5 23 15.5 75.5l16.5 82.5l150 864h225z" />
    <glyph glyph-name="ij" unicode="&#x133;" horiz-adv-x="958" 
d="M420 1466q52 0 83.5 -30t31.5 -78q0 -62 -43.5 -107t-110.5 -45q-52 0 -83.5 30.5t-31.5 80.5q0 61 44 105t110 44zM887 1466q53 0 85 -30t32 -78q0 -68 -42 -110t-110 -42q-53 0 -85 30.5t-32 78.5q0 67 42 109t110 42zM272 0h-225l193 1087h225zM940 1087l-201 -1150
q-20 -102 -28 -132q-32 -117 -114 -176t-232 -59q-64 0 -93 4l31 170q152 -18 189 92q14 52 24 111l201 1140h223z" />
    <glyph glyph-name="Kcommaaccent" unicode="&#x136;" horiz-adv-x="1333" 
d="M680 713l532 -713h-274l-424 596l-111 -98l-88 -498h-225l250 1413h225l-119 -676l771 676h272zM516 -98h168v-15l-186 -297h-123z" />
    <glyph glyph-name="kcommaaccent" unicode="&#x137;" horiz-adv-x="1122" 
d="M633 575l407 -575h-270l-307 459l-129 -113l-62 -346h-225l266 1505h226l-164 -932l565 514h277zM410 -98h168v-15l-187 -297h-123z" />
    <glyph glyph-name="Lacute" unicode="&#x139;" horiz-adv-x="1204" 
d="M526 1507h-135l166 209h205zM1100 186l-33 -186h-977l250 1413h225l-217 -1227h752z" />
    <glyph glyph-name="lacute" unicode="&#x13a;" horiz-adv-x="538" 
d="M485 1604h-135l182 233h205zM528 1505l-206 -1173q-15 -80 -15 -107q0 -50 25.5 -64t89.5 -9l-27 -154q-75 -10 -143 -10q-92 0 -137 32t-45 111q0 53 26 195l209 1179h223z" />
    <glyph glyph-name="Lcommaaccent" unicode="&#x13b;" horiz-adv-x="1204" 
d="M1100 186l-33 -186h-977l250 1413h225l-217 -1227h752zM498 -98h168v-15l-187 -297h-123z" />
    <glyph glyph-name="lcommaaccent" unicode="&#x13c;" horiz-adv-x="538" 
d="M528 1505l-206 -1173q-15 -80 -15 -107q0 -50 25.5 -64t89.5 -9l-27 -154q-75 -10 -143 -10q-92 0 -137 32t-45 111q0 53 26 195l209 1179h223zM266 -113l-186 -297h-125l143 312h168v-15z" />
    <glyph glyph-name="Lcaron" unicode="&#x13d;" horiz-adv-x="1204" 
d="M1100 186l-33 -186h-977l250 1413h225l-217 -1227h752z" />
    <glyph glyph-name="lcaron" unicode="&#x13e;" horiz-adv-x="538" 
d="M528 1505l-206 -1173q-15 -80 -15 -107q0 -50 25.5 -64t89.5 -9l-27 -154q-75 -10 -143 -10q-92 0 -137 32t-45 111q0 53 26 195l209 1179h223z" />
    <glyph glyph-name="Ldot" unicode="&#x13f;" horiz-adv-x="1204" 
d="M1100 186l-33 -186h-977l250 1413h225l-217 -1227h752zM815 690q-51 0 -82 30.5t-31 78.5q0 63 45 106t111 43q51 0 82 -30t31 -78q0 -63 -45 -106.5t-111 -43.5z" />
    <glyph glyph-name="ldot" unicode="&#x140;" horiz-adv-x="763" 
d="M528 1505l-206 -1173q-15 -80 -15 -107q0 -50 25.5 -64t89.5 -9l-27 -154q-75 -10 -143 -10q-92 0 -137 32t-45 111q0 53 26 195l209 1179h223zM678 956q51 0 83 -30.5t32 -79.5q0 -70 -46 -116t-114 -46q-51 0 -84 31t-33 80q0 70 46.5 115.5t115.5 45.5z" />
    <glyph glyph-name="Lslash" unicode="&#x141;" horiz-adv-x="1282" 
d="M1180 186l-35 -186h-975l106 598l-253 -133l28 160l252 133l117 655h223l-94 -528l246 129l-29 -160l-244 -127l-96 -541h754z" />
    <glyph glyph-name="lslash" unicode="&#x142;" horiz-adv-x="610" 
d="M428 645l-55 -313q-15 -80 -15 -107q0 -50 25.5 -64t91.5 -9l-29 -154q-75 -10 -143 -10q-91 0 -136.5 32t-45.5 111q0 53 26 195l33 184l-143 -78l29 164l143 78l147 831h224l-123 -696l145 80l-29 -164z" />
    <glyph glyph-name="Nacute" unicode="&#x143;" horiz-adv-x="1503" 
d="M999 1507h-135l166 209h205zM1507 1413l-250 -1413h-321l-418 1169l-203 -1169h-225l250 1413h317l420 -1180l207 1180h223z" />
    <glyph glyph-name="nacute" unicode="&#x144;" horiz-adv-x="1243" 
d="M803 1182h-135l182 233h205zM817 1116q163 0 247.5 -74t84.5 -204q0 -80 -27 -222l-110 -616h-224l105 586q22 121 22 184q0 183 -194 180q-129 -3 -225.5 -114t-139.5 -351l-84 -485h-225l191 1087h225l-31 -176l96 121q70 47 137.5 65.5t151.5 18.5z" />
    <glyph glyph-name="Ncommaaccent" unicode="&#x145;" horiz-adv-x="1503" 
d="M1507 1413l-250 -1413h-321l-418 1169l-203 -1169h-225l250 1413h317l420 -1180l207 1180h223zM598 -98h168v-15l-186 -297h-123z" />
    <glyph glyph-name="ncommaaccent" unicode="&#x146;" horiz-adv-x="1243" 
d="M817 1116q163 0 247.5 -74t84.5 -204q0 -80 -27 -222l-110 -616h-224l105 586q22 121 22 184q0 183 -194 180q-129 -3 -225.5 -114t-139.5 -351l-84 -485h-225l191 1087h225l-31 -176l96 121q70 47 137.5 65.5t151.5 18.5zM444 -98h168v-15l-186 -297h-123z" />
    <glyph glyph-name="Ncaron" unicode="&#x147;" horiz-adv-x="1503" 
d="M862 1507l-98 209h156l41 -123l83 123h158l-170 -209h-170zM1507 1413l-250 -1413h-321l-418 1169l-203 -1169h-225l250 1413h317l420 -1180l207 1180h223z" />
    <glyph glyph-name="ncaron" unicode="&#x148;" horiz-adv-x="1243" 
d="M666 1182l-95 233h152l45 -133l90 133h150l-177 -233h-165zM817 1116q163 0 247.5 -74t84.5 -204q0 -80 -27 -222l-110 -616h-224l105 586q22 121 22 184q0 183 -194 180q-129 -3 -225.5 -114t-139.5 -351l-84 -485h-225l191 1087h225l-31 -176l96 121q70 47 137.5 65.5
t151.5 18.5z" />
    <glyph glyph-name="Eng" unicode="&#x14a;" horiz-adv-x="1505" 
d="M1507 1413l-270 -1546q-18 -104 -43 -163t-74.5 -97.5t-121 -51t-191.5 -12.5l31 174q83 3 121 36.5t49 101.5l16 88l-508 1210l-199 -1153h-225l248 1413h317l439 -1091l188 1091h223z" />
    <glyph glyph-name="eng" unicode="&#x14b;" horiz-adv-x="1243" 
d="M817 1116q163 0 247.5 -74t84.5 -204q0 -80 -27 -222l-116 -653q-11 -55 -27 -102q-20 -57 -46.5 -95.5t-57.5 -62.5t-78 -37t-95.5 -17.5t-121.5 -4.5l28 174q83 0 120.5 30t49.5 99l115 639q22 121 22 184q0 183 -194 180q-129 -3 -225.5 -114t-139.5 -351l-84 -485
h-225l191 1087h225l-31 -176l96 121q70 47 137.5 65.5t151.5 18.5z" />
    <glyph glyph-name="Omacron" unicode="&#x14c;" horiz-adv-x="1560" 
d="M1227 1552h-522l22 129h522zM926 1442q142 0 256.5 -48t188 -132t112.5 -194.5t39 -238.5q0 -136 -32 -261.5t-98.5 -234.5t-160 -189.5t-225 -126.5t-285.5 -46q-142 0 -256.5 48t-188 132t-112.5 194.5t-39 238.5q0 136 32 262t98.5 234.5t160 189t225 126.5t285.5 46z
M752 143q105 0 193.5 41.5t149 110.5t103.5 158.5t62.5 184.5t19.5 189q0 201 -102.5 322t-282.5 121q-105 0 -193.5 -41.5t-149 -110.5t-103.5 -158.5t-62.5 -184.5t-19.5 -189q0 -200 102 -321.5t283 -121.5z" />
    <glyph glyph-name="omacron" unicode="&#x14d;" 
d="M997 1227h-522l23 129h522zM694 1116q123 0 218 -38.5t151.5 -106t84.5 -152t28 -184.5q0 -95 -23.5 -187.5t-74 -179t-123.5 -152.5t-180.5 -105.5t-235.5 -39.5q-124 0 -219 38.5t-152 106t-85 152.5t-28 185q0 95 23.5 187t74.5 178.5t124 152.5t180.5 105.5
t236.5 39.5zM561 135q89 0 162 43.5t118 115.5t69 159t24 178q0 142 -66.5 231.5t-197.5 89.5q-89 0 -161.5 -43t-117.5 -114.5t-69.5 -158t-24.5 -177.5q0 -143 67 -233.5t197 -90.5z" />
    <glyph glyph-name="Ohungarumlaut" unicode="&#x150;" horiz-adv-x="1560" 
d="M840 1507h-135l165 209h205zM979 1507l166 209h205l-236 -209h-135zM926 1442q142 0 256.5 -48t188 -132t112.5 -194.5t39 -238.5q0 -136 -32 -261.5t-98.5 -234.5t-160 -189.5t-225 -126.5t-285.5 -46q-142 0 -256.5 48t-188 132t-112.5 194.5t-39 238.5q0 136 32 262
t98.5 234.5t160 189t225 126.5t285.5 46zM752 143q105 0 193.5 41.5t149 110.5t103.5 158.5t62.5 184.5t19.5 189q0 201 -102.5 322t-282.5 121q-105 0 -193.5 -41.5t-149 -110.5t-103.5 -158.5t-62.5 -184.5t-19.5 -189q0 -200 102 -321.5t283 -121.5z" />
    <glyph glyph-name="ohungarumlaut" unicode="&#x151;" 
d="M633 1182h-135l182 233h205zM793 1182l182 233h205l-252 -233h-135zM694 1116q123 0 218 -38.5t151.5 -106t84.5 -152t28 -184.5q0 -95 -23.5 -187.5t-74 -179t-123.5 -152.5t-180.5 -105.5t-235.5 -39.5q-124 0 -219 38.5t-152 106t-85 152.5t-28 185q0 95 23.5 187
t74.5 178.5t124 152.5t180.5 105.5t236.5 39.5zM561 135q89 0 162 43.5t118 115.5t69 159t24 178q0 142 -66.5 231.5t-197.5 89.5q-89 0 -161.5 -43t-117.5 -114.5t-69.5 -158t-24.5 -177.5q0 -143 67 -233.5t197 -90.5z" />
    <glyph glyph-name="OE" unicode="&#x152;" horiz-adv-x="2279" 
d="M1581 1235l-78 -438h674l-31 -179h-676l-75 -438h751l-32 -180h-977l47 264l-82 -141q-93 -82 -199 -117t-246 -35q-257 0 -397.5 152.5t-140.5 439.5q0 119 29 239.5t93 236t155 205t225.5 144t293.5 54.5q151 0 238.5 -35t153.5 -121l32 -141l47 268h957l-33 -178h-729
zM723 143q205 0 349 153.5t190 410.5q11 68 12.5 132.5t-7.5 129.5t-34.5 118t-65 95t-102.5 65t-143 23q-113 0 -208.5 -44t-159.5 -116t-109 -164.5t-65 -188t-20 -188.5q0 -205 94.5 -315.5t268.5 -110.5z" />
    <glyph glyph-name="oe" unicode="&#x153;" horiz-adv-x="2002" 
d="M1927 481h-778q-2 -27 -2 -71q0 -141 59.5 -208t163.5 -67q100 0 180 58t115 159h227q-67 -187 -217 -284t-338 -97q-275 0 -358 238q-169 -238 -467 -238q-228 0 -346.5 122.5t-118.5 324.5q0 86 22 177.5t73 185.5t125 167t188 119.5t252 46.5q308 0 397 -242
q172 242 459 242q194 0 295.5 -112.5t101.5 -301.5q0 -115 -33 -219zM539 135q82 0 151 35.5t113.5 91.5t75 127t44 140t13.5 133q0 133 -65 210.5t-187 77.5q-82 0 -150 -34.5t-112.5 -89.5t-75 -125t-44 -138.5t-13.5 -132.5q0 -136 64.5 -215.5t185.5 -79.5zM1522 950
q-118 0 -207 -79.5t-131 -231.5h547q4 25 4 66q0 120 -54 182.5t-159 62.5z" />
    <glyph glyph-name="Racute" unicode="&#x154;" horiz-adv-x="1290" 
d="M877 1507h-136l166 209h205zM1323 1098q0 -170 -101 -275.5t-259 -140.5q62 -15 95.5 -59t48.5 -133.5t15 -249.5q0 -169 39 -240h-243q-16 82 -21 369q-2 102 -36.5 158.5t-115.5 60.5q-35 2 -104 2h-221l-105 -590h-225l250 1413h487q127 0 195 -8q138 -18 219.5 -94.5
t81.5 -212.5zM815 768q114 10 188 82t74 201q0 156 -164 176q-47 8 -129 8h-249l-84 -471h235q92 0 129 4z" />
    <glyph glyph-name="racute" unicode="&#x155;" horiz-adv-x="710" 
d="M539 1182h-136l183 233h205zM729 1114q44 0 74 -12l-31 -176q-72 5 -134.5 -11t-116.5 -57t-92.5 -115t-57.5 -178l-99 -565h-225l193 1085h223l-33 -184l121 152q86 61 178 61z" />
    <glyph glyph-name="Rcommaaccent" unicode="&#x156;" horiz-adv-x="1290" 
d="M1323 1098q0 -170 -101 -275.5t-259 -140.5q62 -15 95.5 -59t48.5 -133.5t15 -249.5q0 -169 39 -240h-243q-16 82 -21 369q-2 102 -36.5 158.5t-115.5 60.5q-35 2 -104 2h-221l-105 -590h-225l250 1413h487q127 0 195 -8q138 -18 219.5 -94.5t81.5 -212.5zM815 768
q114 10 188 82t74 201q0 156 -164 176q-47 8 -129 8h-249l-84 -471h235q92 0 129 4zM461 -98h168v-15l-187 -297h-123z" />
    <glyph glyph-name="rcommaaccent" unicode="&#x157;" horiz-adv-x="710" 
d="M729 1114q44 0 74 -12l-31 -176q-72 5 -134.5 -11t-116.5 -57t-92.5 -115t-57.5 -178l-99 -565h-225l193 1085h223l-33 -184l121 152q86 61 178 61zM80 -98h168v-15l-187 -297h-124z" />
    <glyph glyph-name="Rcaron" unicode="&#x158;" horiz-adv-x="1290" 
d="M739 1507l-98 209h156l41 -123l84 123h157l-170 -209h-170zM1323 1098q0 -170 -101 -275.5t-259 -140.5q62 -15 95.5 -59t48.5 -133.5t15 -249.5q0 -169 39 -240h-243q-16 82 -21 369q-2 102 -36.5 158.5t-115.5 60.5q-35 2 -104 2h-221l-105 -590h-225l250 1413h487
q127 0 195 -8q138 -18 219.5 -94.5t81.5 -212.5zM815 768q114 10 188 82t74 201q0 156 -164 176q-47 8 -129 8h-249l-84 -471h235q92 0 129 4z" />
    <glyph glyph-name="rcaron" unicode="&#x159;" horiz-adv-x="710" 
d="M401 1182l-94 233h152l45 -133l90 133h149l-176 -233h-166zM729 1114q44 0 74 -12l-31 -176q-72 5 -134.5 -11t-116.5 -57t-92.5 -115t-57.5 -178l-99 -565h-225l193 1085h223l-33 -184l121 152q86 61 178 61z" />
    <glyph glyph-name="Sacute" unicode="&#x15a;" horiz-adv-x="1189" 
d="M811 1507h-135l166 209h205zM748 1442q226 0 337.5 -118.5t100.5 -311.5h-234q9 122 -54.5 190t-186.5 68q-117 0 -191 -62t-74 -172q0 -82 61.5 -130.5t203.5 -82.5q198 -48 293.5 -140.5t95.5 -244.5q0 -142 -78.5 -249.5t-210 -162.5t-295.5 -55q-233 0 -364.5 115
t-116.5 324h233q4 -129 78.5 -198t200.5 -69q133 0 220 68t87 186q0 88 -64.5 142.5t-209.5 91.5q-185 46 -282 126.5t-97 219.5q0 142 76 249.5t199.5 161.5t271.5 54z" />
    <glyph glyph-name="sacute" unicode="&#x15b;" horiz-adv-x="956" 
d="M635 1182h-135l182 233h205zM532 1114q193 0 288 -91.5t100 -248.5h-228q-13 182 -168 182q-91 0 -136.5 -42.5t-45.5 -106.5q0 -67 48 -106t155 -72q164 -51 240.5 -126.5t76.5 -203.5q0 -151 -121 -245.5t-325 -94.5q-110 0 -195 28.5t-136 79t-77.5 112t-30.5 134.5
h230q19 -194 221 -194q85 0 140 43.5t55 116.5q0 66 -50.5 109t-173.5 83q-70 22 -119 45t-92 58.5t-64.5 87t-21.5 118.5q0 143 112.5 238.5t317.5 95.5z" />
    <glyph glyph-name="Scedilla" unicode="&#x15e;" horiz-adv-x="1189" 
d="M1186 1012h-234q9 122 -54.5 190t-186.5 68q-117 0 -191 -62t-74 -172q0 -82 61.5 -130.5t203.5 -82.5q198 -48 293.5 -140.5t95.5 -244.5q0 -133 -69.5 -236t-186.5 -161t-266 -68l-41 -57q71 -12 108 -51.5t37 -97.5q0 -98 -80.5 -147.5t-206.5 -49.5q-77 0 -127 16
l21 99q39 -15 106 -15q69 0 105.5 23.5t36.5 64.5q0 44 -49 65t-134 11l97 139q-204 15 -316.5 129t-99.5 308h233q4 -129 78.5 -198t200.5 -69q133 0 220 68t87 186q0 88 -64.5 142.5t-209.5 91.5q-185 46 -282 126.5t-97 219.5q0 142 76 249.5t199.5 161.5t271.5 54
q226 0 337.5 -118.5t100.5 -311.5z" />
    <glyph glyph-name="scedilla" unicode="&#x15f;" horiz-adv-x="956" 
d="M545 629q164 -51 240.5 -126.5t76.5 -203.5q0 -152 -121 -246t-327 -94l-31 -43q72 -12 109.5 -51.5t37.5 -97.5q0 -98 -80 -147.5t-206 -49.5q-77 0 -127 16l20 99q39 -15 107 -15q69 0 105 23.5t36 64.5q0 44 -48.5 65t-133.5 11l92 135q-154 28 -233 121.5t-85 222.5
h230q19 -194 221 -194q85 0 140 43.5t55 116.5q0 66 -50.5 109t-173.5 83q-70 22 -119 45t-92 58.5t-64.5 87t-21.5 118.5q0 143 112.5 238.5t317.5 95.5q193 0 288 -91.5t100 -248.5h-228q-13 182 -168 182q-91 0 -136.5 -42.5t-45.5 -106.5q0 -67 48 -106t155 -72z" />
    <glyph glyph-name="Scaron" unicode="&#x160;" horiz-adv-x="1189" 
d="M672 1507l-99 209h156l41 -123l84 123h158l-170 -209h-170zM1186 1012h-234q9 122 -54.5 190t-186.5 68q-117 0 -191 -62t-74 -172q0 -82 61.5 -130.5t203.5 -82.5q198 -48 293.5 -140.5t95.5 -244.5q0 -142 -78.5 -249.5t-210 -162.5t-295.5 -55q-233 0 -364.5 115
t-116.5 324h233q4 -129 78.5 -198t200.5 -69q133 0 220 68t87 186q0 88 -64.5 142.5t-209.5 91.5q-185 46 -282 126.5t-97 219.5q0 142 76 249.5t199.5 161.5t271.5 54q226 0 337.5 -118.5t100.5 -311.5z" />
    <glyph glyph-name="scaron" unicode="&#x161;" horiz-adv-x="956" 
d="M498 1182l-95 233h152l45 -133l90 133h150l-176 -233h-166zM545 629q164 -51 240.5 -126.5t76.5 -203.5q0 -151 -121 -245.5t-325 -94.5q-110 0 -195 28.5t-136 79t-77.5 112t-30.5 134.5h230q19 -194 221 -194q85 0 140 43.5t55 116.5q0 66 -50.5 109t-173.5 83
q-70 22 -119 45t-92 58.5t-64.5 87t-21.5 118.5q0 143 112.5 238.5t317.5 95.5q193 0 288 -91.5t100 -248.5h-228q-13 182 -168 182q-91 0 -136.5 -42.5t-45.5 -106.5q0 -67 48 -106t155 -72z" />
    <glyph glyph-name="Tcedilla" unicode="&#x162;" horiz-adv-x="1265" 
d="M633 0l-62 -84q72 -12 110 -51.5t38 -97.5q0 -98 -80.5 -147.5t-206.5 -49.5q-77 0 -127 16l21 99q39 -15 106 -15q69 0 105 23.5t36 64.5q0 44 -48.5 65t-133.5 11l115 166h-49l219 1235h-494l33 178h1208l-32 -178h-490l-219 -1235h-49z" />
    <glyph glyph-name="tcedilla" unicode="&#x163;" horiz-adv-x="667" 
d="M461 922l-101 -570q-14 -79 -14 -116q0 -60 43 -78t139 -4l-28 -154q-82 -20 -162 -20h-12l-45 -64q72 -12 109.5 -51.5t37.5 -97.5q0 -98 -80.5 -147.5t-206.5 -49.5q-77 0 -127 16l21 99q39 -15 106 -15q69 0 105.5 23.5t36.5 64.5q0 44 -49 65t-134 11l113 164
q-102 34 -102 154q0 54 22 180l105 590h-150l29 157h149l45 260h224l-46 -260h199l-29 -157h-198z" />
    <glyph glyph-name="Tcaron" unicode="&#x164;" horiz-adv-x="1265" 
d="M754 1507l-99 209h156l41 -123l84 123h158l-170 -209h-170zM1391 1235h-490l-219 -1235h-225l219 1235h-494l33 178h1208z" />
    <glyph glyph-name="tcaron" unicode="&#x165;" horiz-adv-x="667" 
d="M893 1513v-16l-188 -297h-123l141 313h170zM489 1079h199l-29 -157h-198l-101 -570q-14 -79 -14 -116q0 -60 43 -78t139 -4l-28 -154q-82 -20 -162 -20q-116 0 -171.5 41.5t-55.5 130.5q0 54 22 180l105 590h-150l29 157h149l45 260h224z" />
    <glyph glyph-name="Tbar" unicode="&#x166;" horiz-adv-x="1312" 
d="M901 1235l-86 -481h225l-24 -136h-225l-109 -618h-225l108 618h-209l25 136h209l86 481h-494l33 178h1208l-32 -178h-490z" />
    <glyph glyph-name="tbar" unicode="&#x167;" horiz-adv-x="667" 
d="M461 922l-37 -213h162l-23 -129h-162l-41 -228q-14 -79 -14 -116q0 -60 43 -78t139 -4l-28 -154q-82 -20 -162 -20q-116 0 -171.5 41.5t-55.5 130.5q0 54 22 180l43 248h-135l22 129h138l37 213h-150l29 157h149l45 260h224l-46 -260h199l-29 -157h-198z" />
    <glyph glyph-name="Umacron" unicode="&#x16a;" horiz-adv-x="1417" 
d="M1174 1552h-523l23 129h522zM1444 1413l-152 -856q-15 -85 -30 -149q-106 -437 -617 -437q-238 0 -359.5 105t-121.5 295q0 76 22 202l148 840h225l-151 -860q-19 -111 -19 -164q0 -116 72.5 -181t208.5 -65q152 0 241.5 67t130.5 218q16 64 25 115l152 870h225z" />
    <glyph glyph-name="umacron" unicode="&#x16b;" horiz-adv-x="1232" 
d="M1006 1227h-523l23 129h522zM1188 1087l-191 -1087h-225l31 176l-96 -121q-71 -48 -137 -66t-152 -18q-162 0 -247 75t-85 204q0 79 27 223l110 614h226l-107 -585q-23 -124 -23 -185q0 -84 47.5 -132.5t147.5 -45.5q129 2 225 110.5t138 346.5l2 6l86 485h223z" />
    <glyph glyph-name="Uring" unicode="&#x16e;" horiz-adv-x="1417" 
d="M954 1821q82 0 130.5 -43t48.5 -109q0 -91 -65.5 -145t-162.5 -54q-82 0 -130 42t-48 108q0 91 65 146t162 55zM946 1731q-42 0 -71 -27.5t-29 -75.5q0 -31 18 -50t49 -19q41 0 71 28t30 74q0 31 -18.5 50.5t-49.5 19.5zM1444 1413l-152 -856q-15 -85 -30 -149
q-106 -437 -617 -437q-238 0 -359.5 105t-121.5 295q0 76 22 202l148 840h225l-151 -860q-19 -111 -19 -164q0 -116 72.5 -181t208.5 -65q152 0 241.5 67t130.5 218q16 64 25 115l152 870h225z" />
    <glyph glyph-name="uring" unicode="&#x16f;" horiz-adv-x="1232" 
d="M733 1159q-79 0 -126.5 41.5t-47.5 110.5q0 92 68.5 153.5t169.5 61.5q78 0 125 -41.5t47 -110.5q0 -92 -68 -153.5t-168 -61.5zM780 1438q-44 0 -72 -34.5t-28 -84.5q0 -33 18.5 -52.5t49.5 -19.5q44 0 72 34.5t28 84.5q0 33 -18.5 52.5t-49.5 19.5zM1188 1087
l-191 -1087h-225l31 176l-96 -121q-71 -48 -137 -66t-152 -18q-162 0 -247 75t-85 204q0 79 27 223l110 614h226l-107 -585q-23 -124 -23 -185q0 -84 47.5 -132.5t147.5 -45.5q129 2 225 110.5t138 346.5l2 6l86 485h223z" />
    <glyph glyph-name="Uhungarumlaut" unicode="&#x170;" horiz-adv-x="1417" 
d="M788 1507h-135l166 209h205zM1063 1507h-135l166 209h204zM1444 1413l-152 -856q-15 -85 -30 -149q-106 -437 -617 -437q-238 0 -359.5 105t-121.5 295q0 76 22 202l148 840h225l-151 -860q-19 -111 -19 -164q0 -116 72.5 -181t208.5 -65q152 0 241.5 67t130.5 218
q16 64 25 115l152 870h225z" />
    <glyph glyph-name="uhungarumlaut" unicode="&#x171;" horiz-adv-x="1232" 
d="M641 1182h-135l182 233h205zM801 1182l182 233h205l-252 -233h-135zM965 1087h223l-191 -1087h-225l31 176l-96 -121q-71 -48 -137 -66t-152 -18q-162 0 -247 75t-85 204q0 79 27 223l110 614h226l-107 -585q-23 -124 -23 -185q0 -84 47.5 -132.5t147.5 -45.5
q129 2 225 110.5t138 346.5l2 6z" />
    <glyph glyph-name="Uogonek" unicode="&#x172;" horiz-adv-x="1417" 
d="M1444 1413l-152 -856q-15 -85 -30 -149q-88 -366 -459 -424q-66 -31 -109 -97t-43 -125q0 -84 74 -84q63 0 115 39l-21 -106q-88 -68 -217 -68q-77 0 -125.5 37t-48.5 115q0 79 45.5 151t132.5 125q-219 9 -330.5 113.5t-111.5 286.5q0 76 22 202l148 840h225l-151 -860
q-19 -111 -19 -164q0 -116 72.5 -181t208.5 -65q152 0 241.5 67t130.5 218q16 64 25 115l152 870h225z" />
    <glyph glyph-name="uogonek" unicode="&#x173;" horiz-adv-x="1232" 
d="M1188 1087l-191 -1087h-49q-58 -8 -107.5 -49t-75.5 -92.5t-26 -96.5q0 -84 74 -84q63 0 115 39l-21 -106q-88 -68 -217 -68q-77 0 -125.5 37t-48.5 115q0 97 67 181t191 136l29 164l-96 -121q-71 -48 -137 -66t-152 -18q-162 0 -247 75t-85 204q0 79 27 223l110 614h226
l-107 -585q-23 -124 -23 -185q0 -84 47.5 -132.5t147.5 -45.5q129 2 225 110.5t138 346.5l2 6l86 485h223z" />
    <glyph glyph-name="Wcircumflex" unicode="&#x174;" horiz-adv-x="1984" 
d="M1128 1507h-153l170 209h168l98 -209h-156l-43 121zM2132 1413l-633 -1413h-297l-74 1186l-503 -1186h-299l-119 1413h242l65 -1204l490 1184h319l66 -1192l495 1212h248z" />
    <glyph glyph-name="wcircumflex" unicode="&#x175;" horiz-adv-x="1599" 
d="M846 1182h-150l178 233h166l93 -233h-152l-43 133zM1714 1087l-538 -1087h-261l-61 877l-369 -877h-262l-153 1087h254l69 -874l359 872h278l62 -876l378 878h244z" />
    <glyph glyph-name="Ycircumflex" unicode="&#x176;" horiz-adv-x="1243" 
d="M760 1507h-154l170 209h168l98 -209h-155l-43 121zM764 545l-94 -545h-226l99 551l-348 862h239l254 -663l473 663h256z" />
    <glyph glyph-name="ycircumflex" unicode="&#x177;" horiz-adv-x="1058" 
d="M567 1182h-149l178 233h166l92 -233h-152l-43 133zM1171 1087l-608 -1087q-139 -249 -246.5 -339.5t-267.5 -90.5q-61 0 -102 8l26 166q41 -6 74 -6q79 0 135 39t107 135l16 31l-235 1144h254l137 -913l459 913h251z" />
    <glyph glyph-name="Ydieresis" unicode="&#x178;" horiz-adv-x="1243" 
d="M666 1501q-44 0 -70.5 26t-26.5 66q0 52 39.5 88.5t87.5 36.5q43 0 69 -25.5t26 -66.5q0 -51 -39 -88t-86 -37zM983 1501q-44 0 -70 26t-26 66q0 52 39.5 88.5t87.5 36.5q43 0 68.5 -25.5t25.5 -66.5q0 -51 -39 -88t-86 -37zM764 545l-94 -545h-226l99 551l-348 862h239
l254 -663l473 663h256z" />
    <glyph glyph-name="Zacute" unicode="&#x179;" horiz-adv-x="1239" 
d="M872 1507h-135l166 209h205zM1303 1237l-986 -1057h809l-32 -180h-1092l31 172l989 1063h-746l33 178h1024z" />
    <glyph glyph-name="zacute" unicode="&#x17a;" horiz-adv-x="1005" 
d="M672 1182h-135l182 233h205zM997 918l-739 -756h619l-29 -162h-887l27 156l745 762h-565l29 161h829z" />
    <glyph glyph-name="Zdotaccent" unicode="&#x17b;" horiz-adv-x="1239" 
d="M815 1501q-45 0 -72.5 27.5t-27.5 70.5q0 54 40 94t97 40q46 0 74 -27.5t28 -71.5q0 -52 -41 -92.5t-98 -40.5zM1303 1237l-986 -1057h809l-32 -180h-1092l31 172l989 1063h-746l33 178h1024z" />
    <glyph glyph-name="zdotaccent" unicode="&#x17c;" horiz-adv-x="1005" 
d="M625 1206q-52 0 -83.5 30.5t-31.5 80.5q0 61 44 105t110 44q52 0 83 -30t31 -78q0 -62 -43 -107t-110 -45zM997 918l-739 -756h619l-29 -162h-887l27 156l745 762h-565l29 161h829z" />
    <glyph glyph-name="Zcaron" unicode="&#x17d;" horiz-adv-x="1239" 
d="M733 1507l-98 209h156l40 -123l84 123h158l-170 -209h-170zM1303 1237l-986 -1057h809l-32 -180h-1092l31 172l989 1063h-746l33 178h1024z" />
    <glyph glyph-name="zcaron" unicode="&#x17e;" horiz-adv-x="1005" 
d="M535 1182l-95 233h152l45 -133l90 133h150l-177 -233h-165zM997 918l-739 -756h619l-29 -162h-887l27 156l745 762h-565l29 161h829z" />
    <glyph glyph-name="Scommaaccent" unicode="&#x218;" horiz-adv-x="1189" 
d="M748 1442q226 0 337.5 -118.5t100.5 -311.5h-234q9 122 -54.5 190t-186.5 68q-117 0 -191 -62t-74 -172q0 -82 61.5 -130.5t203.5 -82.5q198 -48 293.5 -140.5t95.5 -244.5q0 -142 -78.5 -249.5t-210 -162.5t-295.5 -55q-233 0 -364.5 115t-116.5 324h233
q4 -129 78.5 -198t200.5 -69q133 0 220 68t87 186q0 88 -64.5 142.5t-209.5 91.5q-185 46 -282 126.5t-97 219.5q0 142 76 249.5t199.5 161.5t271.5 54zM621 -113l-187 -297h-123l142 312h168v-15z" />
    <glyph glyph-name="scommaaccent" unicode="&#x219;" horiz-adv-x="956" 
d="M532 1114q193 0 288 -91.5t100 -248.5h-228q-13 182 -168 182q-91 0 -136.5 -42.5t-45.5 -106.5q0 -67 48 -106t155 -72q164 -51 240.5 -126.5t76.5 -203.5q0 -151 -121 -245.5t-325 -94.5q-110 0 -195 28.5t-136 79t-77.5 112t-30.5 134.5h230q19 -194 221 -194
q85 0 140 43.5t55 116.5q0 66 -50.5 109t-173.5 83q-70 22 -119 45t-92 58.5t-64.5 87t-21.5 118.5q0 143 112.5 238.5t317.5 95.5zM461 -113l-187 -297h-122l141 312h168v-15z" />
    <glyph glyph-name="uni021A" unicode="&#x21a;" horiz-adv-x="1265" 
d="M1391 1235h-490l-219 -1235h-225l219 1235h-494l33 178h1208zM489 -98h168v-15l-186 -297h-123z" />
    <glyph glyph-name="uni021B" unicode="&#x21b;" horiz-adv-x="667" 
d="M461 922l-101 -570q-14 -79 -14 -116q0 -60 43 -78t139 -4l-28 -154q-82 -20 -162 -20q-116 0 -171.5 41.5t-55.5 130.5q0 54 22 180l105 590h-150l29 157h149l45 260h224l-46 -260h199l-29 -157h-198zM190 -98h168v-15l-186 -297h-123z" />
    <glyph glyph-name="circumflex" unicode="&#x2c6;" horiz-adv-x="614" 
d="M354 1182l-43 133l-92 -133h-149l178 233h166l92 -233h-152z" />
    <glyph glyph-name="caron" unicode="&#x2c7;" horiz-adv-x="614" 
d="M547 1415l-176 -233h-166l-94 233h151l45 -133l90 133h150z" />
    <glyph glyph-name="breve" unicode="&#x2d8;" horiz-adv-x="614" 
d="M428 1417h129q-49 -258 -272 -258q-53 0 -91.5 15t-59 39.5t-29.5 59t-8.5 69.5t7.5 75h127q-7 -62 7 -95.5t69 -33.5q96 0 121 129z" />
    <glyph glyph-name="dotaccent" unicode="&#x2d9;" horiz-adv-x="614" 
d="M332 1466q52 0 83 -30t31 -78q0 -62 -43 -107t-110 -45q-52 0 -83.5 30.5t-31.5 80.5q0 61 44 105t110 44z" />
    <glyph glyph-name="ring" unicode="&#x2da;" horiz-adv-x="614" 
d="M340 1526q78 0 125 -41.5t47 -110.5q0 -92 -68 -153.5t-168 -61.5q-79 0 -126.5 41.5t-47.5 110.5q0 92 68.5 153.5t169.5 61.5zM324 1438q-44 0 -72.5 -34.5t-28.5 -84.5q0 -33 18.5 -52.5t49.5 -19.5q44 0 72 34.5t28 84.5q0 34 -18 53t-49 19z" />
    <glyph glyph-name="ogonek" unicode="&#x2db;" horiz-adv-x="614" 
d="M350 20l156 -20q-58 -8 -107.5 -49t-75.5 -92.5t-26 -96.5q0 -84 74 -84q62 0 114 39l-20 -106q-88 -68 -217 -68q-77 0 -125.5 37t-48.5 115q0 100 71.5 186.5t204.5 138.5z" />
    <glyph glyph-name="tilde" unicode="&#x2dc;" horiz-adv-x="614" 
d="M199 1393q53 0 133 -31q65 -25 88 -25q17 0 27 10.5t16 36.5h106q-18 -98 -54 -138t-99 -40q-51 0 -133 31q-62 25 -88 25q-33 0 -41 -48h-109q18 98 54.5 138.5t99.5 40.5z" />
    <glyph glyph-name="hungarumlaut" unicode="&#x2dd;" horiz-adv-x="614" 
d="M190 1182h-135l183 233h204zM485 1182h-135l182 233h205z" />
    <glyph glyph-name="uni0326" unicode="&#x326;" horiz-adv-x="0" 
d="M440 -113l-186 -297h-123l141 312h168v-15z" />
    <glyph glyph-name="Wgrave" unicode="&#x1e80;" horiz-adv-x="1984" 
d="M1139 1507l-164 209h205l94 -209h-135zM2132 1413l-633 -1413h-297l-74 1186l-503 -1186h-299l-119 1413h242l65 -1204l490 1184h319l66 -1192l495 1212h248z" />
    <glyph glyph-name="wgrave" unicode="&#x1e81;" horiz-adv-x="1599" 
d="M860 1182l-168 233h205l98 -233h-135zM1714 1087l-538 -1087h-261l-61 877l-369 -877h-262l-153 1087h254l69 -874l359 872h278l62 -876l378 878h244z" />
    <glyph glyph-name="Wacute" unicode="&#x1e82;" horiz-adv-x="1984" 
d="M1249 1507h-135l166 209h205zM2132 1413l-633 -1413h-297l-74 1186l-503 -1186h-299l-119 1413h242l65 -1204l490 1184h319l66 -1192l495 1212h248z" />
    <glyph glyph-name="wacute" unicode="&#x1e83;" horiz-adv-x="1599" 
d="M967 1182h-136l183 233h205zM1714 1087l-538 -1087h-261l-61 877l-369 -877h-262l-153 1087h254l69 -874l359 872h278l62 -876l378 878h244z" />
    <glyph glyph-name="Wdieresis" unicode="&#x1e84;" horiz-adv-x="1984" 
d="M1034 1501q-44 0 -70 26t-26 66q0 52 39.5 88.5t87.5 36.5q43 0 68.5 -25.5t25.5 -66.5q0 -51 -39 -88t-86 -37zM1352 1501q-44 0 -70.5 26t-26.5 66q0 52 39.5 88.5t87.5 36.5q43 0 69 -25.5t26 -66.5q0 -51 -39 -88t-86 -37zM2132 1413l-633 -1413h-297l-74 1186
l-503 -1186h-299l-119 1413h242l65 -1204l490 1184h319l66 -1192l495 1212h248z" />
    <glyph glyph-name="wdieresis" unicode="&#x1e85;" horiz-adv-x="1599" 
d="M748 1188q-43 0 -69 25t-26 65q0 52 39.5 88.5t87.5 36.5q42 0 68 -25t26 -65q0 -52 -39 -88.5t-87 -36.5zM1075 1188q-42 0 -68 25t-26 65q0 52 39.5 88.5t87.5 36.5q41 0 67.5 -25t26.5 -65q0 -52 -39.5 -88.5t-87.5 -36.5zM1714 1087l-538 -1087h-261l-61 877
l-369 -877h-262l-153 1087h254l69 -874l359 872h278l62 -876l378 878h244z" />
    <glyph glyph-name="Ygrave" unicode="&#x1ef2;" horiz-adv-x="1243" 
d="M770 1507l-164 209h205l94 -209h-135zM764 545l-94 -545h-226l99 551l-348 862h239l254 -663l473 663h256z" />
    <glyph glyph-name="ygrave" unicode="&#x1ef3;" horiz-adv-x="1058" 
d="M582 1182l-168 233h204l99 -233h-135zM1171 1087l-608 -1087q-139 -249 -246.5 -339.5t-267.5 -90.5q-61 0 -102 8l26 166q41 -6 74 -6q79 0 135 39t107 135l16 31l-235 1144h254l137 -913l459 913h251z" />
    <glyph glyph-name="endash" unicode="&#x2013;" horiz-adv-x="1024" 
d="M858 530h-717l25 136h717z" />
    <glyph glyph-name="emdash" unicode="&#x2014;" horiz-adv-x="2048" 
d="M1882 530h-1741l25 136h1741z" />
    <glyph glyph-name="quoteleft" unicode="&#x2018;" horiz-adv-x="487" 
d="M168 948l276 465h195l-246 -489h-229z" />
    <glyph glyph-name="quoteright" unicode="&#x2019;" horiz-adv-x="487" 
d="M545 1391l-277 -467h-194l245 489h230z" />
    <glyph glyph-name="quotesinglbase" unicode="&#x201a;" horiz-adv-x="503" 
d="M289 219l-279 -467h-196l247 490h232z" />
    <glyph glyph-name="quotedblleft" unicode="&#x201c;" horiz-adv-x="876" 
d="M168 948l276 465h197l-248 -489h-229zM557 948l277 465h196l-248 -489h-229z" />
    <glyph glyph-name="quotedblright" unicode="&#x201d;" horiz-adv-x="876" 
d="M545 1391l-277 -467h-194l245 489h230zM934 1391l-277 -467h-194l246 489h229z" />
    <glyph glyph-name="quotedblbase" unicode="&#x201e;" horiz-adv-x="892" 
d="M289 219l-279 -467h-196l247 490h232zM678 219l-279 -467h-194l246 490h231z" />
    <glyph glyph-name="dagger" unicode="&#x2020;" horiz-adv-x="1167" 
d="M1063 748l-365 12l-168 -1088h-239l217 1090l-373 -14l35 196l367 -12l61 481h240l-107 -481l367 12z" />
    <glyph glyph-name="daggerdbl" unicode="&#x2021;" horiz-adv-x="1105" 
d="M692 762l-78 -438l373 14l-35 -197l-366 13l-62 -482h-239l106 482l-366 -13l34 197l365 -14l78 438l-371 -14l35 196l364 -12l62 481h239l-106 -481l369 12l-35 -196z" />
    <glyph glyph-name="bullet" unicode="&#x2022;" horiz-adv-x="759" 
d="M420 852q86 0 139 -50t53 -132q0 -114 -79 -192.5t-193 -78.5q-85 0 -137.5 49.5t-52.5 131.5q0 114 78 193t192 79z" />
    <glyph glyph-name="ellipsis" unicode="&#x2026;" horiz-adv-x="1425" 
d="M172 270q55 0 89 -33t34 -87q0 -79 -50 -129t-126 -50q-56 0 -90.5 33.5t-34.5 87.5q0 78 51 128t127 50zM633 270q55 0 89 -33t34 -87q0 -79 -50 -129t-126 -50q-56 0 -90.5 33.5t-34.5 87.5q0 78 51 128t127 50zM1094 270q55 0 89 -33t34 -87q0 -79 -50.5 -129
t-126.5 -50q-56 0 -90.5 33.5t-34.5 87.5q0 78 51.5 128t127.5 50z" />
    <glyph glyph-name="perthousand" unicode="&#x2030;" horiz-adv-x="2236" 
d="M438 780q-124 0 -198 75t-74 198q0 75 22.5 143.5t65.5 124t113.5 88.5t158.5 33q124 0 198.5 -74t74.5 -199q0 -75 -22.5 -143.5t-66 -124t-114 -88.5t-158.5 -33zM1276 1413h215l-1161 -1413h-215zM510 1307q-70 0 -114 -72t-44 -188q0 -62 26 -97t77 -35
q70 0 113.5 73t43.5 188q0 62 -25.5 96.5t-76.5 34.5zM1165 633q126 0 200.5 -74t74.5 -199q0 -75 -22.5 -143.5t-66 -124t-114 -88.5t-158.5 -33q-124 0 -198 75t-74 198q0 75 22.5 143.5t65.5 124t113 88.5t157 33zM1855 633q126 0 200.5 -74t74.5 -199q0 -75 -23 -143.5
t-66.5 -124t-113.5 -88.5t-158 -33q-125 0 -199.5 74.5t-74.5 198.5q0 75 23 143.5t66 124t113 88.5t158 33zM1096 106q70 0 113.5 73t43.5 188q0 62 -25.5 96.5t-76.5 34.5q-71 0 -115.5 -72.5t-44.5 -187.5q0 -62 26.5 -97t78.5 -35zM1786 106q69 0 113.5 73.5t44.5 187.5
q0 62 -26 96.5t-79 34.5q-69 0 -113.5 -72.5t-44.5 -187.5q0 -62 26 -97t79 -35z" />
    <glyph glyph-name="guilsinglleft" unicode="&#x2039;" horiz-adv-x="804" 
d="M414 492l211 -324h-172l-222 340l340 340h199z" />
    <glyph glyph-name="guilsinglright" unicode="&#x203a;" horiz-adv-x="811" 
d="M561 508l-340 -340h-201l357 356l-211 324h174z" />
    <glyph glyph-name="fraction" unicode="&#x2044;" horiz-adv-x="487" 
d="M-209 0h-211l1163 1413h211z" />
    <glyph glyph-name="Euro" unicode="&#x20ac;" 
d="M883 1442q238 0 336 -129l-117 -139q-86 96 -238 96q-89 0 -162 -29t-125 -82t-88 -119t-59 -147h571l-47 -135h-553q-8 -76 -10 -109h529l-41 -135h-488q10 -204 89 -287.5t225 -83.5q175 0 319 82l-33 -176q-149 -78 -344 -78q-110 0 -195 27t-153 88t-106 168.5
t-43 259.5h-164l45 135h123q2 35 10 109h-98l45 135h84q24 89 61.5 166.5t96 149.5t132.5 122.5t176 80.5t222 30z" />
    <glyph glyph-name="trademark" unicode="&#x2122;" horiz-adv-x="1103" 
d="M324 1266l-60 -332h-108l59 332h-152l17 86h407l-14 -86h-149zM1022 1350l-74 -416h-108l55 291l-131 -283h-113l-30 281l-50 -289h-108l74 416h161l27 -310l137 310h160z" />
    <glyph glyph-name="partialdiff" unicode="&#x2202;" 
d="M700 1552q449 0 449 -551q0 -104 -9 -204t-31 -204t-55.5 -194t-85 -169.5t-116.5 -136t-153.5 -89.5t-192.5 -33q-197 0 -313.5 107.5t-116.5 312.5q0 129 34 240.5t100 199.5t172.5 138.5t242.5 50.5q220 0 280 -143q6 67 6 129q0 184 -60.5 281t-201.5 97
q-93 0 -162.5 -24t-148.5 -80l-62 139q105 71 203 102t221 31zM528 141q91 0 163.5 70t118.5 188.5t71 280.5q-27 90 -91.5 130t-168.5 40q-142 0 -223 -129t-81 -330q0 -123 56 -186.5t155 -63.5z" />
    <glyph glyph-name="emptyset" unicode="&#x2205;" horiz-adv-x="1716" 
d="M1642 1403l-165 -166q178 -219 178 -510q0 -221 -106.5 -406.5t-289.5 -293t-401 -107.5q-292 0 -510 186l-174 -174l-98 101l172 172q-89 108 -138 241.5t-49 280.5q0 221 106.5 406.5t289.5 293t401 107.5q148 0 282 -51.5t240 -145.5l164 164zM213 727
q0 -236 139 -418l926 926q-181 160 -420 160q-177 0 -325.5 -89t-234 -242.5t-85.5 -336.5zM858 59q133 0 252.5 52.5t205.5 141.5t136.5 212.5t50.5 261.5q0 225 -131 406l-923 -924q177 -150 409 -150z" />
    <glyph glyph-name="product" unicode="&#x220f;" 
d="M1253 1235h-120l-261 -1460h-225l260 1460h-401l-260 -1460h-226l261 1460h-125l32 178h1098z" />
    <glyph glyph-name="summation" unicode="&#x2211;" 
d="M1190 1235h-707l377 -623l-665 -659h782l-33 -178h-1038l31 170l667 671l-375 627l31 170h963z" />
    <glyph glyph-name="minus" unicode="&#x2212;" 
d="M1030 586h-876l24 135h875z" />
    <glyph glyph-name="radical" unicode="&#x221a;" 
d="M1309 1597l-785 -1925h-180l-113 832h-145l25 131h256l96 -791l696 1753h150z" />
    <glyph glyph-name="infinity" unicode="&#x221e;" horiz-adv-x="2054" 
d="M1565 1114q212 0 324 -131t112 -356q0 -88 -21.5 -177.5t-69 -176.5t-116 -153.5t-171 -107.5t-224.5 -41q-325 0 -420 303q-104 -160 -217.5 -231.5t-267.5 -71.5q-212 0 -325.5 132t-113.5 356q0 88 21.5 177.5t69 176t116 153t171 107.5t224.5 41q157 0 266.5 -74.5
t157.5 -228.5q104 160 216.5 231.5t267.5 71.5zM528 135q50 0 100 23t99 70t93 127.5t75 187.5q-1 216 -65 311.5t-189 95.5q-66 0 -123.5 -32t-97 -83t-68 -115.5t-42 -130t-13.5 -124.5q0 -159 59.5 -244.5t171.5 -85.5zM1417 135q81 0 148.5 48.5t108.5 123t63 157
t22 157.5q0 159 -59.5 244t-171.5 85q-105 0 -204.5 -100t-158.5 -307q-1 -214 63 -311t189 -97z" />
    <glyph glyph-name="integral" unicode="&#x222b;" 
d="M883 1544q54 0 89.5 -9.5t69.5 -35.5l-53 -129q-27 23 -53 31t-66 8q-208 0 -208 -360q0 -153 30 -426q33 -247 33 -449q0 -232 -93 -367t-282 -135q-55 0 -90.5 9.5t-69.5 35.5l56 129q27 -23 52.5 -31t63.5 -8q211 0 211 361q0 153 -30 426q-33 250 -33 448
q0 151 38 261.5t123.5 175.5t211.5 65z" />
    <glyph glyph-name="approxequal" unicode="&#x2248;" horiz-adv-x="1183" 
d="M436 928q57 0 100.5 -17.5t127.5 -66.5q67 -40 103.5 -56t76.5 -16q49 0 87.5 23t82.5 75l84 -84q-69 -85 -137.5 -123t-151.5 -38q-56 0 -100 17.5t-125 66.5q-68 39 -105.5 55t-75.5 16q-91 0 -170 -100l-83 90q68 84 136 121t150 37zM375 580q57 0 99.5 -17.5
t127.5 -66.5q66 -39 104 -55.5t76 -16.5q49 0 88.5 23t81.5 75l82 -84q-68 -85 -135.5 -123.5t-150.5 -38.5q-56 0 -100.5 17.5t-125.5 66.5q-48 28 -71 40t-53 22t-56 10q-91 0 -170 -100l-82 90q67 84 134.5 121t150.5 37z" />
    <glyph glyph-name="notequal" unicode="&#x2260;" 
d="M772 786l-207 -278h463l-22 -131h-537l-139 -191h-156l139 191h-204l24 131h277l206 278h-434l23 132h508l139 190h156l-140 -190h234l-23 -132h-307z" />
    <glyph glyph-name="lessequal" unicode="&#x2264;" 
d="M1102 891l-768 -258l678 -256l-27 -158l-813 332l31 174l927 330zM100 135h871l-25 -135h-870z" />
    <glyph glyph-name="greaterequal" unicode="&#x2265;" 
d="M1061 725l-31 -174l-924 -332l29 166l764 258l-674 256l27 156zM92 135h864l-24 -135h-864z" />
    <glyph glyph-name="lozenge" unicode="&#x25ca;" horiz-adv-x="1071" 
d="M963 707l-463 -707h-178l-213 707l462 706h179zM793 707l-158 559l-356 -559l157 -560z" />
    <glyph glyph-name="a.alt" horiz-adv-x="1286" 
d="M1241 1087l-190 -1087h-224l31 170l-104 -117q-51 -37 -130.5 -59.5t-162.5 -22.5q-197 0 -304.5 121t-107.5 320q0 105 24.5 205.5t77.5 191t127.5 159t181.5 108.5t234 40q69 0 140 -22.5t106 -57.5l49 -106l27 157h225zM922 532l10 58q16 97 -2 176.5t-81 132.5
t-165 53q-119 0 -210.5 -76t-137 -193t-45.5 -251q0 -139 62.5 -218t183.5 -79q65 0 124 22t111.5 67.5t92 124t57.5 183.5z" />
    <glyph glyph-name="braceleft.001" horiz-adv-x="686" 
d="M770 1597l-22 -135h-31q-56 0 -88 -9.5t-55 -41t-31 -89t-6 -155.5q2 -97 -8 -170t-35.5 -134t-74 -98t-118.5 -48q72 -11 110 -52t38 -108q0 -101 -72 -291q-39 -105 -51.5 -147.5t-12.5 -73.5q0 -38 33.5 -56t108.5 -18h28l-24 -135h-43q-122 0 -184 45t-62 144
q0 44 13.5 91.5t60.5 170.5q61 163 61 250q0 101 -145 112l24 135q51 5 83.5 15t59.5 32.5t41 62.5t21 101.5t6 151.5q-2 181 28 276.5t100 134.5t204 39h43z" />
    </font>
</defs>
</svg>
