<?xml version="1.0" standalone="no"?>
<!DOCTYPE svg PUBLIC "-//W3C//DTD SVG 1.1//EN" "http://www.w3.org/Graphics/SVG/1.1/DTD/svg11.dtd" >
<svg xmlns="http://www.w3.org/2000/svg" xmlns:xlink="http://www.w3.org/1999/xlink" version="1.1">
<metadata>
Created by FontForge 20170731 at Wed Dec 14 12:20:10 2022
 By Aleksey,,,
No Rights Reserved.
</metadata>
<defs>
<font id="Aileron-Thin" horiz-adv-x="1112" >
  <font-face 
    font-family="Aileron Thin"
    font-weight="250"
    font-stretch="normal"
    units-per-em="2048"
    panose-1="0 0 3 0 0 0 0 0 0 0"
    ascent="1577"
    descent="-471"
    x-height="1065"
    cap-height="1413"
    bbox="-385 -457 2204 1833"
    underline-thickness="102"
    underline-position="-307"
    unicode-range="U+0020-FB02"
  />
<missing-glyph horiz-adv-x="1024" 
d="M0 0v1434h1024v-1434h-1024zM512 809l348 522h-696zM573 717l349 -522v1044zM164 102h696l-348 523zM102 1239v-1044l349 522z" />
    <glyph glyph-name="fi" unicode="fi" horiz-adv-x="876" 
d="M727 1071v-1071h-78v1006h-405v-1006h-78v1006h-117v65h117v76q0 72 4 113q12 129 110.5 206.5t264.5 77.5q58 0 104 -10v-68q-192 23 -290.5 -38t-110.5 -173q-4 -41 -4 -104v-80h483z" />
    <glyph glyph-name="fl" unicode="fl" horiz-adv-x="841" 
d="M670 131q3 -51 28 -66.5t90 -7.5v-61q-25 -6 -75 -6q-55 0 -86.5 27.5t-34.5 93.5q-2 41 -2 149v1196q-45 23 -121 23q-115 0 -173.5 -63t-68.5 -161q-4 -41 -4 -104v-80h221v-65h-221v-1006h-78v1006h-96v65h96v76q0 62 5 113q12 131 93 207.5t226 76.5q123 0 199 -39
v-1243q0 -100 2 -131z" />
    <glyph glyph-name=".notdef" horiz-adv-x="1024" 
d="M0 0v1434h1024v-1434h-1024zM512 809l348 522h-696zM573 717l349 -522v1044zM164 102h696l-348 523zM102 1239v-1044l349 522z" />
    <glyph glyph-name=".null" horiz-adv-x="0" 
 />
    <glyph glyph-name="nonmarkingreturn" horiz-adv-x="682" 
 />
    <glyph glyph-name="space" unicode=" " horiz-adv-x="393" 
 />
    <glyph glyph-name="exclam" unicode="!" horiz-adv-x="434" 
d="M252 262h-70l-12 1151h94zM217 98q28 0 46 -17.5t18 -45.5t-18 -46t-46 -18q-27 0 -45 18.5t-18 45.5t18 45t45 18z" />
    <glyph glyph-name="quotedbl" unicode="&#x22;" horiz-adv-x="403" 
d="M147 1004h-61l-10 501h80zM330 1004h-62l-10 501h80z" />
    <glyph glyph-name="numbersign" unicode="#" 
d="M760 864l-68 -315h238v-60h-250l-105 -489h-61l104 489h-217l-104 -489h-61l104 489h-219v60h231l68 315h-238v62h250l105 487h61l-104 -487h217l104 487h62l-105 -487h219v-62h-231zM698 864h-217l-67 -315h217z" />
    <glyph glyph-name="dollar" unicode="$" 
d="M606 1374v-626q199 -59 297 -160.5t98 -255.5q0 -149 -106.5 -250.5t-288.5 -110.5v-155h-63v155q-180 9 -300 113t-137 289h82q17 -150 111.5 -236.5t243.5 -95.5v633q-83 23 -146.5 53t-118 76t-83.5 113t-29 153q0 161 106 260.5t271 110.5v157h63v-155
q174 -9 273.5 -117t121.5 -274h-79q-17 146 -99 231t-217 92zM250 1075q0 -69 21 -122t62.5 -89.5t91 -60.5t118.5 -45v614q-126 -10 -209.5 -87t-83.5 -210zM606 662v-623q147 7 229.5 84t82.5 201q0 125 -76.5 206.5t-235.5 131.5z" />
    <glyph glyph-name="percent" unicode="%" horiz-adv-x="1452" 
d="M403 1440q124 0 198.5 -91.5t74.5 -234.5q0 -141 -74.5 -233.5t-198.5 -92.5q-125 0 -198.5 92t-73.5 234q0 144 73.5 235t198.5 91zM311 0h-84l916 1413h84zM403 1376q-92 0 -142 -70.5t-50 -191.5q0 -120 50 -191t142 -71q91 0 142 71.5t51 190.5q0 120 -51 191
t-142 71zM1051 623q124 0 198 -91.5t74 -234.5q0 -141 -74.5 -233.5t-197.5 -92.5q-125 0 -199 92.5t-74 233.5q0 144 74 235t199 91zM1051 559q-92 0 -142.5 -70.5t-50.5 -191.5q0 -120 50.5 -191t142.5 -71q91 0 141.5 71.5t50.5 190.5q0 120 -50.5 191t-141.5 71z" />
    <glyph glyph-name="ampersand" unicode="&#x26;" horiz-adv-x="1318" 
d="M1268 743v-69h-217v-668q-178 -35 -367 -35q-130 0 -225 16.5t-169 56.5t-111.5 112t-37.5 176q0 155 102.5 254t272.5 123q-137 22 -220 107t-83 237q0 169 131.5 279t337.5 110q129 0 246 -21v-69q-115 22 -252 22q-166 0 -271.5 -85.5t-105.5 -231.5q0 -295 348 -312
q39 -2 125 -2h201v291h78v-291h217zM227 338q0 -166 115.5 -232.5t345.5 -66.5q170 0 285 22v613h-201q-84 0 -125 -4q-420 -36 -420 -332z" />
    <glyph glyph-name="quotesingle" unicode="'" horiz-adv-x="210" 
d="M125 1004h-62l-8 501h80z" />
    <glyph glyph-name="parenleft" unicode="(" horiz-adv-x="612" 
d="M477 1597h64q-112 -188 -174 -414.5t-62 -465.5q0 -238 62 -466t174 -415h-64q-110 167 -174.5 403.5t-64.5 477.5t64.5 477t174.5 403z" />
    <glyph glyph-name="parenright" unicode=")" horiz-adv-x="612" 
d="M68 1597h63q110 -167 175 -403t65 -477t-65 -477.5t-175 -403.5h-63q113 185 174 413t61 468q0 241 -61 467.5t-174 412.5z" />
    <glyph glyph-name="asterisk" unicode="*" horiz-adv-x="1101" 
d="M575 582l324 118l21 -63l-328 -100l231 -301l-55 -39l-217 313l-217 -313l-55 39l231 301l-328 100l21 63l323 -118l-10 389h70z" />
    <glyph glyph-name="plus" unicode="+" 
d="M971 618h-383v-440h-64v440h-383v62h383v442h64v-442h383v-62z" />
    <glyph glyph-name="comma" unicode="," horiz-adv-x="344" 
d="M176 76l-125 -316h-69l110 328h82z" />
    <glyph glyph-name="hyphen" unicode="-" horiz-adv-x="561" 
d="M496 547h-430v61h430v-61z" />
    <glyph glyph-name="period" unicode="." horiz-adv-x="344" 
d="M143 98q28 0 46 -17.5t18 -45.5t-18 -46t-46 -18q-27 0 -45 18.5t-18 45.5t18 45t45 18z" />
    <glyph glyph-name="slash" unicode="/" horiz-adv-x="559" 
d="M55 -61h-65l514 1536h65z" />
    <glyph glyph-name="zero" unicode="0" 
d="M555 1442q103 0 184.5 -36t136.5 -100t90.5 -157t51.5 -202t16 -240t-16 -240.5t-51.5 -202.5t-90.5 -157t-136.5 -100t-184.5 -36q-128 0 -222 54.5t-149.5 155.5t-81.5 231.5t-26 294.5q0 166 26 296.5t81.5 230.5t149.5 154t222 54zM555 39q393 0 393 668
q0 667 -393 667t-393 -667q0 -149 21 -267t66 -210t122.5 -141.5t183.5 -49.5z" />
    <glyph glyph-name="one" unicode="1" 
d="M743 1413v-1413h-77v1329l-390 -237v84l320 200q61 37 102 37h45z" />
    <glyph glyph-name="two" unicode="2" 
d="M1008 68v-68h-916v49l496 488q188 185 257.5 292.5t69.5 221.5q0 140 -85.5 231.5t-237.5 91.5q-153 0 -250.5 -96.5t-114.5 -263.5l-2 -21h-78l3 21q20 197 141 312.5t305 115.5q194 0 299.5 -109t105.5 -276q0 -132 -83.5 -258t-276.5 -312l-432 -419h799z" />
    <glyph glyph-name="three" unicode="3" 
d="M709 737q150 -29 232.5 -118.5t82.5 -239.5q0 -124 -63.5 -217.5t-170 -142t-239.5 -48.5q-194 0 -315 108.5t-142 317.5l-2 21h78l2 -21q18 -164 118.5 -261t264.5 -97q169 0 276 89.5t107 248.5q0 143 -100.5 227t-302.5 84h-35v68h35q94 0 178.5 37t141 112.5
t56.5 173.5q0 143 -88 219t-229 76q-150 0 -247 -88.5t-114 -247.5l-2 -20h-77l2 20q19 188 139.5 296t304.5 108q187 0 292 -99t105 -256q0 -127 -81 -223.5t-207 -126.5z" />
    <glyph glyph-name="four" unicode="4" 
d="M1055 397h-197v-397h-78v397h-731v45l739 971h70v-948h197v-68zM780 465v838q-61 -95 -168 -232l-460 -606h628z" />
    <glyph glyph-name="five" unicode="5" 
d="M580 897q202 0 318 -129t116 -330q0 -108 -38 -197t-103 -147.5t-149.5 -90.5t-178.5 -32q-174 0 -294.5 99.5t-141.5 296.5l-3 20h78l2 -20q19 -149 112.5 -238.5t246.5 -89.5q75 0 142.5 24.5t122 72t86.5 124.5t32 174q0 180 -99 287.5t-260 107.5q-252 0 -360 -227
h-76l125 805h737v-68h-671l-105 -630l80 98q126 90 281 90z" />
    <glyph glyph-name="six" unicode="6" 
d="M578 942q142 0 246.5 -66.5t156 -175.5t51.5 -245q0 -206 -134 -345t-343 -139q-467 0 -467 647q0 214 36.5 373.5t104.5 257.5t159.5 145.5t207.5 47.5q348 0 412 -365l4 -20h-80l-4 20q-31 151 -113.5 224t-220.5 73q-70 0 -128 -18.5t-113.5 -68t-94 -129t-64 -208.5
t-28.5 -299l51 111q133 180 361 180zM557 39q174 0 281.5 117.5t107.5 292.5q0 187 -102 306t-277 119q-163 0 -275 -111.5t-112 -285.5q0 -189 101 -313.5t276 -124.5z" />
    <glyph glyph-name="seven" unicode="7" 
d="M1038 1413v-37l-735 -1376h-86l721 1346h-844v67h944z" />
    <glyph glyph-name="eight" unicode="8" 
d="M739 739q138 -37 213.5 -134.5t75.5 -235.5q0 -128 -67.5 -220.5t-172.5 -136t-233 -43.5q-207 0 -340 104t-133 296q0 136 84 234t225 134q-113 34 -177 122t-64 212q0 162 112.5 266.5t308.5 104.5q200 0 310 -104t110 -267q0 -123 -68.5 -212t-183.5 -120zM236 1071
q0 -74 27.5 -133t74.5 -95.5t106.5 -55.5t126.5 -19q91 0 165.5 32t122.5 102.5t48 168.5q0 138 -90.5 220.5t-245.5 82.5t-245 -82.5t-90 -220.5zM559 37q100 0 185 35t141.5 111.5t56.5 183.5q0 149 -97 241t-282 92q-187 0 -291 -93t-104 -240q0 -81 32.5 -145t87.5 -104
t124 -60.5t147 -20.5z" />
    <glyph glyph-name="nine" unicode="9" 
d="M555 1442q469 0 469 -647q0 -412 -135.5 -618t-372.5 -206q-347 0 -414 367l-2 20h80l4 -20q60 -299 336 -299q406 0 424 719l-51 -107q-130 -180 -358 -180q-142 0 -247 67t-156.5 176t-51.5 244q0 207 133.5 345.5t341.5 138.5zM545 539q163 0 274 111.5t111 285.5
q0 123 -43 221.5t-129 157.5t-203 59q-175 0 -282 -116.5t-107 -292.5q0 -186 102 -306t277 -120z" />
    <glyph glyph-name="colon" unicode=":" horiz-adv-x="344" 
d="M143 1108q28 0 46 -18t18 -46q0 -26 -18.5 -44.5t-45.5 -18.5q-26 0 -44.5 18.5t-18.5 44.5q0 28 18 46t45 18zM143 98q28 0 46 -17.5t18 -45.5t-18 -46t-46 -18q-27 0 -45 18.5t-18 45.5t18 45t45 18z" />
    <glyph glyph-name="semicolon" unicode=";" horiz-adv-x="344" 
d="M143 1108q28 0 46 -18t18 -46q0 -26 -18.5 -44.5t-45.5 -18.5q-26 0 -44.5 18.5t-18.5 44.5q0 28 18 46t45 18zM176 80l-123 -320h-71l110 334h84v-14z" />
    <glyph glyph-name="less" unicode="&#x3c;" 
d="M983 905l-743 -360l743 -363v-73l-821 401v65l821 404v-74z" />
    <glyph glyph-name="equal" unicode="=" 
d="M985 809h-860v59h860v-59zM985 430h-860v59h860v-59z" />
    <glyph glyph-name="greater" unicode="&#x3e;" 
d="M946 575v-65l-821 -401v71l745 363l-745 360v76z" />
    <glyph glyph-name="question" unicode="?" horiz-adv-x="1056" 
d="M530 1442q190 0 296 -103.5t106 -263.5q0 -201 -197 -391q-127 -122 -165 -203t-40 -219h-73q3 153 41.5 238.5t167.5 214.5q96 98 138 181t42 179q0 138 -86 218.5t-230 80.5q-159 0 -251.5 -96.5t-104.5 -265.5h-80q8 192 128.5 311t307.5 119zM496 98q27 0 45 -18
t18 -45t-18.5 -45.5t-44.5 -18.5q-28 0 -46 18t-18 46t18 45.5t46 17.5z" />
    <glyph glyph-name="at" unicode="@" horiz-adv-x="1742" 
d="M1245 952l-108 -456q-23 -105 -23 -152q0 -61 36.5 -95t104.5 -34q128 0 217 127.5t89 337.5q0 288 -169.5 453t-439.5 165q-106 0 -214 -34t-206.5 -102t-174.5 -161.5t-121.5 -222.5t-45.5 -274q0 -157 51 -284t137.5 -207t197.5 -122.5t235 -42.5q155 0 284 40.5
t265 136.5l31 -56q-156 -106 -289 -144t-293 -38q-105 0 -204 27.5t-187 85.5t-154 140.5t-104.5 201t-38.5 258.5q0 157 48.5 296t131 240.5t190.5 175.5t229 111t243 37q296 0 480.5 -187t184.5 -485q0 -130 -33 -234t-88 -168t-123 -98t-143 -34q-86 0 -144.5 44.5
t-62.5 143.5l-37 -80q-105 -125 -237 -125q-48 0 -91 15t-83 49t-64 98.5t-24 153.5q0 141 56 263.5t157 197.5t223 75q109 0 162 -67l34 -107l35 137h80zM1073 557l19 82q29 125 -17.5 205t-142.5 80q-93 0 -173 -62t-127.5 -169t-47.5 -232q0 -129 51 -193.5t141 -64.5
q97 0 176.5 88.5t120.5 265.5z" />
    <glyph glyph-name="A" unicode="A" horiz-adv-x="1273" 
d="M956 539h-604l-198 -539h-84l538 1413h103l532 -1413h-84zM379 606h553l-275 744z" />
    <glyph glyph-name="B" unicode="B" horiz-adv-x="1222" 
d="M827 748q156 -29 236 -122.5t80 -240.5q0 -85 -31 -155t-84.5 -116.5t-122.5 -74t-147 -33.5q-57 -6 -150 -6h-409v1413h370q96 0 166 -4q165 -14 260 -102.5t95 -235.5q0 -129 -70 -212.5t-193 -110.5zM276 1346v-574h324q23 0 113 4q59 5 108.5 22.5t92.5 49.5
t67.5 86.5t24.5 126.5q0 73 -25.5 128t-69.5 86.5t-96 48t-113 19.5q-67 3 -129 3h-297zM733 72q64 5 120.5 25t103.5 55.5t74.5 94t27.5 132.5q0 65 -17.5 119t-54 99t-101 72t-151.5 31q-59 5 -108 5h-351v-637h363q40 0 94 4z" />
    <glyph glyph-name="C" unicode="C" horiz-adv-x="1398" 
d="M750 1442q118 0 214 -35t162 -97.5t108 -144t60 -180.5l2 -20h-77l-5 20q-35 175 -156.5 282t-314.5 107q-111 0 -210.5 -45.5t-176.5 -128.5t-122.5 -211t-45.5 -282q0 -161 42.5 -289.5t116 -210.5t170.5 -125t210 -43q205 0 327 111.5t160 295.5l5 21h77l-2 -21
q-18 -101 -61 -185t-111.5 -150t-170.5 -103t-228 -37q-278 0 -449.5 198.5t-171.5 532.5q0 215 84.5 384.5t232 262.5t331.5 93z" />
    <glyph glyph-name="D" unicode="D" horiz-adv-x="1406" 
d="M770 1409q77 -7 152 -34t150 -82t131 -131.5t91 -192t35 -254.5q0 -137 -35 -253.5t-90 -194.5t-127.5 -135.5t-143.5 -86t-142 -37.5q-72 -8 -181 -8h-411v1413h413q101 0 158 -4zM780 78q70 9 135.5 38.5t125.5 83t104.5 125.5t71 173t26.5 217q0 119 -28 220t-75 171
t-109.5 121t-129.5 77.5t-137 34.5q-53 7 -154 7h-334v-1278h330q98 0 174 10z" />
    <glyph glyph-name="E" unicode="E" horiz-adv-x="1157" 
d="M1094 68v-68h-895v1413h874v-65h-797v-609h750v-65h-750v-606h818z" />
    <glyph glyph-name="F" unicode="F" horiz-adv-x="1105" 
d="M276 1348v-609h730v-65h-730v-674h-77v1413h874v-65h-797z" />
    <glyph glyph-name="G" unicode="G" horiz-adv-x="1429" 
d="M786 643h519v-643h-72v342l-47 -131q-78 -122 -198.5 -181t-260.5 -59q-281 0 -453 198.5t-172 532.5q0 216 86 385t237 262t341 93q231 0 369 -126t174 -331l4 -20h-78l-4 20q-35 175 -156.5 282t-316.5 107q-114 0 -217 -45.5t-181.5 -128.5t-125 -211t-46.5 -282
q0 -161 42.5 -289.5t116.5 -210.5t172.5 -125t213.5 -43q68 0 135 18t132.5 59.5t115.5 101.5t80.5 152.5t30.5 204.5h-441v68z" />
    <glyph glyph-name="H" unicode="H" horiz-adv-x="1380" 
d="M1231 1413v-1413h-78v659h-877v-659h-77v1413h77v-686h877v686h78z" />
    <glyph glyph-name="I" unicode="I" horiz-adv-x="425" 
d="M276 0h-77v1413h77v-1413z" />
    <glyph glyph-name="J" unicode="J" horiz-adv-x="1038" 
d="M909 1413v-878q0 -115 -4 -183q-5 -78 -31 -145t-74 -120.5t-124.5 -84.5t-173.5 -31q-185 0 -289 108t-111 318l-2 68h78l2 -68q7 -186 95.5 -272t236.5 -86q141 0 222 83.5t93 237.5q4 43 4 164v889h78z" />
    <glyph glyph-name="K" unicode="K" horiz-adv-x="1161" 
d="M438 727l697 -727h-113l-643 676l-103 -103v-573h-77v1413h77v-751l781 751h96z" />
    <glyph glyph-name="L" unicode="L" horiz-adv-x="1122" 
d="M1094 68v-68h-895v1413h77v-1345h818z" />
    <glyph glyph-name="M" unicode="M" horiz-adv-x="1662" 
d="M1513 1413v-1413h-75v797q0 465 2 551q-106 -290 -213 -551l-322 -797h-98l-322 799q-131 324 -213 547q4 -172 4 -549v-797h-77v1413h127l532 -1345l537 1345h118z" />
    <glyph glyph-name="N" unicode="N" horiz-adv-x="1345" 
d="M1198 0h-121l-805 1339q4 -184 4 -585v-754h-77v1413h118l807 -1339q-4 184 -4 588v751h76z" />
    <glyph glyph-name="O" unicode="O" horiz-adv-x="1472" 
d="M750 1442q194 0 341.5 -95t225.5 -261.5t78 -378.5t-78 -378.5t-225.5 -262t-341.5 -95.5q-195 0 -343 95.5t-226.5 262t-78.5 378.5t78.5 378.5t226.5 261.5t343 95zM750 39q116 0 217.5 45.5t177.5 129t120 211t44 282.5q0 156 -44 283.5t-120 210.5t-177.5 128
t-217.5 45q-117 0 -219 -45t-178.5 -128t-120.5 -210.5t-44 -283.5q0 -155 44 -282.5t120.5 -211t178.5 -129t219 -45.5z" />
    <glyph glyph-name="P" unicode="P" horiz-adv-x="1105" 
d="M741 1403q159 -20 254 -114t95 -265q0 -176 -96.5 -275.5t-252.5 -121.5q-74 -9 -198 -9h-267v-618h-77v1413h344q115 0 198 -10zM733 696q124 19 198.5 99t74.5 229q0 141 -74.5 217t-198.5 92q-74 10 -186 10h-271v-657h271q112 0 186 10z" />
    <glyph glyph-name="Q" unicode="Q" horiz-adv-x="1474" 
d="M1395 707q0 -436 -318 -633q84 -3 149 -32t140 -93l-45 -55q-84 62 -148 86t-139 24q-54 0 -139 -18q-73 -15 -145 -15q-195 0 -343 95.5t-226.5 262t-78.5 378.5t78.5 378.5t226.5 261.5t343 95q194 0 341.5 -95t225.5 -261.5t78 -378.5zM188 707q0 -155 44 -282.5
t120.5 -211t178.5 -129t219 -45.5q116 0 217.5 45.5t177.5 129t120 211t44 282.5q0 156 -44 283.5t-120 210.5t-177.5 128t-217.5 45q-117 0 -219 -45t-178.5 -128t-120.5 -210.5t-44 -283.5z" />
    <glyph glyph-name="R" unicode="R" horiz-adv-x="1193" 
d="M1040 383q16 -145 38 -229t57 -154h-88q-30 83 -49 160t-35 211q-15 130 -75 211.5t-175 87.5q-43 2 -123 2h-314v-672h-77v1413h372q117 0 199 -10q165 -21 254.5 -109t89.5 -243q0 -134 -76.5 -224.5t-203.5 -117.5q90 -31 141.5 -117t64.5 -209zM276 739h316
q90 0 149 4q133 11 211 91.5t78 209.5q0 255 -278 291q-78 11 -181 11h-295v-607z" />
    <glyph glyph-name="S" unicode="S" horiz-adv-x="1159" 
d="M598 1442q193 0 306.5 -111.5t135.5 -286.5h-82q-23 156 -121 243t-245 87q-52 0 -103 -11t-96.5 -34.5t-80.5 -56.5t-55.5 -80t-20.5 -102q0 -71 21 -120.5t71.5 -87.5t116 -64t173.5 -56q116 -31 195.5 -66.5t136.5 -84t84 -112t27 -147.5q0 -164 -132.5 -272.5
t-332.5 -108.5q-135 0 -243 44t-180 137t-87 225h82q23 -160 142.5 -249t287.5 -89q163 0 271 84t108 217q0 141 -87.5 215t-303.5 133q-115 31 -191.5 63t-133.5 77.5t-83 106t-26 142.5q0 158 130.5 261.5t315.5 103.5z" />
    <glyph glyph-name="T" unicode="T" horiz-adv-x="1204" 
d="M1208 1348h-532v-1348h-78v1348h-530v65h1140v-65z" />
    <glyph glyph-name="U" unicode="U" horiz-adv-x="1271" 
d="M1135 1413v-924q0 -35 -7 -135q-13 -173 -133 -278t-336 -105q-215 0 -334 105t-132 278q-7 100 -7 135v924h78v-926q0 -65 6 -127q13 -143 110.5 -232t278.5 -89q183 0 281 89t111 232q6 62 6 127v926h78z" />
    <glyph glyph-name="V" unicode="V" horiz-adv-x="1214" 
d="M694 0h-106l-531 1413h84l502 -1350l504 1350h84z" />
    <glyph glyph-name="W" unicode="W" horiz-adv-x="1751" 
d="M1753 1413l-385 -1413h-100l-365 1317l-387 -1317h-104l-359 1413h86l330 -1339l383 1319h106l363 -1317l352 1337h80z" />
    <glyph glyph-name="X" unicode="X" horiz-adv-x="1198" 
d="M657 711l517 -711h-99l-463 655l-462 -655h-95l508 707l-471 706h88l432 -647l469 647h97z" />
    <glyph glyph-name="Y" unicode="Y" horiz-adv-x="1134" 
d="M625 573v-573h-78v573l-502 840h90l455 -762l446 762h90z" />
    <glyph glyph-name="Z" unicode="Z" horiz-adv-x="1128" 
d="M1077 68v-68h-997v59l895 1287h-838v67h928v-65l-891 -1280h903z" />
    <glyph glyph-name="bracketleft" unicode="[" horiz-adv-x="634" 
d="M571 1597v-61h-254v-1638h254v-62h-317v1761h317z" />
    <glyph glyph-name="backslash" unicode="\" horiz-adv-x="559" 
d="M569 -61h-65l-514 1536h65z" />
    <glyph glyph-name="bracketright" unicode="]" horiz-adv-x="628" 
d="M377 -164h-320v62h256v1638h-256v61h320v-1761z" />
    <glyph glyph-name="asciicircum" unicode="^" 
d="M877 440l-318 760l-319 -760h-72l354 822h76l350 -822h-71z" />
    <glyph glyph-name="underscore" unicode="_" horiz-adv-x="1024" 
d="M922 -168h-820v62h820v-62z" />
    <glyph glyph-name="grave" unicode="`" horiz-adv-x="614" 
d="M342 1188h-57l-150 225h84z" />
    <glyph glyph-name="a" unicode="a" horiz-adv-x="1030" 
d="M821 0l-14 236l-51 -109q-55 -77 -140 -116.5t-188 -39.5q-156 0 -247 76t-91 219q0 121 88 204.5t230 121t327 37.5h70v49q0 92 -4 137q-9 110 -79.5 168.5t-197.5 58.5q-78 0 -142.5 -27t-111 -89t-57.5 -152h-80q11 146 119.5 240t271.5 94q165 0 254 -74t101 -211
q4 -53 4 -141v-352q0 -124 18 -330h-80zM446 37q158 0 258.5 113t100.5 274v139q-120 8 -230 -5t-200.5 -46.5t-144.5 -96t-54 -145.5q0 -111 68.5 -172t201.5 -61z" />
    <glyph glyph-name="b" unicode="b" horiz-adv-x="1148" 
d="M614 1108q215 0 344 -155.5t129 -401.5q0 -141 -40.5 -253.5t-110 -182.5t-158.5 -107t-190 -37q-187 0 -301 123l-62 127v-221h-78v1505h78v-653l64 121q65 72 142.5 103.5t182.5 31.5zM588 37q183 0 298 138t115 364q0 140 -44 252t-135 181.5t-216 69.5
q-80 0 -146.5 -24.5t-120.5 -76.5t-84 -143.5t-30 -215.5v-107q0 -96 22 -173t57.5 -125.5t84 -81t97.5 -45.5t102 -13z" />
    <glyph glyph-name="c" unicode="c" horiz-adv-x="1064" 
d="M559 1108q178 0 295.5 -101.5t142.5 -269.5h-79q-28 145 -121.5 226t-241.5 81q-75 0 -146.5 -31t-130.5 -89.5t-95 -155.5t-36 -217q0 -127 33.5 -228t90 -162t127 -92.5t149.5 -31.5q134 0 232.5 76.5t127.5 214.5h80q-33 -167 -154 -262t-292 -95q-100 0 -187 37.5
t-152.5 108t-103 179.5t-37.5 243q0 129 40 237.5t108 180.5t158.5 111.5t191.5 39.5z" />
    <glyph glyph-name="d" unicode="d" horiz-adv-x="1150" 
d="M1001 1505v-1505h-77v229l-64 -123q-65 -72 -142.5 -103.5t-182.5 -31.5q-143 0 -251.5 71.5t-165.5 198t-57 289.5q0 140 40.5 252t110.5 182t159 107t190 37q187 0 301 -123l62 -125v645h77zM543 37q64 0 118.5 15t104 49.5t84 87t54.5 132t20 179.5v104q0 96 -22 173
t-57.5 125.5t-84 81t-97.5 45.5t-102 13q-183 0 -298.5 -138t-115.5 -363q0 -103 26 -193.5t75 -160t125 -110t170 -40.5z" />
    <glyph glyph-name="e" unicode="e" horiz-adv-x="1081" 
d="M1006 569q0 -24 -2 -51h-861q4 -126 39.5 -222t92 -150.5t122.5 -81.5t140 -27q130 0 232 76t140 223h80q-43 -177 -168 -271t-289 -94q-98 0 -182.5 36.5t-149.5 106.5t-102 180.5t-37 248.5q0 126 38 232.5t104 179t156 113t192 40.5q111 0 199.5 -44.5t143 -120
t83.5 -171.5t29 -203zM547 1042q-72 0 -141 -28.5t-127 -83t-95 -144t-41 -200.5h783q-4 120 -38 211t-88.5 143t-118 77t-134.5 25z" />
    <glyph glyph-name="f" unicode="f" horiz-adv-x="501" 
d="M248 1331q-4 -41 -4 -104v-156h221v-65h-221v-1006h-78v1006h-117v65h117v152q0 73 4 114q10 101 70 154t143 53q56 0 102 -10v-68q-110 25 -168.5 -13.5t-68.5 -121.5z" />
    <glyph glyph-name="g" unicode="g" horiz-adv-x="1150" 
d="M1001 1085v-802q0 -229 -2 -297q-6 -199 -127.5 -315.5t-332.5 -116.5q-87 0 -158.5 18.5t-129 57t-94.5 103.5t-48 154l-5 27h80l2 -27q18 -134 115.5 -200t241.5 -66q179 0 276.5 100.5t102.5 270.5q2 68 2 201v36l-64 -123q-65 -72 -142.5 -103.5t-182.5 -31.5
q-143 0 -251.5 71.5t-165.5 198t-57 289.5q0 140 40.5 252t110.5 182t159 107t190 37q187 0 301 -123l62 -125v225h77zM543 37q64 0 118.5 15t104 49.5t84 87t54.5 132t20 179.5v104q0 96 -22 173t-57.5 125.5t-84 81t-97.5 45.5t-102 13q-183 0 -298.5 -138t-115.5 -363
q0 -103 26 -193.5t75 -160t125 -110t170 -40.5z" />
    <glyph glyph-name="h" unicode="h" horiz-adv-x="1118" 
d="M973 780q8 -73 8 -178v-602h-78v584q0 101 -8 174q-14 133 -89.5 208t-215.5 74q-73 0 -137.5 -26.5t-116 -78t-81.5 -138.5t-30 -199v-598h-78v1516h78v-668l49 113q118 147 324 147q166 0 263 -86.5t112 -241.5z" />
    <glyph glyph-name="i" unicode="i" horiz-adv-x="374" 
d="M186 1364q25 0 42.5 -17t17.5 -42t-17.5 -42.5t-42.5 -17.5t-42 17.5t-17 42.5t17 42t42 17zM225 0h-78v1079h78v-1079z" />
    <glyph glyph-name="j" unicode="j" horiz-adv-x="358" 
d="M172 1364q25 0 42 -17t17 -42t-17 -42.5t-42 -17.5q-24 0 -40.5 17.5t-16.5 42.5t16 42t41 17zM211 1079v-1214q0 -76 -2 -113q-6 -91 -57 -136.5t-134 -45.5q-32 0 -73 6v66q89 -14 135.5 12.5t50.5 107.5q2 29 2 82v1235h78z" />
    <glyph glyph-name="k" unicode="k" horiz-adv-x="970" 
d="M322 510l-97 -92v-418h-78v1505h78v-999l602 573h107l-555 -520l559 -559h-111z" />
    <glyph glyph-name="l" unicode="l" horiz-adv-x="393" 
d="M219 1505v-1243q0 -100 2 -131q3 -51 28 -66.5t91 -7.5v-61q-25 -6 -76 -6q-55 0 -86.5 27.5t-34.5 93.5q-2 41 -2 149v1245h78z" />
    <glyph glyph-name="m" unicode="m" horiz-adv-x="1681" 
d="M1534 793q8 -73 8 -179v-614h-78v580q0 113 -8 186q-14 131 -79.5 203.5t-184.5 72.5q-136 0 -221.5 -110.5t-85.5 -333.5v-598h-78v580q0 113 -8 186q-16 131 -82 203.5t-185 72.5q-135 0 -221 -110.5t-86 -333.5v-598h-78v1079h78v-211l54 119q103 121 272 121
q128 0 207.5 -67.5t107.5 -192.5l72 139q103 121 270 121q144 0 226 -82t100 -233z" />
    <glyph glyph-name="n" unicode="n" horiz-adv-x="1118" 
d="M973 780q8 -73 8 -178v-602h-78v584q0 101 -8 174q-14 132 -89 207t-216 75q-73 0 -137.5 -26.5t-116 -78t-81.5 -138.5t-30 -199v-598h-78v1079h78v-231l49 113q118 147 324 147q166 0 263 -86.5t112 -241.5z" />
    <glyph glyph-name="o" unicode="o" horiz-adv-x="1150" 
d="M575 1108q236 0 375.5 -157.5t139.5 -411.5q0 -253 -139.5 -410.5t-375.5 -157.5t-375 157.5t-139 410.5q0 254 139 411.5t375 157.5zM575 37q87 0 164 32t137 93t95 158.5t35 218.5q0 122 -35 219.5t-95 158.5t-137 93t-164 32t-163.5 -32t-136 -93t-94 -158.5
t-34.5 -219.5t34.5 -219t94 -158t136 -93t163.5 -32z" />
    <glyph glyph-name="p" unicode="p" horiz-adv-x="1148" 
d="M614 1108q215 0 344 -155.5t129 -401.5q0 -141 -40.5 -253.5t-110 -182.5t-158.5 -107t-190 -37q-187 0 -301 123l-62 127v-622h-78v1493h78v-240l64 121q65 72 142.5 103.5t182.5 31.5zM588 37q183 0 298 138t115 364q0 140 -44 252t-135 181.5t-216 69.5
q-80 0 -146.5 -24.5t-120.5 -76.5t-84 -143.5t-30 -215.5v-107q0 -96 22 -173t57.5 -125.5t84 -81t97.5 -45.5t102 -13z" />
    <glyph glyph-name="q" unicode="q" horiz-adv-x="1153" 
d="M1004 1092v-1493h-78v634l-66 -127q-65 -72 -142.5 -103.5t-182.5 -31.5q-143 0 -251.5 71.5t-165.5 198t-57 289.5q0 140 40.5 252t110.5 182t159 107t190 37q187 0 301 -123l64 -129v236h78zM926 477v141l-2 -14q0 96 -22 173t-57.5 125.5t-84 81t-97.5 45.5t-102 13
q-183 0 -298.5 -138t-115.5 -363q0 -103 26 -193.5t75 -160t125 -110t170 -40.5q64 0 118.5 15t104 49.5t84 87t54.5 132t20 179.5z" />
    <glyph glyph-name="r" unicode="r" horiz-adv-x="563" 
d="M502 1108q31 0 55 -6v-64q-154 11 -243 -96.5t-89 -343.5v-598h-78v1079h78v-219l58 131q84 117 219 117z" />
    <glyph glyph-name="s" unicode="s" horiz-adv-x="903" 
d="M446 1108q164 0 258 -89.5t117 -236.5h-80q-31 132 -104 196t-195 64q-111 0 -185.5 -61t-74.5 -164q0 -99 70 -150.5t209 -84.5q193 -44 281.5 -117t88.5 -205q0 -133 -104 -211t-268 -78q-107 0 -191.5 34.5t-143 114.5t-71.5 199h80q45 -282 332 -282q123 0 205 58
t82 161q0 102 -71 157.5t-253 98.5q-73 18 -126.5 40t-101.5 56t-73 85.5t-25 117.5q0 131 96 214t248 83z" />
    <glyph glyph-name="t" unicode="t" horiz-adv-x="522" 
d="M266 168q6 -81 50.5 -106.5t158.5 -8.5v-61q-49 -6 -115 -6q-80 0 -122 37t-48 114q-4 45 -4 144v729h-133v61h133v229h78v-229h209v-61h-209v-734q0 -79 2 -108z" />
    <glyph glyph-name="u" unicode="u" 
d="M963 1079v-1079h-78v231l-49 -112q-124 -148 -324 -148q-162 0 -259 84.5t-116 233.5q-8 73 -8 180v610h78v-590q0 -97 8 -170q16 -131 92.5 -205.5t214.5 -74.5q154 0 258.5 112.5t104.5 329.5v598h78z" />
    <glyph glyph-name="v" unicode="v" horiz-adv-x="983" 
d="M967 1079l-422 -1079h-103l-422 1079h89l387 -1020l387 1020h84z" />
    <glyph glyph-name="w" unicode="w" horiz-adv-x="1501" 
d="M1487 1079l-342 -1079h-94l-291 997l-291 -997h-104l-345 1079h91l307 -1003l291 1001h102l293 -997l299 999h84z" />
    <glyph glyph-name="x" unicode="x" horiz-adv-x="886" 
d="M479 545l383 -545h-94l-334 492l-340 -492h-92l385 543l-369 536h93l325 -483l332 483h92z" />
    <glyph glyph-name="y" unicode="y" horiz-adv-x="964" 
d="M950 1079l-424 -1102q-48 -126 -91.5 -207.5t-87.5 -124.5t-84.5 -59t-94.5 -16q-42 0 -76 6v68q27 -6 76 -6q71 0 129.5 56t118.5 202l30 77l-426 1106h89l376 -1018l377 1018h88z" />
    <glyph glyph-name="z" unicode="z" horiz-adv-x="919" 
d="M870 63v-63h-839v61l735 936h-682v68h778v-66l-737 -936h745z" />
    <glyph glyph-name="braceleft" unicode="{" horiz-adv-x="610" 
d="M575 1536h-34q-99 0 -151 -37.5t-52 -124.5q0 -35 22 -196q23 -175 23 -248q0 -76 -39 -135t-123 -76q83 -19 122.5 -79t39.5 -136q0 -73 -23 -248q-22 -158 -22 -197q0 -87 52 -124t151 -37h34v-62h-32q-129 0 -199 52t-70 173q0 54 25 215q20 146 20 226
q0 75 -39.5 125.5t-125.5 58.5v62q86 8 125.5 58.5t39.5 125.5q0 79 -20 225q-25 164 -25 215q0 121 70 173t199 52h32v-61z" />
    <glyph glyph-name="bar" unicode="|" horiz-adv-x="512" 
d="M289 -410h-64v2048h64v-2048z" />
    <glyph glyph-name="braceright" unicode="}" horiz-adv-x="610" 
d="M291 932q0 -74 40 -125t126 -59v-62q-86 -8 -126 -59t-40 -125q0 -80 20 -226q25 -161 25 -215q0 -121 -69.5 -173t-198.5 -52h-33v62h35q99 0 150.5 37t51.5 124q0 39 -22 197q-23 175 -23 248q0 76 39 135t123 76q-83 19 -122.5 80t-39.5 135q0 73 23 248
q22 161 22 196q0 87 -51.5 124.5t-150.5 37.5h-35v61h33q129 0 198.5 -52t69.5 -173q0 -51 -25 -215q-20 -146 -20 -225z" />
    <glyph glyph-name="asciitilde" unicode="~" 
d="M926 721h61q0 -248 -190 -248q-57 0 -106 17.5t-152 74.5q-93 51 -139 69.5t-91 18.5q-123 0 -123 -186h-61q0 248 188 248q58 0 106 -18t154 -76q91 -50 137.5 -68t90.5 -18q66 0 95.5 46.5t29.5 139.5z" />
    <glyph glyph-name="exclamdown" unicode="&#xa1;" horiz-adv-x="434" 
d="M217 987q-26 0 -44.5 19t-18.5 45q0 27 18 45t45 18q28 0 46 -17.5t18 -45.5q0 -27 -18.5 -45.5t-45.5 -18.5zM182 825h70l12 -1153h-94z" />
    <glyph glyph-name="cent" unicode="&#xa2;" horiz-adv-x="1101" 
d="M604 1051v-1014q126 9 215.5 84.5t118.5 206.5h80q-32 -158 -143 -252t-271 -103v-157h-63v155q-196 11 -322.5 163t-126.5 409q0 240 128.5 395t320.5 174v158h63v-156q172 -4 285.5 -105.5t136.5 -265.5h-80q-25 140 -113 221t-229 87zM176 553q0 -120 30 -217
t81.5 -159t116 -97t137.5 -41v1010q-70 -10 -133.5 -46t-116 -95.5t-84 -151.5t-31.5 -203z" />
    <glyph glyph-name="sterling" unicode="&#xa3;" 
d="M993 68v-68h-874v63q130 34 213.5 126.5t83.5 228.5q0 71 -22.5 136t-71.5 148h-185v62h150q-88 159 -88 297q0 168 113.5 274.5t281.5 106.5q188 0 286 -109t111 -293h-82q-12 164 -92 249t-227 85q-129 0 -217 -86t-88 -217q0 -78 22.5 -146t73.5 -161h471v-62h-436
q82 -143 82 -276q0 -241 -238 -358h733z" />
    <glyph glyph-name="currency" unicode="&#xa4;" 
d="M918 616q0 -138 -82 -239l118 -119l-47 -45l-116 119q-100 -84 -236 -84t-233 84l-117 -119l-47 47l118 117q-83 99 -83 239q0 141 83 240l-118 119l47 45l117 -117q101 82 233 82q136 0 233 -84l119 119l47 -45l-118 -119q82 -101 82 -240zM555 309q128 0 211.5 88
t83.5 219t-83.5 219.5t-211.5 88.5q-127 0 -210 -88.5t-83 -219.5t83 -219t210 -88z" />
    <glyph glyph-name="yen" unicode="&#xa5;" 
d="M633 709h328v-62h-365l-2 -2v-151h367v-62h-367v-432h-78v432h-364v62h364v151l-2 2h-362v62h325l-432 704h100l412 -698l412 698h96z" />
    <glyph glyph-name="brokenbar" unicode="&#xa6;" horiz-adv-x="512" 
d="M289 717h-64v696h64v-696zM289 -328h-64v697h64v-697z" />
    <glyph glyph-name="section" unicode="&#xa7;" horiz-adv-x="1101" 
d="M1038 524q0 -122 -75.5 -202t-196.5 -109q164 -91 164 -276q0 -135 -106 -214t-269 -79q-343 0 -408 342h80q69 -277 334 -277q122 0 203.5 59.5t81.5 161.5q0 76 -30.5 127t-113 94.5t-229.5 75.5q-73 16 -138 44.5t-121 71t-89 103.5t-33 132q0 125 73 203t193 108
q-155 91 -155 254q0 137 95 218t247 81q163 0 257 -87.5t120 -236.5h-80q-65 258 -299 258q-108 0 -182 -59.5t-74 -163.5q0 -48 17.5 -87.5t46 -68t71.5 -51.5t88.5 -38t101.5 -27q426 -87 426 -357zM657 258q124 7 210.5 74t86.5 184q0 112 -92 181t-282 112
q-79 18 -129 37q-54 -6 -100 -22t-87 -45.5t-64.5 -79.5t-23.5 -115q0 -107 94.5 -181t235.5 -104q87 -18 151 -41z" />
    <glyph glyph-name="dieresis" unicode="&#xa8;" horiz-adv-x="614" 
d="M209 1350q22 0 37.5 -16.5t15.5 -39.5q0 -22 -15.5 -37.5t-37.5 -15.5q-23 0 -39 15.5t-16 37.5q0 23 16 39.5t39 16.5zM406 1350q23 0 39 -16.5t16 -39.5q0 -22 -16 -37.5t-39 -15.5q-22 0 -38 15.5t-16 37.5q0 23 16 39.5t38 16.5z" />
    <glyph glyph-name="copyright" unicode="&#xa9;" horiz-adv-x="1716" 
d="M858 1497q156 0 295.5 -60.5t240 -163t159.5 -245t59 -301.5t-59 -301.5t-159.5 -245t-240 -163t-295.5 -60.5t-295.5 60.5t-240 163t-159.5 245t-59 301.5t59 301.5t159.5 245t240 163t295.5 60.5zM858 1434q-142 0 -269.5 -55.5t-219 -150t-145.5 -225.5t-54 -276
q0 -194 91 -355.5t249.5 -255t347.5 -93.5t347.5 93.5t249.5 255t91 355.5q0 145 -54 276t-145.5 225.5t-219 150t-269.5 55.5zM866 1167q141 0 236.5 -77.5t116.5 -217.5h-82q-21 106 -89 167t-182 61q-138 0 -220.5 -107t-82.5 -264q0 -161 83 -265t214 -104
q109 0 180.5 58.5t94.5 167.5h82q-31 -143 -125 -218t-242 -75q-157 0 -263 119t-106 315q0 200 109 320t276 120z" />
    <glyph glyph-name="guillemotleft" unicode="&#xab;" horiz-adv-x="1056" 
d="M637 848l-281 -340l281 -340h-82l-281 340l281 340h82zM909 848l-280 -340l280 -340h-82l-280 340l280 340h82z" />
    <glyph glyph-name="logicalnot" unicode="&#xac;" 
d="M911 430h-63v266h-664v62h727v-328z" />
    <glyph glyph-name="registered" unicode="&#xae;" horiz-adv-x="1062" 
d="M530 1565q189 0 310 -120t121 -308q0 -190 -121 -311t-310 -121t-309.5 121t-120.5 311q0 188 120.5 308t309.5 120zM530 760q164 0 267.5 106t103.5 271q0 163 -103.5 267.5t-267.5 104.5q-162 0 -265 -104.5t-103 -267.5q0 -165 103 -271t265 -106zM602 1126
q45 -14 55 -82q11 -70 35 -110h-67q-17 43 -27 100q-6 60 -63 60h-74v-160h-58v418h113q31 0 49 -2q56 -6 88.5 -35.5t32.5 -83.5q0 -39 -22.5 -66.5t-61.5 -38.5zM461 1143h53q33 0 45 2q29 5 47.5 24.5t18.5 51.5q0 66 -66 77q-12 2 -33 2h-65v-157z" />
    <glyph glyph-name="macron" unicode="&#xaf;" horiz-adv-x="614" 
d="M477 1262h-338v59h338v-59z" />
    <glyph glyph-name="degree" unicode="&#xb0;" horiz-adv-x="577" 
d="M289 1442q96 0 157.5 -60t61.5 -155t-62 -156t-157 -61t-157 61t-62 156t61.5 155t157.5 60zM289 1380q-68 0 -110 -42t-42 -111q0 -70 42 -113t110 -43t109.5 43t41.5 113q0 69 -41.5 111t-109.5 42z" />
    <glyph glyph-name="plusminus" unicode="&#xb1;" 
d="M565 682h383v-61h-383v-414h-63v414h-383v61h383v412h63v-412zM948 0h-829v61h829v-61z" />
    <glyph glyph-name="acute" unicode="&#xb4;" horiz-adv-x="614" 
d="M330 1188h-58l123 225h84z" />
    <glyph glyph-name="paragraph" unicode="&#xb6;" horiz-adv-x="1101" 
d="M954 1413v-1638h-63v1577h-244v-1577h-63v880h-47q-80 0 -115 2q-151 9 -236.5 116.5t-85.5 260.5t85.5 260.5t236.5 116.5q35 2 115 2h417z" />
    <glyph glyph-name="periodcentered" unicode="&#xb7;" horiz-adv-x="313" 
d="M156 694q31 0 50 -19t19 -50q0 -30 -19.5 -50t-49.5 -20q-29 0 -48.5 20.5t-19.5 49.5q0 31 19 50t49 19z" />
    <glyph glyph-name="cedilla" unicode="&#xb8;" horiz-adv-x="614" 
d="M348 16l-61 -114q176 -19 176 -162q0 -83 -62.5 -126.5t-154.5 -43.5q-66 0 -107 20v56q45 -23 109 -23q70 0 110.5 30t40.5 87q0 124 -200 115l84 161h65z" />
    <glyph glyph-name="guillemotright" unicode="&#xbb;" horiz-adv-x="1056" 
d="M510 508l-281 -340h-82l281 340l-281 340h82zM782 508l-280 -340h-82l280 340l-280 340h82z" />
    <glyph glyph-name="questiondown" unicode="&#xbf;" horiz-adv-x="976" 
d="M580 979q-26 0 -45 18.5t-19 44.5q0 27 18.5 45.5t45.5 18.5q28 0 45.5 -18t17.5 -46q0 -27 -18 -45t-45 -18zM545 -365q-189 0 -294.5 104t-105.5 265q0 200 197 391q86 83 128.5 144.5t58 122t16.5 155.5h73q-3 -153 -41 -238.5t-167 -216.5q-95 -98 -137 -180.5
t-42 -177.5q0 -140 86 -220.5t230 -80.5q157 0 249.5 97t104.5 266h80q-8 -193 -128 -312t-308 -119z" />
    <glyph glyph-name="Agrave" unicode="&#xc0;" horiz-adv-x="1273" 
d="M633 1507l-135 193h84l108 -193h-57zM956 539h-604l-198 -539h-84l538 1413h103l532 -1413h-84zM379 606h553l-275 744z" />
    <glyph glyph-name="Aacute" unicode="&#xc1;" horiz-adv-x="1273" 
d="M682 1507h-57l108 193h84zM956 539h-604l-198 -539h-84l538 1413h103l532 -1413h-84zM379 606h553l-275 744z" />
    <glyph glyph-name="Acircumflex" unicode="&#xc2;" horiz-adv-x="1273" 
d="M563 1507h-69l135 193h65l133 -193h-71l-97 152zM956 539h-604l-198 -539h-84l538 1413h103l532 -1413h-84zM379 606h553l-275 744z" />
    <glyph glyph-name="Atilde" unicode="&#xc3;" horiz-adv-x="1273" 
d="M553 1602q-33 0 -33 -43h-49q0 100 82 100q37 0 119 -27q73 -24 94 -24q33 0 33 43h51q0 -101 -82 -101q-38 0 -121 27q-77 25 -94 25zM956 539h-604l-198 -539h-84l538 1413h103l532 -1413h-84zM379 606h553l-275 744z" />
    <glyph glyph-name="Adieresis" unicode="&#xc4;" horiz-adv-x="1273" 
d="M569 1550q-22 0 -37.5 16t-15.5 38q0 23 15.5 39t37.5 16q23 0 39.5 -16t16.5 -39q0 -22 -16.5 -38t-39.5 -16zM750 1550q-23 0 -39.5 16t-16.5 38q0 23 16.5 39t39.5 16q22 0 37.5 -16t15.5 -39q0 -22 -15.5 -38t-37.5 -16zM956 539h-604l-198 -539h-84l538 1413h103
l532 -1413h-84zM379 606h553l-275 744z" />
    <glyph glyph-name="Aring" unicode="&#xc5;" horiz-adv-x="1273" 
d="M659 1477q-61 0 -102 36.5t-41 96.5t41 97.5t102 37.5t102.5 -37.5t41.5 -97.5t-41 -96.5t-103 -36.5zM659 1694q-37 0 -58 -23.5t-21 -60.5t21 -60.5t58 -23.5t59.5 24t22.5 60t-22.5 60t-59.5 24zM956 539h-604l-198 -539h-84l538 1413h103l532 -1413h-84zM379 606h553
l-275 744z" />
    <glyph glyph-name="AE" unicode="&#xc6;" horiz-adv-x="1843" 
d="M1780 68v-68h-840l-27 539h-530l-328 -539h-88l871 1413h921v-65h-805l29 -609h729v-65h-727l29 -606h766zM911 606l-34 740l-451 -740h485z" />
    <glyph glyph-name="Ccedilla" unicode="&#xc7;" horiz-adv-x="1398" 
d="M1219 467h77l-2 -21q-17 -99 -58.5 -181.5t-107 -148t-163 -103.5t-217.5 -42l-37 -69q176 -19 176 -162q0 -83 -62.5 -126.5t-154.5 -43.5q-66 0 -107 20v56q45 -23 109 -23q70 0 110.5 30t40.5 87q0 124 -200 115l61 118q-262 14 -422 211t-160 518q0 215 84.5 384.5
t232 262.5t331.5 93q118 0 214 -35t162 -97.5t108 -144t60 -180.5l2 -20h-77l-5 20q-35 175 -156.5 282t-314.5 107q-111 0 -210.5 -45.5t-176.5 -128.5t-122.5 -211t-45.5 -282q0 -161 42.5 -289.5t116 -210.5t170.5 -125t210 -43q205 0 327 111.5t160 295.5z" />
    <glyph glyph-name="Egrave" unicode="&#xc8;" horiz-adv-x="1157" 
d="M592 1507l-135 193h84l108 -193h-57zM1094 68v-68h-895v1413h874v-65h-797v-609h750v-65h-750v-606h818z" />
    <glyph glyph-name="Eacute" unicode="&#xc9;" horiz-adv-x="1157" 
d="M641 1507h-57l108 193h84zM1094 68v-68h-895v1413h874v-65h-797v-609h750v-65h-750v-606h818z" />
    <glyph glyph-name="Ecircumflex" unicode="&#xca;" horiz-adv-x="1157" 
d="M522 1507h-69l135 193h65l133 -193h-71l-97 152zM1094 68v-68h-895v1413h874v-65h-797v-609h750v-65h-750v-606h818z" />
    <glyph glyph-name="Edieresis" unicode="&#xcb;" horiz-adv-x="1157" 
d="M528 1550q-22 0 -37.5 16t-15.5 38q0 23 15.5 39t37.5 16q23 0 39.5 -16t16.5 -39q0 -22 -16.5 -38t-39.5 -16zM709 1550q-23 0 -39.5 16t-16.5 38q0 23 16.5 39t39.5 16q22 0 37.5 -16t15.5 -39q0 -22 -15.5 -38t-37.5 -16zM1094 68v-68h-895v1413h874v-65h-797v-609
h750v-65h-750v-606h818z" />
    <glyph glyph-name="Igrave" unicode="&#xcc;" horiz-adv-x="425" 
d="M268 1507h-57l-135 193h84zM276 0h-77v1413h77v-1413z" />
    <glyph glyph-name="Iacute" unicode="&#xcd;" horiz-adv-x="425" 
d="M260 1507h-57l108 193h84zM276 0h-77v1413h77v-1413z" />
    <glyph glyph-name="Icircumflex" unicode="&#xce;" horiz-adv-x="425" 
d="M406 1507h-72l-96 152l-97 -152h-69l135 193h65zM199 1413h77v-1413h-77v1413z" />
    <glyph glyph-name="Idieresis" unicode="&#xcf;" horiz-adv-x="425" 
d="M147 1659q23 0 39.5 -16t16.5 -39q0 -22 -16.5 -38t-39.5 -16q-22 0 -37.5 16t-15.5 38q0 23 15.5 39t37.5 16zM328 1659q22 0 37.5 -16t15.5 -39q0 -22 -15.5 -38t-37.5 -16q-23 0 -39.5 16t-16.5 38q0 23 16.5 39t39.5 16zM276 0h-77v1413h77v-1413z" />
    <glyph glyph-name="Eth" unicode="&#xd0;" horiz-adv-x="1411" 
d="M774 1409q78 -7 153 -34t149.5 -82t130.5 -132t91 -192t35 -254q0 -137 -34.5 -253.5t-89.5 -194.5t-127.5 -135.5t-144 -86t-142.5 -37.5q-72 -8 -181 -8h-409v653h-123v60h123v700h411q103 0 158 -4zM786 78q70 9 135.5 38.5t125.5 83t104.5 125.5t71 173t26.5 217
q0 119 -28.5 220t-75.5 171t-110 121t-130 77.5t-137 34.5q-52 7 -154 7h-331v-633h352v-60h-352v-585h329q95 0 174 10z" />
    <glyph glyph-name="Ntilde" unicode="&#xd1;" horiz-adv-x="1345" 
d="M592 1659q36 0 119 -27q73 -24 94 -24q33 0 33 43h51q0 -101 -82 -101q-39 0 -121 27q-77 25 -94 25q-33 0 -33 -43h-49q0 100 82 100zM1198 0h-121l-805 1339q4 -184 4 -585v-754h-77v1413h118l807 -1339q-4 184 -4 588v751h76z" />
    <glyph glyph-name="Ograve" unicode="&#xd2;" horiz-adv-x="1472" 
d="M723 1507l-135 193h84l108 -193h-57zM750 1442q194 0 341.5 -95t225.5 -261.5t78 -378.5t-78 -378.5t-225.5 -262t-341.5 -95.5q-195 0 -343 95.5t-226.5 262t-78.5 378.5t78.5 378.5t226.5 261.5t343 95zM750 39q116 0 217.5 45.5t177.5 129t120 211t44 282.5
q0 156 -44 283.5t-120 210.5t-177.5 128t-217.5 45q-117 0 -219 -45t-178.5 -128t-120.5 -210.5t-44 -283.5q0 -155 44 -282.5t120.5 -211t178.5 -129t219 -45.5z" />
    <glyph glyph-name="Oacute" unicode="&#xd3;" horiz-adv-x="1472" 
d="M772 1507h-57l108 193h84zM750 1442q194 0 341.5 -95t225.5 -261.5t78 -378.5t-78 -378.5t-225.5 -262t-341.5 -95.5q-195 0 -343 95.5t-226.5 262t-78.5 378.5t78.5 378.5t226.5 261.5t343 95zM750 39q116 0 217.5 45.5t177.5 129t120 211t44 282.5q0 156 -44 283.5
t-120 210.5t-177.5 128t-217.5 45q-117 0 -219 -45t-178.5 -128t-120.5 -210.5t-44 -283.5q0 -155 44 -282.5t120.5 -211t178.5 -129t219 -45.5z" />
    <glyph glyph-name="Ocircumflex" unicode="&#xd4;" horiz-adv-x="1472" 
d="M653 1507h-69l135 193h65l134 -193h-72l-96 152zM750 1442q194 0 341.5 -95t225.5 -261.5t78 -378.5t-78 -378.5t-225.5 -262t-341.5 -95.5q-195 0 -343 95.5t-226.5 262t-78.5 378.5t78.5 378.5t226.5 261.5t343 95zM750 39q116 0 217.5 45.5t177.5 129t120 211
t44 282.5q0 156 -44 283.5t-120 210.5t-177.5 128t-217.5 45q-117 0 -219 -45t-178.5 -128t-120.5 -210.5t-44 -283.5q0 -155 44 -282.5t120.5 -211t178.5 -129t219 -45.5z" />
    <glyph glyph-name="Otilde" unicode="&#xd5;" horiz-adv-x="1472" 
d="M643 1602q-33 0 -33 -43h-49q0 100 82 100q37 0 119 -27q74 -24 94 -24q33 0 33 43h51q0 -101 -82 -101q-38 0 -121 27q-77 25 -94 25zM750 1442q194 0 341.5 -95t225.5 -261.5t78 -378.5t-78 -378.5t-225.5 -262t-341.5 -95.5q-195 0 -343 95.5t-226.5 262t-78.5 378.5
t78.5 378.5t226.5 261.5t343 95zM750 39q116 0 217.5 45.5t177.5 129t120 211t44 282.5q0 156 -44 283.5t-120 210.5t-177.5 128t-217.5 45q-117 0 -219 -45t-178.5 -128t-120.5 -210.5t-44 -283.5q0 -155 44 -282.5t120.5 -211t178.5 -129t219 -45.5z" />
    <glyph glyph-name="Odieresis" unicode="&#xd6;" horiz-adv-x="1472" 
d="M659 1550q-22 0 -37.5 16t-15.5 38q0 23 15.5 39t37.5 16q23 0 39.5 -16t16.5 -39q0 -22 -16.5 -38t-39.5 -16zM840 1550q-23 0 -39.5 16t-16.5 38q0 23 16.5 39t39.5 16q22 0 37.5 -16t15.5 -39q0 -22 -15.5 -38t-37.5 -16zM750 1442q194 0 341.5 -95t225.5 -261.5
t78 -378.5t-78 -378.5t-225.5 -262t-341.5 -95.5q-195 0 -343 95.5t-226.5 262t-78.5 378.5t78.5 378.5t226.5 261.5t343 95zM750 39q116 0 217.5 45.5t177.5 129t120 211t44 282.5q0 156 -44 283.5t-120 210.5t-177.5 128t-217.5 45q-117 0 -219 -45t-178.5 -128
t-120.5 -210.5t-44 -283.5q0 -155 44 -282.5t120.5 -211t178.5 -129t219 -45.5z" />
    <glyph glyph-name="multiply" unicode="&#xd7;" 
d="M602 643l301 -303l-45 -45l-301 303l-303 -303l-45 45l303 303l-303 301l45 45l303 -301l301 301l45 -45z" />
    <glyph glyph-name="Oslash" unicode="&#xd8;" horiz-adv-x="1476" 
d="M1407 1319l-141 -141q131 -195 131 -471q0 -212 -78 -378.5t-225.5 -262t-341.5 -95.5q-148 0 -270 56t-208 159l-135 -135l-45 43l142 142q-132 196 -132 471q0 212 78.5 378.5t226.5 261.5t343 95q148 0 269 -56t206 -159l137 137zM190 707q0 -243 105 -412l876 876
q-76 98 -184.5 150.5t-234.5 52.5q-117 0 -219 -45t-178.5 -128t-120.5 -210.5t-44 -283.5zM1311 707q0 242 -105 411l-876 -876q76 -98 185 -150.5t237 -52.5q116 0 217.5 45.5t177.5 129t120 211t44 282.5z" />
    <glyph glyph-name="Ugrave" unicode="&#xd9;" horiz-adv-x="1271" 
d="M690 1507h-57l-135 193h84zM1135 1413v-924q0 -35 -7 -135q-13 -173 -133 -278t-336 -105q-215 0 -334 105t-132 278q-7 100 -7 135v924h78v-926q0 -65 6 -127q13 -143 110.5 -232t278.5 -89q183 0 281 89t111 232q6 62 6 127v926h78z" />
    <glyph glyph-name="Uacute" unicode="&#xda;" horiz-adv-x="1271" 
d="M682 1507h-57l108 193h84zM1135 1413v-924q0 -35 -7 -135q-13 -173 -133 -278t-336 -105q-215 0 -334 105t-132 278q-7 100 -7 135v924h78v-926q0 -65 6 -127q13 -143 110.5 -232t278.5 -89q183 0 281 89t111 232q6 62 6 127v926h78z" />
    <glyph glyph-name="Ucircumflex" unicode="&#xdb;" horiz-adv-x="1271" 
d="M563 1507h-69l135 193h65l133 -193h-71l-97 152zM1135 1413v-924q0 -35 -7 -135q-13 -173 -133 -278t-336 -105q-215 0 -334 105t-132 278q-7 100 -7 135v924h78v-926q0 -65 6 -127q13 -143 110.5 -232t278.5 -89q183 0 281 89t111 232q6 62 6 127v926h78z" />
    <glyph glyph-name="Udieresis" unicode="&#xdc;" horiz-adv-x="1271" 
d="M569 1659q23 0 39.5 -16t16.5 -39q0 -22 -16.5 -38t-39.5 -16q-22 0 -37.5 16t-15.5 38q0 23 15.5 39t37.5 16zM750 1659q22 0 37.5 -16t15.5 -39q0 -22 -15.5 -38t-37.5 -16q-23 0 -39.5 16t-16.5 38q0 23 16.5 39t39.5 16zM1135 1413v-924q0 -35 -7 -135
q-13 -173 -133 -278t-336 -105q-215 0 -334 105t-132 278q-7 100 -7 135v924h78v-926q0 -65 6 -127q13 -143 110.5 -232t278.5 -89q183 0 281 89t111 232q6 62 6 127v926h78z" />
    <glyph glyph-name="Yacute" unicode="&#xdd;" horiz-adv-x="1134" 
d="M608 1507h-57l108 193h84zM625 573v-573h-78v573l-502 840h90l455 -762l446 762h90z" />
    <glyph glyph-name="Thorn" unicode="&#xde;" horiz-adv-x="1306" 
d="M743 1178q157 -20 252 -109t95 -252q0 -167 -95.5 -262t-251.5 -115q-79 -10 -196 -10h-271v-430h-77v1413h77v-225h271q117 0 196 -10zM731 510q125 16 200 91t75 216q0 133 -75 204t-200 87q-74 10 -184 10h-271v-618h271q110 0 184 10z" />
    <glyph glyph-name="germandbls" unicode="&#xdf;" horiz-adv-x="1130" 
d="M580 1544q166 0 275.5 -92.5t109.5 -249.5q0 -109 -66 -211q-92 -44 -134 -85.5t-42 -98.5q0 -56 26.5 -101t96.5 -106q102 -88 148 -162.5t46 -161.5q0 -134 -98.5 -209t-267.5 -75q-115 0 -215 20v72q113 -27 213 -27q132 0 207 57.5t75 159.5q0 66 -34 124.5
t-129 146.5q-92 83 -123 136.5t-31 125.5q0 75 47.5 127t151.5 106q43 68 43 160q0 129 -85.5 203t-220.5 74q-143 0 -237.5 -92.5t-106.5 -258.5q-4 -58 -4 -120v-1006h-78v999q0 39 5 131q10 195 129.5 304.5t298.5 109.5z" />
    <glyph glyph-name="agrave" unicode="&#xe0;" horiz-adv-x="1030" 
d="M481 1188l-149 225h84l123 -225h-58zM821 0l-14 236l-51 -109q-55 -77 -140 -116.5t-188 -39.5q-156 0 -247 76t-91 219q0 121 88 204.5t230 121t327 37.5h70v49q0 92 -4 137q-9 110 -79.5 168.5t-197.5 58.5q-78 0 -142.5 -27t-111 -89t-57.5 -152h-80q11 146 119.5 240
t271.5 94q165 0 254 -74t101 -211q4 -53 4 -141v-352q0 -124 18 -330h-80zM446 37q158 0 258.5 113t100.5 274v139q-120 8 -230 -5t-200.5 -46.5t-144.5 -96t-54 -145.5q0 -111 68.5 -172t201.5 -61z" />
    <glyph glyph-name="aacute" unicode="&#xe1;" horiz-adv-x="1030" 
d="M549 1188h-57l122 225h84zM821 0l-14 236l-51 -109q-55 -77 -140 -116.5t-188 -39.5q-156 0 -247 76t-91 219q0 121 88 204.5t230 121t327 37.5h70v49q0 92 -4 137q-9 110 -79.5 168.5t-197.5 58.5q-78 0 -142.5 -27t-111 -89t-57.5 -152h-80q11 146 119.5 240t271.5 94
q165 0 254 -74t101 -211q4 -53 4 -141v-352q0 -124 18 -330h-80zM446 37q158 0 258.5 113t100.5 274v139q-120 8 -230 -5t-200.5 -46.5t-144.5 -96t-54 -145.5q0 -111 68.5 -172t201.5 -61z" />
    <glyph glyph-name="acircumflex" unicode="&#xe2;" horiz-adv-x="1030" 
d="M428 1188h-68l136 225h65l133 -225h-69l-99 176zM821 0l-14 236l-51 -109q-55 -77 -140 -116.5t-188 -39.5q-156 0 -247 76t-91 219q0 121 88 204.5t230 121t327 37.5h70v49q0 92 -4 137q-9 110 -79.5 168.5t-197.5 58.5q-78 0 -142.5 -27t-111 -89t-57.5 -152h-80
q11 146 119.5 240t271.5 94q165 0 254 -74t101 -211q4 -53 4 -141v-352q0 -124 18 -330h-80zM446 37q158 0 258.5 113t100.5 274v139q-120 8 -230 -5t-200.5 -46.5t-144.5 -96t-54 -145.5q0 -111 68.5 -172t201.5 -61z" />
    <glyph glyph-name="atilde" unicode="&#xe3;" horiz-adv-x="1030" 
d="M420 1317q-33 0 -33 -41h-49q0 98 82 98q40 0 119 -26q77 -25 94 -25q33 0 33 43h51q0 -98 -82 -98q-42 0 -121 26q-70 23 -94 23zM821 0l-14 236l-51 -109q-55 -77 -140 -116.5t-188 -39.5q-156 0 -247 76t-91 219q0 121 88 204.5t230 121t327 37.5h70v49q0 92 -4 137
q-9 110 -79.5 168.5t-197.5 58.5q-78 0 -142.5 -27t-111 -89t-57.5 -152h-80q11 146 119.5 240t271.5 94q165 0 254 -74t101 -211q4 -53 4 -141v-352q0 -124 18 -330h-80zM446 37q158 0 258.5 113t100.5 274v139q-120 8 -230 -5t-200.5 -46.5t-144.5 -96t-54 -145.5
q0 -111 68.5 -172t201.5 -61z" />
    <glyph glyph-name="adieresis" unicode="&#xe4;" horiz-adv-x="1030" 
d="M428 1241q-23 0 -39 15.5t-16 37.5q0 23 16 39.5t39 16.5q22 0 37.5 -16.5t15.5 -39.5q0 -22 -15.5 -37.5t-37.5 -15.5zM625 1241q-22 0 -38 15.5t-16 37.5q0 23 16 39.5t38 16.5q23 0 39 -16.5t16 -39.5q0 -22 -16 -37.5t-39 -15.5zM821 0l-14 236l-51 -109
q-55 -77 -140 -116.5t-188 -39.5q-156 0 -247 76t-91 219q0 121 88 204.5t230 121t327 37.5h70v49q0 92 -4 137q-9 110 -79.5 168.5t-197.5 58.5q-78 0 -142.5 -27t-111 -89t-57.5 -152h-80q11 146 119.5 240t271.5 94q165 0 254 -74t101 -211q4 -53 4 -141v-352
q0 -124 18 -330h-80zM446 37q158 0 258.5 113t100.5 274v139q-120 8 -230 -5t-200.5 -46.5t-144.5 -96t-54 -145.5q0 -111 68.5 -172t201.5 -61z" />
    <glyph glyph-name="aring" unicode="&#xe5;" horiz-adv-x="1030" 
d="M526 1167q-61 0 -101 39t-40 101t40 99.5t101 37.5t101.5 -37.5t40.5 -99.5t-40.5 -101t-101.5 -39zM526 1395q-37 0 -58.5 -25t-21.5 -63t21.5 -63t58.5 -25t59.5 25t22.5 63t-22.5 63t-59.5 25zM821 0l-14 236l-51 -109q-55 -77 -140 -116.5t-188 -39.5q-156 0 -247 76
t-91 219q0 121 88 204.5t230 121t327 37.5h70v49q0 92 -4 137q-9 110 -79.5 168.5t-197.5 58.5q-78 0 -142.5 -27t-111 -89t-57.5 -152h-80q11 146 119.5 240t271.5 94q165 0 254 -74t101 -211q4 -53 4 -141v-352q0 -124 18 -330h-80zM446 37q158 0 258.5 113t100.5 274v139
q-120 8 -230 -5t-200.5 -46.5t-144.5 -96t-54 -145.5q0 -111 68.5 -172t201.5 -61z" />
    <glyph glyph-name="ae" unicode="&#xe6;" horiz-adv-x="1871" 
d="M1796 569q0 -24 -4 -51h-856q4 -126 36 -220.5t86.5 -150.5t122 -83t146.5 -27q129 0 232 76t141 223h80q-43 -177 -168.5 -271t-290.5 -94q-93 0 -176 31.5t-152.5 105.5t-99.5 183l-47 -119q-148 -201 -400 -201q-152 0 -254 75t-102 220q0 320 696 320h70v51
q0 200 -78 302.5t-246 102.5q-59 0 -112 -16t-98.5 -47t-75.5 -84t-37 -121h-80q8 145 121.5 239.5t281.5 94.5q319 0 381 -279q54 133 169.5 206t258.5 73q114 0 203 -44t143 -120.5t81.5 -171.5t27.5 -203zM936 586h778q-4 122 -35.5 212.5t-85 142.5t-117.5 76.5
t-139 24.5q-80 0 -149.5 -28t-125 -82.5t-89 -143.5t-37.5 -202zM856 459v59q-101 2 -198 0t-184.5 -19t-153.5 -44t-105 -74.5t-39 -110.5q0 -108 77.5 -170.5t209.5 -62.5q170 0 281.5 117.5t111.5 304.5z" />
    <glyph glyph-name="ccedilla" unicode="&#xe7;" horiz-adv-x="1064" 
d="M547 37q134 0 232.5 76.5t127.5 214.5h80q-33 -167 -154 -262t-292 -95l-37 -69q176 -19 176 -162q0 -83 -62.5 -126.5t-154.5 -43.5q-66 0 -107 20v56q45 -23 109 -23q69 0 110 30t41 87q0 124 -200 115l63 120q-185 23 -301.5 171t-116.5 393q0 129 40 237.5t108 180.5
t158.5 111.5t191.5 39.5q178 0 295.5 -101.5t142.5 -269.5h-79q-28 145 -121.5 226t-241.5 81q-75 0 -146.5 -31t-130.5 -89.5t-95 -155.5t-36 -217q0 -127 33.5 -228t90 -162t127 -92.5t149.5 -31.5z" />
    <glyph glyph-name="egrave" unicode="&#xe8;" horiz-adv-x="1081" 
d="M518 1188l-149 225h84l122 -225h-57zM1006 569q0 -24 -2 -51h-861q4 -126 39.5 -222t92 -150.5t122.5 -81.5t140 -27q130 0 232 76t140 223h80q-43 -177 -168 -271t-289 -94q-98 0 -182.5 36.5t-149.5 106.5t-102 180.5t-37 248.5q0 126 38 232.5t104 179t156 113
t192 40.5q111 0 199.5 -44.5t143 -120t83.5 -171.5t29 -203zM547 1042q-72 0 -141 -28.5t-127 -83t-95 -144t-41 -200.5h783q-4 120 -38 211t-88.5 143t-118 77t-134.5 25z" />
    <glyph glyph-name="eacute" unicode="&#xe9;" horiz-adv-x="1081" 
d="M557 1188h-57l123 225h84zM1006 569q0 -24 -2 -51h-861q4 -126 39.5 -222t92 -150.5t122.5 -81.5t140 -27q130 0 232 76t140 223h80q-43 -177 -168 -271t-289 -94q-98 0 -182.5 36.5t-149.5 106.5t-102 180.5t-37 248.5q0 126 38 232.5t104 179t156 113t192 40.5
q111 0 199.5 -44.5t143 -120t83.5 -171.5t29 -203zM547 1042q-72 0 -141 -28.5t-127 -83t-95 -144t-41 -200.5h783q-4 120 -38 211t-88.5 143t-118 77t-134.5 25z" />
    <glyph glyph-name="ecircumflex" unicode="&#xea;" horiz-adv-x="1081" 
d="M436 1188h-67l135 225h65l133 -225h-69l-98 176zM1006 569q0 -24 -2 -51h-861q4 -126 39.5 -222t92 -150.5t122.5 -81.5t140 -27q130 0 232 76t140 223h80q-43 -177 -168 -271t-289 -94q-98 0 -182.5 36.5t-149.5 106.5t-102 180.5t-37 248.5q0 126 38 232.5t104 179
t156 113t192 40.5q111 0 199.5 -44.5t143 -120t83.5 -171.5t29 -203zM547 1042q-72 0 -141 -28.5t-127 -83t-95 -144t-41 -200.5h783q-4 120 -38 211t-88.5 143t-118 77t-134.5 25z" />
    <glyph glyph-name="edieresis" unicode="&#xeb;" horiz-adv-x="1081" 
d="M436 1241q-23 0 -39 15.5t-16 37.5q0 23 16 39.5t39 16.5q22 0 37.5 -16.5t15.5 -39.5q0 -22 -15.5 -37.5t-37.5 -15.5zM633 1241q-22 0 -37.5 15.5t-15.5 37.5q0 23 15.5 39.5t37.5 16.5q23 0 39 -16.5t16 -39.5q0 -22 -16 -37.5t-39 -15.5zM1006 569q0 -24 -2 -51h-861
q4 -126 39.5 -222t92 -150.5t122.5 -81.5t140 -27q130 0 232 76t140 223h80q-43 -177 -168 -271t-289 -94q-98 0 -182.5 36.5t-149.5 106.5t-102 180.5t-37 248.5q0 126 38 232.5t104 179t156 113t192 40.5q111 0 199.5 -44.5t143 -120t83.5 -171.5t29 -203zM547 1042
q-72 0 -141 -28.5t-127 -83t-95 -144t-41 -200.5h783q-4 120 -38 211t-88.5 143t-118 77t-134.5 25z" />
    <glyph glyph-name="igrave" unicode="&#xec;" horiz-adv-x="374" 
d="M197 1188h-58l-149 225h84zM225 0h-78v1079h78v-1079z" />
    <glyph glyph-name="iacute" unicode="&#xed;" horiz-adv-x="374" 
d="M209 1188h-57l122 225h84zM225 0h-78v1079h78v-1079z" />
    <glyph glyph-name="icircumflex" unicode="&#xee;" horiz-adv-x="374" 
d="M354 1188h-69l-99 176l-98 -176h-68l136 225h65zM147 1079h78v-1079h-78v1079z" />
    <glyph glyph-name="idieresis" unicode="&#xef;" horiz-adv-x="374" 
d="M88 1350q22 0 37.5 -16.5t15.5 -39.5q0 -22 -15.5 -37.5t-37.5 -15.5q-23 0 -39 15.5t-16 37.5q0 23 16 39.5t39 16.5zM285 1350q23 0 39 -16.5t16 -39.5q0 -22 -16 -37.5t-39 -15.5q-22 0 -38 15.5t-16 37.5q0 23 16 39.5t38 16.5zM225 0h-78v1079h78v-1079z" />
    <glyph glyph-name="eth" unicode="&#xf0;" horiz-adv-x="1101" 
d="M936 1405l-123 -51q193 -214 193 -725q0 -170 -35.5 -297.5t-101.5 -205t-152.5 -116t-194.5 -39.5q-215 -1 -338 154.5t-123 400.5q0 259 133 423.5t349 164.5q153 0 264 -84l100 -131q-26 277 -166 426l-327 -135l-23 57l299 123q-92 70 -207 96l49 60
q146 -47 232 -125l149 61zM920 580v43q0 195 -104.5 310.5t-266.5 115.5q-112 0 -202 -59t-145 -178t-55 -280q0 -233 107.5 -364t275.5 -131q182 0 286 143.5t104 399.5z" />
    <glyph glyph-name="ntilde" unicode="&#xf1;" horiz-adv-x="1118" 
d="M453 1317q-33 0 -33 -41h-49q0 98 82 98q39 0 118 -26q77 -25 95 -25q32 0 32 43h52q0 -98 -82 -98q-42 0 -121 26q-70 23 -94 23zM973 780q8 -73 8 -178v-602h-78v584q0 101 -8 174q-14 132 -89 207t-216 75q-73 0 -137.5 -26.5t-116 -78t-81.5 -138.5t-30 -199v-598
h-78v1079h78v-231l49 113q118 147 324 147q166 0 263 -86.5t112 -241.5z" />
    <glyph glyph-name="ograve" unicode="&#xf2;" horiz-adv-x="1150" 
d="M559 1188l-149 225h84l122 -225h-57zM575 1108q236 0 375.5 -157.5t139.5 -411.5q0 -253 -139.5 -410.5t-375.5 -157.5t-375 157.5t-139 410.5q0 254 139 411.5t375 157.5zM575 37q87 0 164 32t137 93t95 158.5t35 218.5q0 122 -35 219.5t-95 158.5t-137 93t-164 32
t-163.5 -32t-136 -93t-94 -158.5t-34.5 -219.5t34.5 -219t94 -158t136 -93t163.5 -32z" />
    <glyph glyph-name="oacute" unicode="&#xf3;" horiz-adv-x="1150" 
d="M598 1188h-57l123 225h84zM575 1108q236 0 375.5 -157.5t139.5 -411.5q0 -253 -139.5 -410.5t-375.5 -157.5t-375 157.5t-139 410.5q0 254 139 411.5t375 157.5zM575 37q87 0 164 32t137 93t95 158.5t35 218.5q0 122 -35 219.5t-95 158.5t-137 93t-164 32t-163.5 -32
t-136 -93t-94 -158.5t-34.5 -219.5t34.5 -219t94 -158t136 -93t163.5 -32z" />
    <glyph glyph-name="ocircumflex" unicode="&#xf4;" horiz-adv-x="1150" 
d="M477 1188h-67l135 225h65l133 -225h-69l-99 176zM575 1108q236 0 375.5 -157.5t139.5 -411.5q0 -253 -139.5 -410.5t-375.5 -157.5t-375 157.5t-139 410.5q0 254 139 411.5t375 157.5zM575 37q87 0 164 32t137 93t95 158.5t35 218.5q0 122 -35 219.5t-95 158.5t-137 93
t-164 32t-163.5 -32t-136 -93t-94 -158.5t-34.5 -219.5t34.5 -219t94 -158t136 -93t163.5 -32z" />
    <glyph glyph-name="otilde" unicode="&#xf5;" horiz-adv-x="1150" 
d="M469 1317q-33 0 -33 -41h-49q0 98 82 98q40 0 119 -26q77 -25 94 -25q33 0 33 43h51q0 -98 -82 -98q-42 0 -121 26q-70 23 -94 23zM575 1108q236 0 375.5 -157.5t139.5 -411.5q0 -253 -139.5 -410.5t-375.5 -157.5t-375 157.5t-139 410.5q0 254 139 411.5t375 157.5z
M575 37q87 0 164 32t137 93t95 158.5t35 218.5q0 122 -35 219.5t-95 158.5t-137 93t-164 32t-163.5 -32t-136 -93t-94 -158.5t-34.5 -219.5t34.5 -219t94 -158t136 -93t163.5 -32z" />
    <glyph glyph-name="odieresis" unicode="&#xf6;" horiz-adv-x="1150" 
d="M477 1241q-23 0 -39 15.5t-16 37.5q0 23 16 39.5t39 16.5q22 0 37.5 -16.5t15.5 -39.5q0 -22 -15.5 -37.5t-37.5 -15.5zM674 1241q-22 0 -37.5 15.5t-15.5 37.5q0 23 15.5 39.5t37.5 16.5q23 0 39 -16.5t16 -39.5q0 -22 -16 -37.5t-39 -15.5zM575 1108
q236 0 375.5 -157.5t139.5 -411.5q0 -253 -139.5 -410.5t-375.5 -157.5t-375 157.5t-139 410.5q0 254 139 411.5t375 157.5zM575 37q87 0 164 32t137 93t95 158.5t35 218.5q0 122 -35 219.5t-95 158.5t-137 93t-164 32t-163.5 -32t-136 -93t-94 -158.5t-34.5 -219.5
t34.5 -219t94 -158t136 -93t163.5 -32z" />
    <glyph glyph-name="divide" unicode="&#xf7;" 
d="M557 1038q29 0 48.5 -19t19.5 -50q0 -29 -19.5 -48.5t-48.5 -19.5t-49.5 19.5t-20.5 48.5q0 30 20 49.5t50 19.5zM971 621h-830v61h830v-61zM557 397q29 0 48.5 -19t19.5 -48t-19.5 -49.5t-48.5 -20.5t-49.5 20.5t-20.5 49.5t20 48t50 19z" />
    <glyph glyph-name="oslash" unicode="&#xf8;" horiz-adv-x="1230" 
d="M1178 1057l-158 -158q98 -149 98 -360q0 -253 -139 -410.5t-375 -157.5q-225 0 -364 148l-142 -142l-45 46l146 145q-109 149 -109 371q0 254 139 411.5t375 157.5q232 0 377 -158l152 152zM176 539q0 -183 80 -314l670 670q-59 72 -142.5 109.5t-179.5 37.5
q-87 0 -163.5 -32t-136 -93t-94 -158.5t-34.5 -219.5zM1034 539q0 180 -71 303l-668 -668q119 -137 309 -137q88 0 165 32t136.5 93t94 158t34.5 219z" />
    <glyph glyph-name="ugrave" unicode="&#xf9;" 
d="M506 1188l-150 225h84l123 -225h-57zM963 1079v-1079h-78v231l-49 -112q-124 -148 -324 -148q-162 0 -259 84.5t-116 233.5q-8 73 -8 180v610h78v-590q0 -97 8 -170q16 -131 92.5 -205.5t214.5 -74.5q154 0 258.5 112.5t104.5 329.5v598h78z" />
    <glyph glyph-name="uacute" unicode="&#xfa;" 
d="M567 1188h-57l123 225h84zM963 1079v-1079h-78v231l-49 -112q-124 -148 -324 -148q-162 0 -259 84.5t-116 233.5q-8 73 -8 180v610h78v-590q0 -97 8 -170q16 -131 92.5 -205.5t214.5 -74.5q154 0 258.5 112.5t104.5 329.5v598h78z" />
    <glyph glyph-name="ucircumflex" unicode="&#xfb;" 
d="M446 1188h-67l135 225h66l133 -225h-70l-98 176zM963 1079v-1079h-78v231l-49 -112q-124 -148 -324 -148q-162 0 -259 84.5t-116 233.5q-8 73 -8 180v610h78v-590q0 -97 8 -170q16 -131 92.5 -205.5t214.5 -74.5q154 0 258.5 112.5t104.5 329.5v598h78z" />
    <glyph glyph-name="udieresis" unicode="&#xfc;" 
d="M446 1241q-23 0 -39 15.5t-16 37.5q0 23 16 39.5t39 16.5q22 0 38 -16.5t16 -39.5q0 -22 -16 -37.5t-38 -15.5zM643 1241q-22 0 -37.5 15.5t-15.5 37.5q0 23 15.5 39.5t37.5 16.5q23 0 39 -16.5t16 -39.5q0 -22 -16 -37.5t-39 -15.5zM963 1079v-1079h-78v231l-49 -112
q-124 -148 -324 -148q-162 0 -259 84.5t-116 233.5q-8 73 -8 180v610h78v-590q0 -97 8 -170q16 -131 92.5 -205.5t214.5 -74.5q154 0 258.5 112.5t104.5 329.5v598h78z" />
    <glyph glyph-name="yacute" unicode="&#xfd;" horiz-adv-x="964" 
d="M508 1188h-57l122 225h84zM950 1079l-424 -1102q-48 -126 -91.5 -207.5t-87.5 -124.5t-84.5 -59t-94.5 -16q-42 0 -76 6v68q27 -6 76 -6q71 0 129.5 56t118.5 202l30 77l-426 1106h89l376 -1018l377 1018h88z" />
    <glyph glyph-name="thorn" unicode="&#xfe;" horiz-adv-x="1148" 
d="M614 1108q215 0 344 -155.5t129 -401.5q0 -141 -40.5 -253.5t-110 -182.5t-158.5 -107t-190 -37q-187 0 -301 123l-62 127v-622h-78v1906h78v-653l64 121q65 72 142.5 103.5t182.5 31.5zM588 37q183 0 298 138t115 364q0 140 -44 252t-135 181.5t-216 69.5
q-80 0 -146.5 -24.5t-120.5 -76.5t-84 -143.5t-30 -215.5v-107q0 -96 22 -173t57.5 -125.5t84 -81t97.5 -45.5t102 -13z" />
    <glyph glyph-name="ydieresis" unicode="&#xff;" horiz-adv-x="964" 
d="M387 1241q-23 0 -39 15.5t-16 37.5q0 23 16 39.5t39 16.5q22 0 37.5 -16.5t15.5 -39.5q0 -22 -15.5 -37.5t-37.5 -15.5zM584 1241q-22 0 -38 15.5t-16 37.5q0 23 16 39.5t38 16.5q23 0 39 -16.5t16 -39.5q0 -22 -16 -37.5t-39 -15.5zM950 1079l-424 -1102
q-48 -126 -91.5 -207.5t-87.5 -124.5t-84.5 -59t-94.5 -16q-42 0 -76 6v68q27 -6 76 -6q71 0 129.5 56t118.5 202l30 77l-426 1106h89l376 -1018l377 1018h88z" />
    <glyph glyph-name="Amacron" unicode="&#x100;" horiz-adv-x="1273" 
d="M829 1573h-337v59h337v-59zM956 539h-604l-198 -539h-84l538 1413h103l532 -1413h-84zM379 606h553l-275 744z" />
    <glyph glyph-name="amacron" unicode="&#x101;" horiz-adv-x="1030" 
d="M696 1262h-338v59h338v-59zM821 0l-14 236l-51 -109q-55 -77 -140 -116.5t-188 -39.5q-156 0 -247 76t-91 219q0 121 88 204.5t230 121t327 37.5h70v49q0 92 -4 137q-9 110 -79.5 168.5t-197.5 58.5q-78 0 -142.5 -27t-111 -89t-57.5 -152h-80q11 146 119.5 240t271.5 94
q165 0 254 -74t101 -211q4 -53 4 -141v-352q0 -124 18 -330h-80zM446 37q158 0 258.5 113t100.5 274v139q-120 8 -230 -5t-200.5 -46.5t-144.5 -96t-54 -145.5q0 -111 68.5 -172t201.5 -61z" />
    <glyph glyph-name="Abreve" unicode="&#x102;" horiz-adv-x="1273" 
d="M659 1479q-94 0 -147 59t-53 162h55q1 -76 40.5 -118t104.5 -42t106 42t42 118h53q0 -103 -53.5 -162t-147.5 -59zM956 539h-604l-198 -539h-84l538 1413h103l532 -1413h-84zM379 606h553l-275 744z" />
    <glyph glyph-name="abreve" unicode="&#x103;" horiz-adv-x="1030" 
d="M526 1165q-96 0 -144 65t-48 183h55q1 -90 36.5 -138t100.5 -48t100 47.5t36 138.5h55q0 -119 -47.5 -183.5t-143.5 -64.5zM821 0l-14 236l-51 -109q-55 -77 -140 -116.5t-188 -39.5q-156 0 -247 76t-91 219q0 121 88 204.5t230 121t327 37.5h70v49q0 92 -4 137
q-9 110 -79.5 168.5t-197.5 58.5q-78 0 -142.5 -27t-111 -89t-57.5 -152h-80q11 146 119.5 240t271.5 94q165 0 254 -74t101 -211q4 -53 4 -141v-352q0 -124 18 -330h-80zM446 37q158 0 258.5 113t100.5 274v139q-120 8 -230 -5t-200.5 -46.5t-144.5 -96t-54 -145.5
q0 -111 68.5 -172t201.5 -61z" />
    <glyph glyph-name="Aogonek" unicode="&#x104;" horiz-adv-x="1273" 
d="M1243 0h-24q-103 -40 -167.5 -117.5t-64.5 -175.5q0 -106 92 -106q67 0 129 59v-61q-65 -56 -151 -56q-65 0 -105.5 35t-40.5 115q0 106 65.5 192t174.5 133l-195 521h-604l-198 -539h-84l538 1413h103zM379 606h553l-275 744z" />
    <glyph glyph-name="aogonek" unicode="&#x105;" horiz-adv-x="1030" 
d="M901 0h-27q-103 -26 -169 -109t-66 -184q0 -106 92 -106q67 0 129 59v-61q-65 -56 -151 -56q-65 0 -105.5 35t-40.5 115q0 113 71.5 205t184.5 129l-12 209l-51 -109q-55 -77 -140 -116.5t-188 -39.5q-156 0 -247 76t-91 219q0 121 88 204.5t230 121t327 37.5h70v49
q0 92 -4 137q-9 110 -79.5 168.5t-197.5 58.5q-78 0 -142.5 -27t-111 -89t-57.5 -152h-80q11 146 119.5 240t271.5 94q165 0 254 -74t101 -211q4 -53 4 -141v-352q0 -124 18 -330zM446 37q158 0 258.5 113t100.5 274v139q-120 8 -230 -5t-200.5 -46.5t-144.5 -96t-54 -145.5
q0 -111 68.5 -172t201.5 -61z" />
    <glyph glyph-name="Cacute" unicode="&#x106;" horiz-adv-x="1398" 
d="M739 1507h-57l109 193h83zM750 1442q118 0 214 -35t162 -97.5t108 -144t60 -180.5l2 -20h-77l-5 20q-35 175 -156.5 282t-314.5 107q-111 0 -210.5 -45.5t-176.5 -128.5t-122.5 -211t-45.5 -282q0 -161 42.5 -289.5t116 -210.5t170.5 -125t210 -43q205 0 327 111.5
t160 295.5l5 21h77l-2 -21q-18 -101 -61 -185t-111.5 -150t-170.5 -103t-228 -37q-278 0 -449.5 198.5t-171.5 532.5q0 215 84.5 384.5t232 262.5t331.5 93z" />
    <glyph glyph-name="cacute" unicode="&#x107;" horiz-adv-x="1064" 
d="M567 1188h-57l123 225h84zM559 1108q178 0 295.5 -101.5t142.5 -269.5h-79q-28 145 -121.5 226t-241.5 81q-75 0 -146.5 -31t-130.5 -89.5t-95 -155.5t-36 -217q0 -127 33.5 -228t90 -162t127 -92.5t149.5 -31.5q134 0 232.5 76.5t127.5 214.5h80q-33 -167 -154 -262
t-292 -95q-100 0 -187 37.5t-152.5 108t-103 179.5t-37.5 243q0 129 40 237.5t108 180.5t158.5 111.5t191.5 39.5z" />
    <glyph glyph-name="Cdotaccent" unicode="&#x10a;" horiz-adv-x="1398" 
d="M717 1659q23 0 39 -16t16 -39q0 -22 -16 -38t-39 -16q-22 0 -37.5 16t-15.5 38q0 23 15.5 39t37.5 16zM750 1442q118 0 214 -35t162 -97.5t108 -144t60 -180.5l2 -20h-77l-5 20q-35 175 -156.5 282t-314.5 107q-111 0 -210.5 -45.5t-176.5 -128.5t-122.5 -211t-45.5 -282
q0 -161 42.5 -289.5t116 -210.5t170.5 -125t210 -43q205 0 327 111.5t160 295.5l5 21h77l-2 -21q-18 -101 -61 -185t-111.5 -150t-170.5 -103t-228 -37q-278 0 -449.5 198.5t-171.5 532.5q0 215 84.5 384.5t232 262.5t331.5 93z" />
    <glyph glyph-name="cdotaccent" unicode="&#x10b;" horiz-adv-x="1064" 
d="M545 1364q25 0 42 -17t17 -42t-17 -42.5t-42 -17.5t-42.5 17.5t-17.5 42.5t17.5 42t42.5 17zM559 1108q178 0 295.5 -101.5t142.5 -269.5h-79q-28 145 -121.5 226t-241.5 81q-75 0 -146.5 -31t-130.5 -89.5t-95 -155.5t-36 -217q0 -127 33.5 -228t90 -162t127 -92.5
t149.5 -31.5q134 0 232.5 76.5t127.5 214.5h80q-33 -167 -154 -262t-292 -95q-100 0 -187 37.5t-152.5 108t-103 179.5t-37.5 243q0 129 40 237.5t108 180.5t158.5 111.5t191.5 39.5z" />
    <glyph glyph-name="Ccaron" unicode="&#x10c;" horiz-adv-x="1398" 
d="M686 1507l-135 193h72l96 -152l96 152h70l-133 -193h-66zM1219 467h77l-2 -21q-18 -101 -61 -185t-111.5 -150t-170.5 -103t-228 -37q-278 0 -449.5 198.5t-171.5 532.5q0 215 84.5 384.5t232 262.5t331.5 93q118 0 214 -35t162 -97.5t108 -144t60 -180.5l2 -20h-77
l-5 20q-35 175 -156.5 282t-314.5 107q-111 0 -210.5 -45.5t-176.5 -128.5t-122.5 -211t-45.5 -282q0 -161 42.5 -289.5t116 -210.5t170.5 -125t210 -43q205 0 327 111.5t160 295.5z" />
    <glyph glyph-name="ccaron" unicode="&#x10d;" horiz-adv-x="1064" 
d="M514 1188l-135 225h70l98 -176l98 176h68l-133 -225h-66zM547 37q134 0 232.5 76.5t127.5 214.5h80q-33 -167 -154 -262t-292 -95q-100 0 -187 37.5t-152.5 108t-103 179.5t-37.5 243q0 129 40 237.5t108 180.5t158.5 111.5t191.5 39.5q178 0 295.5 -101.5t142.5 -269.5
h-79q-28 145 -121.5 226t-241.5 81q-75 0 -146.5 -31t-130.5 -89.5t-95 -155.5t-36 -217q0 -127 33.5 -228t90 -162t127 -92.5t149.5 -31.5z" />
    <glyph glyph-name="Dcaron" unicode="&#x10e;" horiz-adv-x="1406" 
d="M684 1507l-135 193h72l96 -152l96 152h70l-133 -193h-66zM770 1409q77 -7 152 -34t150 -82t131 -131.5t91 -192t35 -254.5q0 -137 -35 -253.5t-90 -194.5t-127.5 -135.5t-143.5 -86t-142 -37.5q-72 -8 -181 -8h-411v1413h413q101 0 158 -4zM780 78q70 9 135.5 38.5
t125.5 83t104.5 125.5t71 173t26.5 217q0 119 -28 220t-75 171t-109.5 121t-129.5 77.5t-137 34.5q-53 7 -154 7h-334v-1278h330q98 0 174 10z" />
    <glyph glyph-name="dcaron" unicode="&#x10f;" horiz-adv-x="1150" 
d="M924 1505h77v-1505h-77v229l-64 -123q-65 -72 -142.5 -103.5t-182.5 -31.5q-143 0 -251.5 71.5t-165.5 198t-57 289.5q0 140 40.5 252t110.5 182t159 107t190 37q187 0 301 -123l62 -125v645zM1229 1503v-14l-107 -246h-59l92 260h74zM543 37q64 0 118.5 15t104 49.5
t84 87t54.5 132t20 179.5v104q0 96 -22 173t-57.5 125.5t-84 81t-97.5 45.5t-102 13q-183 0 -298.5 -138t-115.5 -363q0 -103 26 -193.5t75 -160t125 -110t170 -40.5z" />
    <glyph glyph-name="Dcroat" unicode="&#x110;" horiz-adv-x="1411" 
d="M774 1409q78 -7 153 -34t149.5 -82t130.5 -132t91 -192t35 -254q0 -137 -34.5 -253.5t-89.5 -194.5t-127.5 -135.5t-144 -86t-142.5 -37.5q-72 -8 -181 -8h-409v653h-123v60h123v700h411q103 0 158 -4zM786 78q70 9 135.5 38.5t125.5 83t104.5 125.5t71 173t26.5 217
q0 119 -28.5 220t-75.5 171t-110 121t-130 77.5t-137 34.5q-52 7 -154 7h-331v-633h352v-60h-352v-585h329q95 0 174 10z" />
    <glyph glyph-name="dcroat" unicode="&#x111;" horiz-adv-x="1155" 
d="M1090 1247h-89v-1247h-77v229l-64 -123q-65 -72 -142.5 -103.5t-182.5 -31.5q-143 0 -251.5 71.5t-165.5 198t-57 289.5q0 140 40.5 252t110.5 182t159 107t190 37q187 0 301 -123l62 -125v387h-240v60h240v198h77v-198h89v-60zM543 37q64 0 118.5 15t104 49.5t84 87
t54.5 132t20 179.5v104q0 96 -22 173t-57.5 125.5t-84 81t-97.5 45.5t-102 13q-183 0 -298.5 -138t-115.5 -363q0 -103 26 -193.5t75 -160t125 -110t170 -40.5z" />
    <glyph glyph-name="Emacron" unicode="&#x112;" horiz-adv-x="1157" 
d="M788 1573h-337v59h337v-59zM1094 68v-68h-895v1413h874v-65h-797v-609h750v-65h-750v-606h818z" />
    <glyph glyph-name="emacron" unicode="&#x113;" horiz-adv-x="1081" 
d="M705 1262h-338v59h338v-59zM1006 569q0 -24 -2 -51h-861q4 -126 39.5 -222t92 -150.5t122.5 -81.5t140 -27q130 0 232 76t140 223h80q-43 -177 -168 -271t-289 -94q-98 0 -182.5 36.5t-149.5 106.5t-102 180.5t-37 248.5q0 126 38 232.5t104 179t156 113t192 40.5
q111 0 199.5 -44.5t143 -120t83.5 -171.5t29 -203zM547 1042q-72 0 -141 -28.5t-127 -83t-95 -144t-41 -200.5h783q-4 120 -38 211t-88.5 143t-118 77t-134.5 25z" />
    <glyph glyph-name="Edotaccent" unicode="&#x116;" horiz-adv-x="1157" 
d="M618 1550q-22 0 -37.5 16t-15.5 38q0 23 15.5 39t37.5 16q23 0 39.5 -16t16.5 -39q0 -22 -16.5 -38t-39.5 -16zM1094 68v-68h-895v1413h874v-65h-797v-609h750v-65h-750v-606h818z" />
    <glyph glyph-name="edotaccent" unicode="&#x117;" horiz-adv-x="1081" 
d="M535 1245q-25 0 -42.5 17.5t-17.5 42.5t17.5 42t42.5 17t42 -17t17 -42t-17 -42.5t-42 -17.5zM1006 569q0 -24 -2 -51h-861q4 -126 39.5 -222t92 -150.5t122.5 -81.5t140 -27q130 0 232 76t140 223h80q-43 -177 -168 -271t-289 -94q-98 0 -182.5 36.5t-149.5 106.5
t-102 180.5t-37 248.5q0 126 38 232.5t104 179t156 113t192 40.5q111 0 199.5 -44.5t143 -120t83.5 -171.5t29 -203zM547 1042q-72 0 -141 -28.5t-127 -83t-95 -144t-41 -200.5h783q-4 120 -38 211t-88.5 143t-118 77t-134.5 25z" />
    <glyph glyph-name="Eogonek" unicode="&#x118;" horiz-adv-x="1157" 
d="M1094 68v-68q-103 -40 -167.5 -117.5t-64.5 -175.5q0 -106 92 -106q67 0 129 59v-61q-65 -56 -151 -56q-65 0 -105.5 35t-40.5 115q0 96 54 176t147 131h-788v1413h874v-65h-797v-609h750v-65h-750v-606h818z" />
    <glyph glyph-name="eogonek" unicode="&#x119;" horiz-adv-x="1081" 
d="M1006 569q0 -24 -2 -51h-861q4 -126 39.5 -222t92 -150.5t122.5 -81.5t140 -27q130 0 232 76t140 223h80q-31 -127 -106.5 -212.5t-180.5 -123.5l-4 -2q-4 -1 -13 -4t-13 -4q-91 -32 -148 -110.5t-57 -172.5q0 -106 92 -106q67 0 129 59v-61q-65 -56 -151 -56
q-65 0 -105.5 35t-40.5 115q0 82 40 155t110 123h-9q-98 0 -182.5 36.5t-149.5 106.5t-102 180.5t-37 248.5q0 126 38 232.5t104 179t156 113t192 40.5q111 0 199.5 -44.5t143 -120t83.5 -171.5t29 -203zM547 1042q-72 0 -141 -28.5t-127 -83t-95 -144t-41 -200.5h783
q-4 120 -38 211t-88.5 143t-118 77t-134.5 25z" />
    <glyph glyph-name="Ecaron" unicode="&#x11a;" horiz-adv-x="1157" 
d="M588 1507l-135 193h71l97 -152l96 152h69l-133 -193h-65zM1094 68v-68h-895v1413h874v-65h-797v-609h750v-65h-750v-606h818z" />
    <glyph glyph-name="ecaron" unicode="&#x11b;" horiz-adv-x="1081" 
d="M504 1188l-135 225h69l99 -176l98 176h67l-133 -225h-65zM1006 569q0 -24 -2 -51h-861q4 -126 39.5 -222t92 -150.5t122.5 -81.5t140 -27q130 0 232 76t140 223h80q-43 -177 -168 -271t-289 -94q-98 0 -182.5 36.5t-149.5 106.5t-102 180.5t-37 248.5q0 126 38 232.5
t104 179t156 113t192 40.5q111 0 199.5 -44.5t143 -120t83.5 -171.5t29 -203zM547 1042q-72 0 -141 -28.5t-127 -83t-95 -144t-41 -200.5h783q-4 120 -38 211t-88.5 143t-118 77t-134.5 25z" />
    <glyph glyph-name="Gbreve" unicode="&#x11e;" horiz-adv-x="1429" 
d="M739 1479q-94 0 -147 59t-53 162h55q1 -76 40.5 -118t104.5 -42t106 42t42 118h53q0 -103 -53.5 -162t-147.5 -59zM786 643h519v-643h-72v342l-47 -131q-78 -122 -198.5 -181t-260.5 -59q-281 0 -453 198.5t-172 532.5q0 216 86 385t237 262t341 93q231 0 369 -126
t174 -331l4 -20h-78l-4 20q-35 175 -156.5 282t-316.5 107q-114 0 -217 -45.5t-181.5 -128.5t-125 -211t-46.5 -282q0 -161 42.5 -289.5t116.5 -210.5t172.5 -125t213.5 -43q68 0 135 18t132.5 59.5t115.5 101.5t80.5 152.5t30.5 204.5h-441v68z" />
    <glyph glyph-name="gbreve" unicode="&#x11f;" horiz-adv-x="1150" 
d="M567 1165q-96 0 -144 65t-48 183h55q1 -90 36.5 -138t100.5 -48q64 0 98.5 47.5t36.5 138.5h56q0 -119 -47.5 -183.5t-143.5 -64.5zM1001 1085v-802q0 -229 -2 -297q-6 -199 -127.5 -315.5t-332.5 -116.5q-87 0 -158.5 18.5t-129 57t-94.5 103.5t-48 154l-5 27h80l2 -27
q18 -134 115.5 -200t241.5 -66q179 0 276.5 100.5t102.5 270.5q2 68 2 201v36l-64 -123q-65 -72 -142.5 -103.5t-182.5 -31.5q-143 0 -251.5 71.5t-165.5 198t-57 289.5q0 140 40.5 252t110.5 182t159 107t190 37q187 0 301 -123l62 -125v225h77zM543 37q64 0 118.5 15
t104 49.5t84 87t54.5 132t20 179.5v104q0 96 -22 173t-57.5 125.5t-84 81t-97.5 45.5t-102 13q-183 0 -298.5 -138t-115.5 -363q0 -103 26 -193.5t75 -160t125 -110t170 -40.5z" />
    <glyph glyph-name="Gdotaccent" unicode="&#x120;" horiz-adv-x="1429" 
d="M739 1550q-22 0 -37.5 16t-15.5 38q0 23 15.5 39t37.5 16q23 0 39.5 -16t16.5 -39q0 -22 -16.5 -38t-39.5 -16zM786 643h519v-643h-72v342l-47 -131q-78 -122 -198.5 -181t-260.5 -59q-281 0 -453 198.5t-172 532.5q0 216 86 385t237 262t341 93q231 0 369 -126t174 -331
l4 -20h-78l-4 20q-35 175 -156.5 282t-316.5 107q-114 0 -217 -45.5t-181.5 -128.5t-125 -211t-46.5 -282q0 -161 42.5 -289.5t116.5 -210.5t172.5 -125t213.5 -43q68 0 135 18t132.5 59.5t115.5 101.5t80.5 152.5t30.5 204.5h-441v68z" />
    <glyph glyph-name="gdotaccent" unicode="&#x121;" horiz-adv-x="1150" 
d="M567 1245q-25 0 -42 17.5t-17 42.5t17 42t42 17t42.5 -17t17.5 -42t-17.5 -42.5t-42.5 -17.5zM1001 1085v-802q0 -229 -2 -297q-6 -199 -127.5 -315.5t-332.5 -116.5q-87 0 -158.5 18.5t-129 57t-94.5 103.5t-48 154l-5 27h80l2 -27q18 -134 115.5 -200t241.5 -66
q179 0 276.5 100.5t102.5 270.5q2 68 2 201v36l-64 -123q-65 -72 -142.5 -103.5t-182.5 -31.5q-143 0 -251.5 71.5t-165.5 198t-57 289.5q0 140 40.5 252t110.5 182t159 107t190 37q187 0 301 -123l62 -125v225h77zM543 37q64 0 118.5 15t104 49.5t84 87t54.5 132t20 179.5
v104q0 96 -22 173t-57.5 125.5t-84 81t-97.5 45.5t-102 13q-183 0 -298.5 -138t-115.5 -363q0 -103 26 -193.5t75 -160t125 -110t170 -40.5z" />
    <glyph glyph-name="Gcommaaccent" unicode="&#x122;" horiz-adv-x="1429" 
d="M786 643h519v-643h-72v342l-47 -131q-78 -122 -198.5 -181t-260.5 -59q-281 0 -453 198.5t-172 532.5q0 216 86 385t237 262t341 93q231 0 369 -126t174 -331l4 -20h-78l-4 20q-35 175 -156.5 282t-316.5 107q-114 0 -217 -45.5t-181.5 -128.5t-125 -211t-46.5 -282
q0 -161 42.5 -289.5t116.5 -210.5t172.5 -125t213.5 -43q68 0 135 18t132.5 59.5t115.5 101.5t80.5 152.5t30.5 204.5h-441v68zM707 -104h73v-15l-106 -248h-60z" />
    <glyph glyph-name="gcommaaccent" unicode="&#x123;" horiz-adv-x="1150" 
d="M600 1190h-74v14l107 248h61zM1001 1085v-802q0 -229 -2 -297q-6 -199 -127.5 -315.5t-332.5 -116.5q-87 0 -158.5 18.5t-129 57t-94.5 103.5t-48 154l-5 27h80l2 -27q18 -134 115.5 -200t241.5 -66q179 0 276.5 100.5t102.5 270.5q2 68 2 201v36l-64 -123
q-65 -72 -142.5 -103.5t-182.5 -31.5q-143 0 -251.5 71.5t-165.5 198t-57 289.5q0 140 40.5 252t110.5 182t159 107t190 37q187 0 301 -123l62 -125v225h77zM543 37q64 0 118.5 15t104 49.5t84 87t54.5 132t20 179.5v104q0 96 -22 173t-57.5 125.5t-84 81t-97.5 45.5
t-102 13q-183 0 -298.5 -138t-115.5 -363q0 -103 26 -193.5t75 -160t125 -110t170 -40.5z" />
    <glyph glyph-name="Hbar" unicode="&#x126;" horiz-adv-x="1380" 
d="M1313 1057h-82v-1057h-78v659h-877v-659h-77v1057h-82v59h82v297h77v-297h877v297h78v-297h82v-59zM1153 1057h-877v-330h877v330z" />
    <glyph glyph-name="hbar" unicode="&#x127;" horiz-adv-x="1140" 
d="M997 780q7 -96 7 -178v-602h-78v584q0 92 -6 174q-14 133 -90 208t-218 74q-73 0 -137 -26.5t-115.5 -78t-81.5 -138.5t-30 -199v-598h-78v1247h-104v60h104v209h78v-209h223v-60h-223v-399l49 113q121 147 326 147q164 0 260.5 -86t113.5 -242z" />
    <glyph glyph-name="Imacron" unicode="&#x12a;" horiz-adv-x="425" 
d="M408 1573h-338v59h338v-59zM276 0h-77v1413h77v-1413z" />
    <glyph glyph-name="imacron" unicode="&#x12b;" horiz-adv-x="374" 
d="M356 1262h-338v59h338v-59zM225 0h-78v1079h78v-1079z" />
    <glyph glyph-name="Iogonek" unicode="&#x12e;" horiz-adv-x="425" 
d="M276 1413v-1413h-12q-102 -40 -166.5 -117.5t-64.5 -175.5q0 -106 92 -106q67 0 129 59v-61q-65 -56 -152 -56q-66 0 -106.5 35t-40.5 115q0 106 67 193t177 134v1393h77z" />
    <glyph glyph-name="iogonek" unicode="&#x12f;" horiz-adv-x="374" 
d="M186 1364q25 0 42.5 -17t17.5 -42t-17.5 -42.5t-42.5 -17.5t-42 17.5t-17 42.5t17 42t42 17zM147 1079h78v-1079h-24q-103 -26 -170.5 -109t-67.5 -184q0 -106 94 -106q67 0 129 59v-61q-65 -56 -151 -56q-66 0 -107 35t-41 115q0 113 72.5 205t187.5 129v1052z" />
    <glyph glyph-name="Idotaccent" unicode="&#x130;" horiz-adv-x="425" 
d="M238 1659q23 0 39 -16t16 -39q0 -22 -16 -38t-39 -16q-22 0 -38 16t-16 38q0 23 16 39t38 16zM276 0h-77v1413h77v-1413z" />
    <glyph glyph-name="dotlessi" unicode="&#x131;" horiz-adv-x="374" 
d="M225 0h-78v1079h78v-1079z" />
    <glyph glyph-name="IJ" unicode="&#x132;" horiz-adv-x="1464" 
d="M276 0h-77v1413h77v-1413zM1335 1413v-878q0 -115 -4 -183q-5 -78 -31 -145t-74 -120.5t-124.5 -84.5t-173.5 -31q-185 0 -289 108t-111 318l-2 68h78l2 -68q7 -186 95.5 -272t236.5 -86q141 0 222 83.5t93 237.5q4 43 4 164v889h78z" />
    <glyph glyph-name="ij" unicode="&#x133;" horiz-adv-x="733" 
d="M186 1364q25 0 42.5 -17t17.5 -42t-17.5 -42.5t-42.5 -17.5t-42 17.5t-17 42.5t17 42t42 17zM547 1364q25 0 42 -17t17 -42t-17 -42.5t-42 -17.5t-41.5 17.5t-16.5 42.5t16.5 42t41.5 17zM225 0h-78v1079h78v-1079zM586 1079v-1214q0 -76 -2 -113q-6 -91 -57 -136.5
t-134 -45.5q-33 0 -74 6v66q89 -14 136 12.5t51 107.5q2 29 2 82v1235h78z" />
    <glyph glyph-name="Kcommaaccent" unicode="&#x136;" horiz-adv-x="1161" 
d="M438 727l697 -727h-113l-643 676l-103 -103v-573h-77v1413h77v-751l781 751h96zM596 -104h74v-15l-107 -248h-59z" />
    <glyph glyph-name="kcommaaccent" unicode="&#x137;" horiz-adv-x="970" 
d="M938 0h-111l-505 510l-97 -92v-418h-78v1505h78v-999l602 573h107l-555 -520zM459 -104h73v-15l-106 -248h-59z" />
    <glyph glyph-name="Lacute" unicode="&#x139;" horiz-adv-x="1122" 
d="M260 1507h-57l108 193h84zM1094 68v-68h-895v1413h77v-1345h818z" />
    <glyph glyph-name="lacute" unicode="&#x13a;" horiz-adv-x="393" 
d="M201 1608h-58l123 225h84zM219 1505v-1243q0 -100 2 -131q3 -51 28 -66.5t91 -7.5v-61q-25 -6 -76 -6q-55 0 -86.5 27.5t-34.5 93.5q-2 41 -2 149v1245h78z" />
    <glyph glyph-name="Lcommaaccent" unicode="&#x13b;" horiz-adv-x="1122" 
d="M1094 68v-68h-895v1413h77v-1345h818zM584 -104h73v-15l-106 -248h-59z" />
    <glyph glyph-name="lcommaaccent" unicode="&#x13c;" horiz-adv-x="393" 
d="M219 1505v-1243q0 -100 2 -131q3 -51 28 -66.5t91 -7.5v-61q-25 -6 -76 -6q-55 0 -86.5 27.5t-34.5 93.5q-2 41 -2 149v1245h78zM274 -119l-106 -248h-59l92 263h73v-15z" />
    <glyph glyph-name="Lcaron" unicode="&#x13d;" horiz-adv-x="1122" 
d="M1094 68v-68h-895v1413h77v-1345h818z" />
    <glyph glyph-name="lcaron" unicode="&#x13e;" horiz-adv-x="393" 
d="M219 1505v-1243q0 -100 2 -131q3 -51 28 -66.5t91 -7.5v-61q-25 -6 -76 -6q-55 0 -86.5 27.5t-34.5 93.5q-2 41 -2 149v1245h78z" />
    <glyph glyph-name="Ldot" unicode="&#x13f;" horiz-adv-x="1122" 
d="M1094 68v-68h-895v1413h77v-1345h818zM709 760q-25 0 -42.5 17t-17.5 42t17.5 42.5t42.5 17.5q24 0 40.5 -17.5t16.5 -42.5t-16 -42t-41 -17z" />
    <glyph glyph-name="ldot" unicode="&#x140;" horiz-adv-x="456" 
d="M219 1505v-1243q0 -100 2 -131q3 -51 28 -66.5t91 -7.5v-61q-25 -6 -76 -6q-55 0 -86.5 27.5t-34.5 93.5q-2 41 -2 149v1245h78zM385 879q25 0 42 -17.5t17 -42.5t-17 -42t-42 -17t-42 17t-17 42t17 42.5t42 17.5z" />
    <glyph glyph-name="Lslash" unicode="&#x141;" horiz-adv-x="1183" 
d="M1153 68v-68h-893v629l-231 -137v71l231 137v713h78v-665l346 204v-71l-346 -205v-608h815z" />
    <glyph glyph-name="lslash" unicode="&#x142;" horiz-adv-x="456" 
d="M262 649v-387q0 -100 2 -131q3 -51 28 -66.5t91 -7.5v-61q-25 -6 -76 -6q-55 0 -86.5 27.5t-34.5 93.5q-2 41 -2 149v336l-121 -82v76l121 82v833h78v-782l121 82v-74z" />
    <glyph glyph-name="Nacute" unicode="&#x143;" horiz-adv-x="1345" 
d="M721 1507h-57l108 193h84zM1198 0h-121l-805 1339q4 -184 4 -585v-754h-77v1413h118l807 -1339q-4 184 -4 588v751h76z" />
    <glyph glyph-name="nacute" unicode="&#x144;" horiz-adv-x="1118" 
d="M582 1188h-58l123 225h84zM973 780q8 -73 8 -178v-602h-78v584q0 101 -8 174q-14 132 -89 207t-216 75q-73 0 -137.5 -26.5t-116 -78t-81.5 -138.5t-30 -199v-598h-78v1079h78v-231l49 113q118 147 324 147q166 0 263 -86.5t112 -241.5z" />
    <glyph glyph-name="Ncommaaccent" unicode="&#x145;" horiz-adv-x="1345" 
d="M1198 0h-121l-805 1339q4 -184 4 -585v-754h-77v1413h118l807 -1339q-4 184 -4 588v751h76zM741 -119l-106 -248h-60l93 263h73v-15z" />
    <glyph glyph-name="ncommaaccent" unicode="&#x146;" horiz-adv-x="1118" 
d="M973 780q8 -73 8 -178v-602h-78v584q0 101 -8 174q-14 132 -89 207t-216 75q-73 0 -137.5 -26.5t-116 -78t-81.5 -138.5t-30 -199v-598h-78v1079h78v-231l49 113q118 147 324 147q166 0 263 -86.5t112 -241.5zM520 -104h74v-15l-107 -248h-59z" />
    <glyph glyph-name="Ncaron" unicode="&#x147;" horiz-adv-x="1345" 
d="M668 1507l-136 193h72l96 -152l97 152h69l-133 -193h-65zM1077 0l-805 1339q4 -184 4 -585v-754h-77v1413h118l807 -1339q-4 184 -4 588v751h76l2 -1413h-121z" />
    <glyph glyph-name="ncaron" unicode="&#x148;" horiz-adv-x="1118" 
d="M528 1188l-135 225h70l98 -176l98 176h68l-133 -225h-66zM973 780q8 -73 8 -178v-602h-78v584q0 101 -8 174q-14 132 -89 207t-216 75q-73 0 -137.5 -26.5t-116 -78t-81.5 -138.5t-30 -199v-598h-78v1079h78v-231l49 113q118 147 324 147q166 0 263 -86.5t112 -241.5z
" />
    <glyph glyph-name="Eng" unicode="&#x14a;" horiz-adv-x="1345" 
d="M1198 1413v-1550q0 -55 -2 -84q-10 -124 -81.5 -178.5t-209.5 -57.5v68q112 0 162.5 49.5t50.5 169.5v125l-846 1380q4 -184 4 -581v-754h-77v1413h118l807 -1319q-4 184 -4 578v741h78z" />
    <glyph glyph-name="eng" unicode="&#x14b;" horiz-adv-x="1118" 
d="M973 780q8 -73 8 -178v-713q0 -55 -2 -84q-10 -126 -82.5 -180.5t-214.5 -54.5v68q105 0 158.5 37t60.5 128q2 27 2 78v703q0 101 -8 174q-14 132 -89 207t-216 75q-73 0 -137.5 -26.5t-116 -78t-81.5 -138.5t-30 -199v-598h-78v1079h78v-231l49 113q118 147 324 147
q166 0 263 -86.5t112 -241.5z" />
    <glyph glyph-name="Omacron" unicode="&#x14c;" horiz-adv-x="1472" 
d="M920 1573h-338v59h338v-59zM750 1442q194 0 341.5 -95t225.5 -261.5t78 -378.5t-78 -378.5t-225.5 -262t-341.5 -95.5q-195 0 -343 95.5t-226.5 262t-78.5 378.5t78.5 378.5t226.5 261.5t343 95zM750 39q116 0 217.5 45.5t177.5 129t120 211t44 282.5q0 156 -44 283.5
t-120 210.5t-177.5 128t-217.5 45q-117 0 -219 -45t-178.5 -128t-120.5 -210.5t-44 -283.5q0 -155 44 -282.5t120.5 -211t178.5 -129t219 -45.5z" />
    <glyph glyph-name="omacron" unicode="&#x14d;" horiz-adv-x="1150" 
d="M745 1262h-337v59h337v-59zM575 1108q236 0 375.5 -157.5t139.5 -411.5q0 -253 -139.5 -410.5t-375.5 -157.5t-375 157.5t-139 410.5q0 254 139 411.5t375 157.5zM575 37q87 0 164 32t137 93t95 158.5t35 218.5q0 122 -35 219.5t-95 158.5t-137 93t-164 32t-163.5 -32
t-136 -93t-94 -158.5t-34.5 -219.5t34.5 -219t94 -158t136 -93t163.5 -32z" />
    <glyph glyph-name="Ohungarumlaut" unicode="&#x150;" horiz-adv-x="1472" 
d="M672 1507h-58l109 193h84zM803 1507l108 193h84l-135 -193h-57zM750 1442q194 0 341.5 -95t225.5 -261.5t78 -378.5t-78 -378.5t-225.5 -262t-341.5 -95.5q-195 0 -343 95.5t-226.5 262t-78.5 378.5t78.5 378.5t226.5 261.5t343 95zM750 39q116 0 217.5 45.5t177.5 129
t120 211t44 282.5q0 156 -44 283.5t-120 210.5t-177.5 128t-217.5 45q-117 0 -219 -45t-178.5 -128t-120.5 -210.5t-44 -283.5q0 -155 44 -282.5t120.5 -211t178.5 -129t219 -45.5z" />
    <glyph glyph-name="ohungarumlaut" unicode="&#x151;" horiz-adv-x="1150" 
d="M489 1188h-57l123 225h84zM705 1188h-58l123 225h84zM575 1108q236 0 375.5 -157.5t139.5 -411.5q0 -253 -139.5 -410.5t-375.5 -157.5t-375 157.5t-139 410.5q0 254 139 411.5t375 157.5zM575 37q87 0 164 32t137 93t95 158.5t35 218.5q0 122 -35 219.5t-95 158.5
t-137 93t-164 32t-163.5 -32t-136 -93t-94 -158.5t-34.5 -219.5t34.5 -219t94 -158t136 -93t163.5 -32z" />
    <glyph glyph-name="OE" unicode="&#x152;" horiz-adv-x="2267" 
d="M2204 68v-68h-895v387l-62 -156q-94 -136 -216.5 -198t-287.5 -62q-191 0 -338 97t-225 263.5t-78 375.5q0 211 78 377.5t224.5 262t338.5 95.5q171 0 284.5 -58t219.5 -198l62 -162v389h874v-65h-797v-609h750v-65h-750v-606h818zM750 39q249 0 404 179t155 489
q0 155 -41.5 281.5t-115.5 210.5t-177 129.5t-225 45.5q-117 0 -219 -45.5t-178.5 -129t-120.5 -211t-44 -281.5t44 -281t120.5 -211t178.5 -130t219 -46z" />
    <glyph glyph-name="oe" unicode="&#x153;" horiz-adv-x="2025" 
d="M1950 569q0 -24 -4 -51h-856q4 -125 38.5 -220.5t90.5 -150.5t122.5 -82.5t139.5 -27.5q129 0 231.5 76t140.5 223h80q-43 -177 -168 -271t-290 -94q-150 0 -267 87.5t-166 258.5q-51 -166 -173.5 -256t-293.5 -90q-236 0 -375 157.5t-139 410.5q0 254 139 411.5
t375 157.5q173 0 298 -90.5t176 -257.5q50 166 171 257t275 91q111 0 200 -44.5t143.5 -120t83 -171t28.5 -203.5zM575 37q87 0 164 32t137 93t95 158.5t35 218.5q0 122 -35 219.5t-95 158.5t-137 93t-164 32t-163.5 -32t-136 -93t-94 -158.5t-34.5 -219.5t34.5 -219
t94 -158t136 -93t163.5 -32zM1090 586h780q-3 98 -26.5 176.5t-59.5 129.5t-84.5 85.5t-100 49.5t-108.5 15q-73 0 -141.5 -28t-125.5 -82.5t-93.5 -144t-40.5 -201.5z" />
    <glyph glyph-name="Racute" unicode="&#x154;" horiz-adv-x="1193" 
d="M653 1507h-57l109 193h83zM1040 383q16 -145 38 -229t57 -154h-88q-30 83 -49 160t-35 211q-15 130 -75 211.5t-175 87.5q-43 2 -123 2h-314v-672h-77v1413h372q117 0 199 -10q165 -21 254.5 -109t89.5 -243q0 -134 -76.5 -224.5t-203.5 -117.5q90 -31 141.5 -117
t64.5 -209zM276 739h316q90 0 149 4q133 11 211 91.5t78 209.5q0 255 -278 291q-78 11 -181 11h-295v-607z" />
    <glyph glyph-name="racute" unicode="&#x155;" horiz-adv-x="563" 
d="M313 1188h-57l123 225h84zM502 1108q31 0 55 -6v-64q-154 11 -243 -96.5t-89 -343.5v-598h-78v1079h78v-219l58 131q84 117 219 117z" />
    <glyph glyph-name="Rcommaaccent" unicode="&#x156;" horiz-adv-x="1193" 
d="M1040 383q16 -145 38 -229t57 -154h-88q-30 83 -49 160t-35 211q-15 130 -75 211.5t-175 87.5q-43 2 -123 2h-314v-672h-77v1413h372q117 0 199 -10q165 -21 254.5 -109t89.5 -243q0 -134 -76.5 -224.5t-203.5 -117.5q90 -31 141.5 -117t64.5 -209zM276 739h316
q90 0 149 4q133 11 211 91.5t78 209.5q0 255 -278 291q-78 11 -181 11h-295v-607zM582 -104h73v-15l-106 -248h-60z" />
    <glyph glyph-name="rcommaaccent" unicode="&#x157;" horiz-adv-x="563" 
d="M502 1108q31 0 55 -6v-64q-154 11 -243 -96.5t-89 -343.5v-598h-78v1079h78v-219l58 131q84 117 219 117zM152 -104h73v-15l-106 -248h-60z" />
    <glyph glyph-name="Rcaron" unicode="&#x158;" horiz-adv-x="1193" 
d="M600 1507l-135 193h72l96 -152l96 152h70l-133 -193h-66zM1040 383q16 -145 38 -229t57 -154h-88q-30 83 -49 160t-35 211q-15 130 -75 211.5t-175 87.5q-43 2 -123 2h-314v-672h-77v1413h372q117 0 199 -10q165 -21 254.5 -109t89.5 -243q0 -134 -76.5 -224.5
t-203.5 -117.5q90 -31 141.5 -117t64.5 -209zM276 739h316q90 0 149 4q133 11 211 91.5t78 209.5q0 255 -278 291q-78 11 -181 11h-295v-607z" />
    <glyph glyph-name="rcaron" unicode="&#x159;" horiz-adv-x="563" 
d="M260 1188l-135 225h70l98 -176l98 176h68l-133 -225h-66zM502 1108q31 0 55 -6v-64q-154 11 -243 -96.5t-89 -343.5v-598h-78v1079h78v-219l58 131q84 117 219 117z" />
    <glyph glyph-name="Sacute" unicode="&#x15a;" horiz-adv-x="1159" 
d="M608 1507h-57l108 193h84zM598 1442q193 0 306.5 -111.5t135.5 -286.5h-82q-23 156 -121 243t-245 87q-52 0 -103 -11t-96.5 -34.5t-80.5 -56.5t-55.5 -80t-20.5 -102q0 -71 21 -120.5t71.5 -87.5t116 -64t173.5 -56q116 -31 195.5 -66.5t136.5 -84t84 -112t27 -147.5
q0 -164 -132.5 -272.5t-332.5 -108.5q-135 0 -243 44t-180 137t-87 225h82q23 -160 142.5 -249t287.5 -89q163 0 271 84t108 217q0 141 -87.5 215t-303.5 133q-115 31 -191.5 63t-133.5 77.5t-83 106t-26 142.5q0 158 130.5 261.5t315.5 103.5z" />
    <glyph glyph-name="sacute" unicode="&#x15b;" horiz-adv-x="903" 
d="M469 1188h-57l123 225h83zM446 1108q164 0 258 -89.5t117 -236.5h-80q-31 132 -104 196t-195 64q-111 0 -185.5 -61t-74.5 -164q0 -99 70 -150.5t209 -84.5q193 -44 281.5 -117t88.5 -205q0 -133 -104 -211t-268 -78q-107 0 -191.5 34.5t-143 114.5t-71.5 199h80
q45 -282 332 -282q123 0 205 58t82 161q0 102 -71 157.5t-253 98.5q-73 18 -126.5 40t-101.5 56t-73 85.5t-25 117.5q0 131 96 214t248 83z" />
    <glyph glyph-name="Scedilla" unicode="&#x15e;" horiz-adv-x="1159" 
d="M1061 352q0 -163 -130.5 -271.5t-328.5 -109.5l-37 -69q176 -19 176 -162q0 -83 -62.5 -126.5t-154.5 -43.5q-65 0 -106 20v56q45 -23 108 -23q70 0 111 30t41 87q0 124 -201 115l62 118q-186 14 -309 117.5t-144 286.5h82q23 -160 142.5 -249t287.5 -89q163 0 271 84
t108 217q0 141 -87.5 215t-303.5 133q-115 31 -191.5 63t-133.5 77.5t-83 106t-26 142.5q0 158 130.5 261.5t315.5 103.5q193 0 306.5 -111.5t135.5 -286.5h-82q-23 156 -121 243t-245 87q-52 0 -103 -11t-96.5 -34.5t-80.5 -56.5t-55.5 -80t-20.5 -102q0 -71 21 -120.5
t71.5 -87.5t116 -64t173.5 -56q116 -31 195.5 -66.5t136.5 -84t84 -112t27 -147.5z" />
    <glyph glyph-name="scedilla" unicode="&#x15f;" horiz-adv-x="903" 
d="M831 260q0 -128 -97 -205.5t-253 -83.5l-37 -69q177 -19 177 -162q0 -83 -63 -126.5t-155 -43.5q-65 0 -106 20v56q45 -23 109 -23q70 0 110.5 30t40.5 87q0 124 -201 115l62 118q-150 10 -248.5 96t-116.5 250h80q45 -282 332 -282q123 0 205 58t82 161q0 102 -71 157.5
t-253 98.5q-73 18 -126.5 40t-101.5 56t-73 85.5t-25 117.5q0 131 96 214t248 83q164 0 258 -89.5t117 -236.5h-80q-31 132 -104 196t-195 64q-111 0 -185.5 -61t-74.5 -164q0 -99 70 -150.5t209 -84.5q193 -44 281.5 -117t88.5 -205z" />
    <glyph glyph-name="Scaron" unicode="&#x160;" horiz-adv-x="1159" 
d="M555 1507l-135 193h72l96 -152l96 152h70l-133 -193h-66zM618 762q116 -31 195.5 -66.5t136.5 -84t84 -112t27 -147.5q0 -164 -132.5 -272.5t-332.5 -108.5q-135 0 -243 44t-180 137t-87 225h82q23 -160 142.5 -249t287.5 -89q163 0 271 84t108 217q0 141 -87.5 215
t-303.5 133q-115 31 -191.5 63t-133.5 77.5t-83 106t-26 142.5q0 158 130.5 261.5t315.5 103.5q193 0 306.5 -111.5t135.5 -286.5h-82q-23 156 -121 243t-245 87q-52 0 -103 -11t-96.5 -34.5t-80.5 -56.5t-55.5 -80t-20.5 -102q0 -71 21 -120.5t71.5 -87.5t116 -64
t173.5 -56z" />
    <glyph glyph-name="scaron" unicode="&#x161;" horiz-adv-x="903" 
d="M416 1188l-135 225h69l99 -176l98 176h67l-133 -225h-65zM461 582q193 -44 281.5 -117t88.5 -205q0 -133 -104 -211t-268 -78q-107 0 -191.5 34.5t-143 114.5t-71.5 199h80q45 -282 332 -282q123 0 205 58t82 161q0 102 -71 157.5t-253 98.5q-73 18 -126.5 40t-101.5 56
t-73 85.5t-25 117.5q0 131 96 214t248 83q164 0 258 -89.5t117 -236.5h-80q-31 132 -104 196t-195 64q-111 0 -185.5 -61t-74.5 -164q0 -99 70 -150.5t209 -84.5z" />
    <glyph glyph-name="Tcedilla" unicode="&#x162;" horiz-adv-x="1204" 
d="M676 1348v-1332h2l-2 -4v-12h-6l-54 -98q177 -19 177 -162q0 -83 -63 -126.5t-155 -43.5q-65 0 -106 20v56q45 -23 109 -23q70 0 110.5 30t40.5 87q0 124 -201 115l76 145h-6v1348h-530v65h1140v-65h-532z" />
    <glyph glyph-name="tcedilla" unicode="&#x163;" horiz-adv-x="522" 
d="M354 -14l-45 -84q176 -19 176 -162q0 -83 -62.5 -126.5t-154.5 -43.5q-65 0 -106 20v56q45 -23 108 -23q70 0 111 30t41 87q0 124 -201 115l72 139q-94 25 -103 143q-4 45 -4 144v729h-133v61h133v229h78v-229h209v-61h-209v-734q0 -79 2 -108q6 -81 50.5 -106.5
t158.5 -8.5v-61q-49 -6 -115 -6h-6z" />
    <glyph glyph-name="Tcaron" unicode="&#x164;" horiz-adv-x="1204" 
d="M606 1507l-135 193h72l96 -152l96 152h70l-133 -193h-66zM1208 1348h-532v-1348h-78v1348h-530v65h1140v-65z" />
    <glyph glyph-name="tcaron" unicode="&#x165;" horiz-adv-x="495" 
d="M532 1503v-12l-106 -248h-59l92 260h73zM266 168q6 -81 50.5 -106.5t158.5 -8.5v-61q-49 -6 -115 -6q-80 0 -122 37t-48 114q-4 45 -4 144v729h-133v61h133v229h78v-229h209v-61h-209v-734q0 -79 2 -108z" />
    <glyph glyph-name="Tbar" unicode="&#x166;" horiz-adv-x="1204" 
d="M676 1348v-635h278v-60h-278v-653h-78v653h-279v60h279v635h-530v65h1140v-65h-532z" />
    <glyph glyph-name="tbar" unicode="&#x167;" horiz-adv-x="522" 
d="M266 168q6 -81 50.5 -106.5t158.5 -8.5v-61q-49 -6 -115 -6q-80 0 -122 37t-48 114q-4 45 -4 144v376h-120v60h120v293h-133v61h133v229h78v-229h209v-61h-209v-293h139v-60h-139v-381q0 -79 2 -108z" />
    <glyph glyph-name="Umacron" unicode="&#x16a;" horiz-adv-x="1271" 
d="M829 1573h-337v59h337v-59zM1135 1413v-924q0 -35 -7 -135q-13 -173 -133 -278t-336 -105q-215 0 -334 105t-132 278q-7 100 -7 135v924h78v-926q0 -65 6 -127q13 -143 110.5 -232t278.5 -89q183 0 281 89t111 232q6 62 6 127v926h78z" />
    <glyph glyph-name="umacron" unicode="&#x16b;" 
d="M715 1262h-338v59h338v-59zM963 1079v-1079h-78v231l-49 -112q-124 -148 -324 -148q-162 0 -259 84.5t-116 233.5q-8 73 -8 180v610h78v-590q0 -97 8 -170q16 -131 92.5 -205.5t214.5 -74.5q154 0 258.5 112.5t104.5 329.5v598h78z" />
    <glyph glyph-name="Uring" unicode="&#x16e;" horiz-adv-x="1271" 
d="M659 1745q61 0 102.5 -37.5t41.5 -97.5t-41 -96.5t-103 -36.5q-61 0 -102 36.5t-41 96.5t41 97.5t102 37.5zM659 1694q-37 0 -58 -23.5t-21 -60.5t21 -60.5t58 -23.5t59.5 24t22.5 60t-22.5 60t-59.5 24zM1135 1413v-924q0 -35 -7 -135q-13 -173 -133 -278t-336 -105
q-215 0 -334 105t-132 278q-7 100 -7 135v924h78v-926q0 -65 6 -127q13 -143 110.5 -232t278.5 -89q183 0 281 89t111 232q6 62 6 127v926h78z" />
    <glyph glyph-name="uring" unicode="&#x16f;" 
d="M545 1167q-61 0 -101.5 39t-40.5 101t40.5 99.5t101.5 37.5t101 -37.5t40 -99.5t-40 -101t-101 -39zM545 1395q-37 0 -58.5 -25t-21.5 -63t21.5 -63t58.5 -25t59.5 25t22.5 63t-22.5 63t-59.5 25zM963 1079v-1079h-78v231l-49 -112q-124 -148 -324 -148q-162 0 -259 84.5
t-116 233.5q-8 73 -8 180v610h78v-590q0 -97 8 -170q16 -131 92.5 -205.5t214.5 -74.5q154 0 258.5 112.5t104.5 329.5v598h78z" />
    <glyph glyph-name="Uhungarumlaut" unicode="&#x170;" horiz-adv-x="1271" 
d="M582 1507h-58l109 193h84zM770 1507h-57l108 193h84zM1135 1413v-924q0 -35 -7 -135q-13 -173 -133 -278t-336 -105q-215 0 -334 105t-132 278q-7 100 -7 135v924h78v-926q0 -65 6 -127q13 -143 110.5 -232t278.5 -89q183 0 281 89t111 232q6 62 6 127v926h78z" />
    <glyph glyph-name="uhungarumlaut" unicode="&#x171;" 
d="M459 1188h-58l123 225h84zM674 1188h-58l123 225h84zM963 1079v-1079h-78v231l-49 -112q-124 -148 -324 -148q-162 0 -259 84.5t-116 233.5q-8 73 -8 180v610h78v-590q0 -97 8 -170q16 -131 92.5 -205.5t214.5 -74.5q154 0 258.5 112.5t104.5 329.5v598h78z" />
    <glyph glyph-name="Uogonek" unicode="&#x172;" horiz-adv-x="1271" 
d="M1135 1413v-924q0 -35 -7 -135q-9 -127 -77.5 -219.5t-192.5 -134.5q-102 -40 -166.5 -117.5t-64.5 -175.5q0 -106 92 -106q67 0 129 59v-61q-65 -56 -152 -56q-145 0 -145 150q0 168 158 280l-50 -2q-215 0 -334 105t-132 278q-7 100 -7 135v924h78v-926q0 -65 6 -127
q13 -143 110.5 -232t278.5 -89q183 0 281 89t111 232q6 62 6 127v926h78z" />
    <glyph glyph-name="uogonek" unicode="&#x173;" 
d="M963 1079v-1079h-25q-103 -26 -169.5 -109t-66.5 -184q0 -106 93 -106q67 0 129 59v-61q-65 -56 -152 -56q-145 0 -145 150q0 113 71.5 205t186.5 129v204l-49 -112q-124 -148 -324 -148q-162 0 -259 84.5t-116 233.5q-8 73 -8 180v610h78v-590q0 -97 8 -170
q16 -131 92.5 -205.5t214.5 -74.5q154 0 258.5 112.5t104.5 329.5v598h78z" />
    <glyph glyph-name="Wcircumflex" unicode="&#x174;" horiz-adv-x="1751" 
d="M793 1507h-70l135 193h66l133 -193h-72l-96 152zM1753 1413l-385 -1413h-100l-365 1317l-387 -1317h-104l-359 1413h86l330 -1339l383 1319h106l363 -1317l352 1337h80z" />
    <glyph glyph-name="wcircumflex" unicode="&#x175;" horiz-adv-x="1501" 
d="M659 1188h-67l135 225h66l133 -225h-70l-98 176zM1487 1079l-342 -1079h-94l-291 997l-291 -997h-104l-345 1079h91l307 -1003l291 1001h102l293 -997l299 999h84z" />
    <glyph glyph-name="Ycircumflex" unicode="&#x176;" horiz-adv-x="1134" 
d="M489 1507h-69l135 193h66l133 -193h-72l-96 152zM625 573v-573h-78v573l-502 840h90l455 -762l446 762h90z" />
    <glyph glyph-name="ycircumflex" unicode="&#x177;" horiz-adv-x="964" 
d="M387 1188h-68l136 225h65l133 -225h-69l-99 176zM950 1079l-424 -1102q-48 -126 -91.5 -207.5t-87.5 -124.5t-84.5 -59t-94.5 -16q-42 0 -76 6v68q27 -6 76 -6q71 0 129.5 56t118.5 202l30 77l-426 1106h89l376 -1018l377 1018h88z" />
    <glyph glyph-name="Ydieresis" unicode="&#x178;" horiz-adv-x="1134" 
d="M496 1550q-22 0 -38 16t-16 38q0 23 16 39t38 16q23 0 39 -16t16 -39q0 -22 -16 -38t-39 -16zM676 1550q-23 0 -39 16t-16 38q0 23 16 39t39 16q22 0 37.5 -16t15.5 -39q0 -22 -15.5 -38t-37.5 -16zM625 573v-573h-78v573l-502 840h90l455 -762l446 762h90z" />
    <glyph glyph-name="Zacute" unicode="&#x179;" horiz-adv-x="1128" 
d="M600 1507h-57l108 193h84zM1077 68v-68h-997v59l895 1287h-838v67h928v-65l-891 -1280h903z" />
    <glyph glyph-name="zacute" unicode="&#x17a;" horiz-adv-x="919" 
d="M481 1188h-57l123 225h84zM870 63v-63h-839v61l735 936h-682v68h778v-66l-737 -936h745z" />
    <glyph glyph-name="Zdotaccent" unicode="&#x17b;" horiz-adv-x="1128" 
d="M578 1550q-22 0 -38 16t-16 38q0 23 16 39t38 16q23 0 39 -16t16 -39q0 -22 -16 -38t-39 -16zM1077 68v-68h-997v59l895 1287h-838v67h928v-65l-891 -1280h903z" />
    <glyph glyph-name="zdotaccent" unicode="&#x17c;" horiz-adv-x="919" 
d="M459 1245q-25 0 -42.5 17.5t-17.5 42.5t17.5 42t42.5 17t42 -17t17 -42t-17 -42.5t-42 -17.5zM870 63v-63h-839v61l735 936h-682v68h778v-66l-737 -936h745z" />
    <glyph glyph-name="Zcaron" unicode="&#x17d;" horiz-adv-x="1128" 
d="M547 1507l-135 193h71l97 -152l96 152h69l-133 -193h-65zM1077 68v-68h-997v59l895 1287h-838v67h928v-65l-891 -1280h903z" />
    <glyph glyph-name="zcaron" unicode="&#x17e;" horiz-adv-x="919" 
d="M428 1188l-135 225h69l99 -176l98 176h68l-133 -225h-66zM870 63v-63h-839v61l735 936h-682v68h778v-66l-737 -936h745z" />
    <glyph glyph-name="Scommaaccent" unicode="&#x218;" horiz-adv-x="1159" 
d="M598 1442q193 0 306.5 -111.5t135.5 -286.5h-82q-23 156 -121 243t-245 87q-52 0 -103 -11t-96.5 -34.5t-80.5 -56.5t-55.5 -80t-20.5 -102q0 -71 21 -120.5t71.5 -87.5t116 -64t173.5 -56q116 -31 195.5 -66.5t136.5 -84t84 -112t27 -147.5q0 -164 -132.5 -272.5
t-332.5 -108.5q-135 0 -243 44t-180 137t-87 225h82q23 -160 142.5 -249t287.5 -89q163 0 271 84t108 217q0 141 -87.5 215t-303.5 133q-115 31 -191.5 63t-133.5 77.5t-83 106t-26 142.5q0 158 130.5 261.5t315.5 103.5zM629 -119l-107 -248h-59l92 263h74v-15z" />
    <glyph glyph-name="scommaaccent" unicode="&#x219;" horiz-adv-x="903" 
d="M446 1108q164 0 258 -89.5t117 -236.5h-80q-31 132 -104 196t-195 64q-111 0 -185.5 -61t-74.5 -164q0 -99 70 -150.5t209 -84.5q193 -44 281.5 -117t88.5 -205q0 -133 -104 -211t-268 -78q-107 0 -191.5 34.5t-143 114.5t-71.5 199h80q45 -282 332 -282q123 0 205 58
t82 161q0 102 -71 157.5t-253 98.5q-73 18 -126.5 40t-101.5 56t-73 85.5t-25 117.5q0 131 96 214t248 83zM506 -119l-107 -248h-59l92 263h74v-15z" />
    <glyph glyph-name="uni021A" unicode="&#x21a;" horiz-adv-x="1204" 
d="M1208 1413v-65h-532v-1348h-78v1348h-530v65h1140zM606 -104h74v-15l-107 -248h-59z" />
    <glyph glyph-name="uni021B" unicode="&#x21b;" horiz-adv-x="522" 
d="M266 168q6 -81 50.5 -106.5t158.5 -8.5v-61q-49 -6 -115 -6q-80 0 -122 37t-48 114q-4 45 -4 144v729h-133v61h133v229h78v-229h209v-61h-209v-734q0 -79 2 -108zM297 -104h74v-15l-107 -248h-59z" />
    <glyph glyph-name="circumflex" unicode="&#x2c6;" horiz-adv-x="614" 
d="M406 1188l-99 176l-98 -176h-68l135 225h66l133 -225h-69z" />
    <glyph glyph-name="caron" unicode="&#x2c7;" horiz-adv-x="614" 
d="M475 1413l-133 -225h-66l-135 225h70l98 -176l99 176h67z" />
    <glyph glyph-name="breve" unicode="&#x2d8;" horiz-adv-x="614" 
d="M442 1413h56q0 -119 -47.5 -183.5t-143.5 -64.5t-144 65t-48 183h55q1 -90 36.5 -138t100.5 -48q64 0 98.5 47.5t36.5 138.5z" />
    <glyph glyph-name="dotaccent" unicode="&#x2d9;" horiz-adv-x="614" 
d="M307 1364q25 0 42.5 -17t17.5 -42t-17.5 -42.5t-42.5 -17.5t-42 17.5t-17 42.5t17 42t42 17z" />
    <glyph glyph-name="ring" unicode="&#x2da;" horiz-adv-x="614" 
d="M307 1444q61 0 101.5 -37.5t40.5 -99.5t-40.5 -101t-101.5 -39t-101 39t-40 101t40 99.5t101 37.5zM307 1395q-37 0 -58.5 -25t-21.5 -63t21.5 -63t58.5 -25t59.5 25t22.5 63t-22.5 63t-59.5 25z" />
    <glyph glyph-name="ogonek" unicode="&#x2db;" horiz-adv-x="614" 
d="M307 27l53 -27q-103 -26 -169 -109t-66 -184q0 -106 92 -106q67 0 129 59v-61q-65 -56 -151 -56q-65 0 -105.5 35t-40.5 115q0 113 71.5 205t186.5 129z" />
    <glyph glyph-name="tilde" unicode="&#x2dc;" horiz-adv-x="614" 
d="M201 1374q39 0 118 -26q77 -25 95 -25q32 0 32 43h52q0 -98 -82 -98q-42 0 -121 26q-70 23 -94 23q-33 0 -33 -41h-49q0 98 82 98z" />
    <glyph glyph-name="hungarumlaut" unicode="&#x2dd;" horiz-adv-x="614" 
d="M221 1188h-57l123 225h84zM436 1188h-57l123 225h84z" />
    <glyph glyph-name="uni0326" unicode="&#x326;" horiz-adv-x="0" 
d="M350 -119l-106 -248h-60l92 263h74v-15z" />
    <glyph glyph-name="Wgrave" unicode="&#x1e80;" horiz-adv-x="1751" 
d="M862 1507l-135 193h84l109 -193h-58zM1753 1413l-385 -1413h-100l-365 1317l-387 -1317h-104l-359 1413h86l330 -1339l383 1319h106l363 -1317l352 1337h80z" />
    <glyph glyph-name="wgrave" unicode="&#x1e81;" horiz-adv-x="1501" 
d="M739 1188l-149 225h84l123 -225h-58zM1487 1079l-342 -1079h-94l-291 997l-291 -997h-104l-345 1079h91l307 -1003l291 1001h102l293 -997l299 999h84z" />
    <glyph glyph-name="Wacute" unicode="&#x1e82;" horiz-adv-x="1751" 
d="M911 1507h-57l109 193h84zM1753 1413l-385 -1413h-100l-365 1317l-387 -1317h-104l-359 1413h86l330 -1339l383 1319h106l363 -1317l352 1337h80z" />
    <glyph glyph-name="wacute" unicode="&#x1e83;" horiz-adv-x="1501" 
d="M780 1188h-57l123 225h84zM1487 1079l-342 -1079h-94l-291 997l-291 -997h-104l-345 1079h91l307 -1003l291 1001h102l293 -997l299 999h84z" />
    <glyph glyph-name="Wdieresis" unicode="&#x1e84;" horiz-adv-x="1751" 
d="M799 1550q-22 0 -38 16t-16 38q0 23 16 39t38 16q23 0 39 -16t16 -39q0 -22 -16 -38t-39 -16zM979 1550q-23 0 -39 16t-16 38q0 23 16 39t39 16q22 0 37.5 -16t15.5 -39q0 -22 -15.5 -38t-37.5 -16zM1753 1413l-385 -1413h-100l-365 1317l-387 -1317h-104l-359 1413h86
l330 -1339l383 1319h106l363 -1317l352 1337h80z" />
    <glyph glyph-name="wdieresis" unicode="&#x1e85;" horiz-adv-x="1501" 
d="M659 1241q-23 0 -39 15.5t-16 37.5q0 23 16 39.5t39 16.5q22 0 38 -16.5t16 -39.5q0 -22 -16 -37.5t-38 -15.5zM856 1241q-22 0 -37.5 15.5t-15.5 37.5q0 23 15.5 39.5t37.5 16.5q23 0 39 -16.5t16 -39.5q0 -22 -16 -37.5t-39 -15.5zM1487 1079l-342 -1079h-94l-291 997
l-291 -997h-104l-345 1079h91l307 -1003l291 1001h102l293 -997l299 999h84z" />
    <glyph glyph-name="Ygrave" unicode="&#x1ef2;" horiz-adv-x="1134" 
d="M559 1507l-135 193h84l108 -193h-57zM625 573v-573h-78v573l-502 840h90l455 -762l446 762h90z" />
    <glyph glyph-name="ygrave" unicode="&#x1ef3;" horiz-adv-x="964" 
d="M465 1188l-150 225h84l123 -225h-57zM950 1079l-424 -1102q-48 -126 -91.5 -207.5t-87.5 -124.5t-84.5 -59t-94.5 -16q-42 0 -76 6v68q27 -6 76 -6q71 0 129.5 56t118.5 202l30 77l-426 1106h89l376 -1018l377 1018h88z" />
    <glyph glyph-name="endash" unicode="&#x2013;" horiz-adv-x="1024" 
d="M881 565h-738v62h738v-62z" />
    <glyph glyph-name="emdash" unicode="&#x2014;" horiz-adv-x="2048" 
d="M1905 565h-1762v62h1762v-62z" />
    <glyph glyph-name="quoteleft" unicode="&#x2018;" horiz-adv-x="301" 
d="M49 1016l162 489h70l-148 -501h-82z" />
    <glyph glyph-name="quoteright" unicode="&#x2019;" horiz-adv-x="301" 
d="M252 1493l-162 -489h-70l148 501h84v-12z" />
    <glyph glyph-name="quotesinglbase" unicode="&#x201a;" horiz-adv-x="344" 
d="M176 76l-125 -316h-69l110 328h82z" />
    <glyph glyph-name="quotedblleft" unicode="&#x201c;" horiz-adv-x="526" 
d="M49 1016l162 491h70l-148 -503h-82zM274 1016l162 491h70l-148 -503h-82z" />
    <glyph glyph-name="quotedblright" unicode="&#x201d;" horiz-adv-x="526" 
d="M252 1493l-162 -489h-70l148 501h84v-12zM477 1493l-162 -489h-69l147 501h84v-12z" />
    <glyph glyph-name="quotedblbase" unicode="&#x201e;" horiz-adv-x="538" 
d="M176 76l-125 -316h-69l110 328h82zM371 76l-125 -316h-70l111 328h82z" />
    <glyph glyph-name="dagger" unicode="&#x2020;" horiz-adv-x="1126" 
d="M981 811l-379 6l8 -1145h-90l4 1145l-379 -6v76l379 -6l-6 532h92l-8 -532l379 6v-76z" />
    <glyph glyph-name="daggerdbl" unicode="&#x2021;" horiz-adv-x="1126" 
d="M602 817v-551l379 6v-75l-379 6l8 -531h-90l4 531l-379 -6v75l379 -6v551l-379 -6v76l379 -6l-6 532h92l-8 -532l379 6v-76z" />
    <glyph glyph-name="bullet" unicode="&#x2022;" horiz-adv-x="454" 
d="M227 748q53 0 88 -35t35 -88t-35 -88t-88 -35t-88 35t-35 88t35 88t88 35z" />
    <glyph glyph-name="ellipsis" unicode="&#x2026;" horiz-adv-x="856" 
d="M143 98q28 0 46 -17.5t18 -45.5t-18 -46t-46 -18q-27 0 -45 18.5t-18 45.5t18 45t45 18zM399 98q28 0 46 -17.5t18 -45.5t-18 -46t-46 -18q-27 0 -45 18.5t-18 45.5t18 45t45 18zM655 98q28 0 46 -17.5t18 -45.5t-18 -46t-46 -18q-27 0 -45 18.5t-18 45.5t18 45t45 18z
" />
    <glyph glyph-name="perthousand" unicode="&#x2030;" horiz-adv-x="2097" 
d="M676 1114q0 -141 -74.5 -233.5t-198.5 -92.5q-125 0 -198.5 92t-73.5 234q0 144 73.5 235t198.5 91q124 0 198.5 -91.5t74.5 -234.5zM1227 1413l-916 -1413h-84l916 1413h84zM211 1114q0 -120 50 -191t142 -71q91 0 142 71.5t51 190.5q0 120 -51 191t-142 71
q-92 0 -142 -70.5t-50 -191.5zM1051 623q124 0 198 -91.5t74 -234.5q0 -141 -74.5 -233.5t-197.5 -92.5q-125 0 -199 92.5t-74 233.5q0 144 74 235t199 91zM1694 623q125 0 198.5 -91t73.5 -235q0 -142 -73.5 -234t-198.5 -92q-124 0 -198.5 92.5t-74.5 233.5
q0 143 74.5 234.5t198.5 91.5zM1051 35q91 0 141.5 71.5t50.5 190.5q0 120 -50.5 191t-141.5 71q-92 0 -142.5 -70.5t-50.5 -191.5q0 -120 50.5 -191t142.5 -71zM1694 35q92 0 142 71t50 191q0 121 -50 191.5t-142 70.5q-91 0 -142 -71t-51 -191q0 -119 51 -190.5t142 -71.5
z" />
    <glyph glyph-name="guilsinglleft" unicode="&#x2039;" horiz-adv-x="784" 
d="M637 848l-281 -340l281 -340h-82l-281 340l281 340h82z" />
    <glyph glyph-name="guilsinglright" unicode="&#x203a;" horiz-adv-x="784" 
d="M510 508l-281 -340h-82l281 340l-281 340h82z" />
    <glyph glyph-name="fraction" unicode="&#x2044;" horiz-adv-x="233" 
d="M-299 0h-86l917 1413h84z" />
    <glyph glyph-name="Euro" unicode="&#x20ac;" 
d="M711 1374q-86 0 -160.5 -28.5t-139 -88.5t-108.5 -164t-59 -243h721l-23 -62h-702q-2 -27 -2 -79q0 -57 2 -84h653l-19 -62h-630q47 -524 471 -524q162 0 291 82v-74q-133 -76 -301 -76q-245 0 -384 143.5t-163 448.5h-148l21 62h123l-2 75q0 59 2 88h-97l21 62h82
q31 292 180 442t375 150q114 0 192.5 -29t141.5 -94l-43 -55q-59 60 -128 85t-167 25z" />
    <glyph glyph-name="trademark" unicode="&#x2122;" horiz-adv-x="1071" 
d="M440 1352v-49h-166v-369h-59v369h-168v49h393zM924 1350v-416h-56l4 356l-131 -350h-63l-129 348l2 -354h-57v416h86l131 -365l131 365h82z" />
    <glyph glyph-name="partialdiff" unicode="&#x2202;" 
d="M508 1552q477 0 477 -876q0 -345 -117 -525t-350 -180q-184 0 -301 128.5t-117 338.5q0 232 127 374t336 142q115 0 202.5 -51.5t135.5 -138.5q-3 122 -17 225.5t-44 197.5t-74.5 159t-111.5 103t-152 38q-87 0 -154 -24.5t-135 -80.5l-39 52q75 63 154.5 90.5
t179.5 27.5zM522 37q186 0 280.5 154t98.5 473q-53 115 -141.5 170t-192.5 55q-177 0 -280 -123.5t-103 -321.5q0 -190 95.5 -298.5t242.5 -108.5z" />
    <glyph glyph-name="emptyset" unicode="&#x2205;" horiz-adv-x="1716" 
d="M1589 1413l-170 -170q93 -103 144 -235.5t51 -280.5q0 -160 -60.5 -303t-162 -244.5t-241 -161t-292.5 -59.5q-147 0 -280 54t-238 151l-168 -168l-45 45l170 170q-93 103 -144 235.5t-51 280.5q0 160 60.5 303t162 244.5t241 161t292.5 59.5q147 0 280 -54t238 -151
l168 168zM172 727q0 -269 172 -469l985 985q-94 91 -215.5 141t-255.5 50q-139 0 -265.5 -55t-219 -148.5t-147 -225t-54.5 -278.5zM858 23q186 0 343.5 92t250 254t92.5 358q0 269 -172 469l-985 -985q94 -89 215.5 -138.5t255.5 -49.5z" />
    <glyph glyph-name="product" unicode="&#x220f;" 
d="M1030 1346h-119v-1571h-77v1571h-558v-1571h-77v1571h-117v67h948v-67z" />
    <glyph glyph-name="summation" unicode="&#x2211;" 
d="M1038 -158v-67h-970v65l581 776l-520 732v65h897v-67h-805l522 -732l-583 -772h878z" />
    <glyph glyph-name="minus" unicode="&#x2212;" 
d="M971 621h-830v61h830v-61z" />
    <glyph glyph-name="radical" unicode="&#x221a;" 
d="M1036 1597l-444 -1925h-88l-268 901h-136v62h185l260 -897l426 1859h65z" />
    <glyph glyph-name="infinity" unicode="&#x221e;" horiz-adv-x="2031" 
d="M1489 1114q221 0 351 -159t130 -414q0 -253 -130 -411.5t-351 -158.5q-173 0 -293.5 105.5t-181.5 314.5q-114 -420 -471 -420q-221 0 -351.5 158.5t-130.5 411.5q0 254 130.5 413.5t351.5 159.5q173 0 294.5 -105t180.5 -313q55 205 175.5 311.5t295.5 106.5zM543 37
q74 0 140.5 27t127 83.5t102 158t54.5 237.5q-20 136 -62.5 237t-101 158t-123 84t-137.5 27q-78 0 -148.5 -33t-126 -94.5t-88.5 -160t-33 -220.5q0 -121 33 -219t88.5 -159t126 -93.5t148.5 -32.5zM1489 37q78 0 148.5 32.5t126.5 93.5t89 159t33 219q0 122 -33 220.5
t-89 160t-126.5 94.5t-148.5 33q-74 0 -141 -27t-127.5 -83.5t-102 -158t-53.5 -237.5q19 -136 61.5 -237t101 -158t123.5 -84t138 -27z" />
    <glyph glyph-name="integral" unicode="&#x222b;" 
d="M627 1544q80 0 133 -53l-29 -51q-41 43 -104 43q-62 0 -100 -69.5t-38 -211.5q0 -166 82 -586q49 -260 66.5 -384.5t17.5 -225.5q0 -172 -59.5 -253t-146.5 -81q-80 0 -134 54l29 51q43 -43 105 -43q64 0 101.5 68.5t37.5 211.5q0 82 -16.5 204t-65.5 382
q-51 272 -68.5 392t-17.5 220q0 170 59.5 251t147.5 81z" />
    <glyph glyph-name="approxequal" unicode="&#x2248;" 
d="M344 901q52 0 98 -16.5t129 -61.5q75 -39 114.5 -53t84.5 -14q65 0 107 27t84 94l45 -37q-87 -148 -238 -148q-52 0 -96.5 16.5t-130.5 61.5q-76 40 -115 54t-84 14q-64 0 -105 -26.5t-85 -92.5l-46 37q86 145 238 145zM344 543q52 0 98 -16.5t129 -61.5q76 -40 115 -54
t84 -14q65 0 107 27t84 94l45 -37q-87 -147 -238 -147q-52 0 -96.5 16.5t-130.5 61.5q-75 39 -114.5 53t-84.5 14q-64 0 -105 -26.5t-85 -92.5l-46 37q86 146 238 146z" />
    <glyph glyph-name="notequal" unicode="&#x2260;" 
d="M684 809l-186 -320h487v-59h-522l-129 -221h-72l129 221h-266v59h301l186 320h-487v59h522l129 222h72l-129 -222h266v-59h-301z" />
    <glyph glyph-name="lessequal" unicode="&#x2264;" 
d="M987 897l-756 -317l756 -316v-74l-829 357v65l829 357v-72zM158 61h829v-61h-829v61z" />
    <glyph glyph-name="greaterequal" unicode="&#x2265;" 
d="M954 612v-65l-829 -357v72l758 318l-758 317v72zM125 61h829v-61h-829v61z" />
    <glyph glyph-name="lozenge" unicode="&#x25ca;" horiz-adv-x="980" 
d="M866 707l-342 -707h-67l-342 707l342 706h67zM797 707l-308 639l-303 -639l306 -641z" />
    </font>
</defs>
</svg>
