<?xml version="1.0" standalone="no"?>
<!DOCTYPE svg PUBLIC "-//W3C//DTD SVG 1.1//EN" "http://www.w3.org/Graphics/SVG/1.1/DTD/svg11.dtd" >
<svg xmlns="http://www.w3.org/2000/svg" xmlns:xlink="http://www.w3.org/1999/xlink" version="1.1">
<metadata>
Created by FontForge 20170731 at Wed Dec 14 12:20:11 2022
 By Aleksey,,,
No Rights Reserved.
</metadata>
<defs>
<font id="Aileron-ThinItalic" horiz-adv-x="1112" >
  <font-face 
    font-family="Aileron Thin"
    font-weight="250"
    font-style="italic"
    font-stretch="normal"
    units-per-em="2048"
    panose-1="0 0 3 0 0 0 0 0 0 0"
    ascent="1577"
    descent="-471"
    x-height="1071"
    cap-height="1413"
    bbox="-287 -457 2353 1833"
    underline-thickness="102"
    underline-position="-307"
    slope="-10"
    unicode-range="U+0020-FB02"
  />
<missing-glyph horiz-adv-x="1171" 
d="M147 0v1434h1024v-1434h-1024zM659 809l349 522h-697zM721 717l348 -522v1044zM311 102h697l-349 523zM250 1239v-1044l348 522z" />
    <glyph glyph-name="fi" unicode="fi" horiz-adv-x="864" 
d="M811 1071l-188 -1071h-78l176 1006h-404l-176 -1006h-78l177 1006h-97l13 65h96l12 76q13 73 25 113q37 133 147 208.5t277 75.5q56 0 102 -10l-12 -68q-100 13 -174.5 3.5t-129 -43t-87 -76t-47.5 -95.5q-14 -57 -23 -104l-14 -80h483z" />
    <glyph glyph-name="fl" unicode="fl" horiz-adv-x="892" 
d="M645 113q0 -37 24.5 -50t82.5 -6l-11 -61q-27 -6 -75 -6q-50 0 -76.5 21t-26.5 73q0 32 27 176l209 1196q-47 23 -144 23q-120 0 -191 -63t-97 -161q-17 -59 -23 -104l-14 -80h219l-12 -65h-220l-178 -1006h-78l179 1006h-97l13 65h94l14 76q13 73 25 113
q37 131 133 207.5t246 76.5q62 0 125 -10.5t92 -28.5l-217 -1243q-23 -122 -23 -149z" />
    <glyph glyph-name=".notdef" horiz-adv-x="1171" 
d="M147 0v1434h1024v-1434h-1024zM659 809l349 522h-697zM721 717l348 -522v1044zM311 102h697l-349 523zM250 1239v-1044l348 522z" />
    <glyph glyph-name=".null" horiz-adv-x="0" 
 />
    <glyph glyph-name="nonmarkingreturn" horiz-adv-x="682" 
 />
    <glyph glyph-name="space" unicode=" " horiz-adv-x="354" 
 />
    <glyph glyph-name="exclam" unicode="!" horiz-adv-x="372" 
d="M170 262h-68l201 1151h88zM109 98q24 0 37.5 -13.5t13.5 -37.5q0 -31 -22.5 -53.5t-53.5 -22.5q-23 0 -37 14.5t-14 37.5q0 31 23 53t53 22z" />
    <glyph glyph-name="quotedbl" unicode="&#x22;" horiz-adv-x="387" 
d="M162 1004h-62l82 501h80zM358 1004h-59l80 501h80z" />
    <glyph glyph-name="numbersign" unicode="#" 
d="M819 864l-125 -315h238l-12 -60h-248l-191 -489h-63l190 489h-217l-190 -489h-62l191 489h-219l12 60h229l125 315h-237l10 62h250l190 487h62l-191 -487h217l191 487h63l-190 -487h217l-10 -62h-230zM754 864h-217l-123 -315h217z" />
    <glyph glyph-name="dollar" unicode="$" 
d="M1073 1051h-80q-1 150 -68.5 230t-189.5 91l-112 -629q169 -54 255.5 -145.5t86.5 -232.5q0 -76 -29.5 -144t-86 -123.5t-150.5 -89.5t-214 -37l-26 -155h-64l29 157q-98 6 -171.5 43.5t-114.5 95.5t-60 123.5t-19 137.5h82q17 -310 293 -332l113 637q-142 46 -230 134
t-88 224q0 57 16 112.5t52 108t87.5 92.5t129 65.5t170.5 27.5l27 155h63l-29 -157q165 -13 245 -119.5t83 -269.5zM313 1044q0 -102 68 -174.5t182 -109.5l109 614q-90 -4 -161 -34t-113 -77.5t-63.5 -103t-21.5 -115.5zM883 360q0 121 -68 190.5t-207 113.5l-110 -625
q190 6 287.5 97t97.5 224z" />
    <glyph glyph-name="percent" unicode="%" horiz-adv-x="1452" 
d="M455 791q-107 0 -170.5 73.5t-63.5 190.5q0 67 20.5 133.5t59.5 124t103.5 93.5t142.5 36q107 0 170 -73.5t63 -190.5q0 -67 -20.5 -133.5t-59 -124t-103 -93.5t-142.5 -36zM1378 1413l-1161 -1413h-90l1161 1413h90zM539 1378q-77 0 -133 -51t-80.5 -123t-24.5 -151
q0 -93 42.5 -146t119.5 -53t133 52t81 124t25 150q0 93 -42.5 145.5t-120.5 52.5zM1055 623q107 0 170 -74t63 -191q0 -67 -20.5 -133.5t-59 -124t-102 -93.5t-141.5 -36q-107 0 -171.5 74t-64.5 191q0 67 20.5 133.5t59.5 124t103.5 93.5t142.5 36zM973 35q76 0 131.5 51.5
t80.5 123.5t25 150q0 93 -43 146t-120 53t-133 -51.5t-80.5 -123.5t-24.5 -151q0 -93 42.5 -145.5t121.5 -52.5z" />
    <glyph glyph-name="ampersand" unicode="&#x26;" horiz-adv-x="1316" 
d="M1300 743l-14 -69h-217l-117 -668q-184 -35 -372 -35q-115 0 -200 14.5t-152 47.5t-101.5 92.5t-34.5 144.5q0 182 126 297.5t325 141.5q-115 20 -182.5 90.5t-67.5 193.5q0 129 72 232t196.5 160t276.5 57q127 0 241 -21l-12 -69q-110 22 -248 22q-123 0 -221.5 -43.5
t-158.5 -131t-60 -204.5q0 -233 299 -250q41 -2 127 -2h199l51 291h78l-52 -291h219zM991 674h-200q-84 0 -125 -4q-105 -9 -189 -33.5t-153 -69t-106.5 -116.5t-37.5 -168q0 -134 105.5 -189t310.5 -55q169 0 287 22z" />
    <glyph glyph-name="quotesingle" unicode="'" horiz-adv-x="190" 
d="M162 1004h-62l82 501h80z" />
    <glyph glyph-name="parenleft" unicode="(" horiz-adv-x="534" 
d="M362 -164h-63q-113 235 -113 570q0 291 110 620t314 571h64q-211 -269 -314.5 -582.5t-103.5 -608.5q0 -319 106 -570z" />
    <glyph glyph-name="parenright" unicode=")" horiz-adv-x="534" 
d="M233 1597h64q113 -235 113 -567q0 -189 -45 -394.5t-143 -420.5t-236 -379h-64q211 270 315.5 584t104.5 608q0 321 -109 569z" />
    <glyph glyph-name="asterisk" unicode="*" horiz-adv-x="1085" 
d="M569 584l342 116l11 -63l-344 -102l176 -299l-64 -39l-160 313l-272 -313l-49 39l283 299l-308 102l31 63l303 -118l60 389h67z" />
    <glyph glyph-name="plus" unicode="+" 
d="M973 618h-383l-78 -440h-63l77 440h-383l13 62h383l77 442h64l-78 -442h383z" />
    <glyph glyph-name="comma" unicode="," horiz-adv-x="315" 
d="M63 74l-180 -314h-73l167 328h89z" />
    <glyph glyph-name="hyphen" unicode="-" horiz-adv-x="561" 
d="M489 547h-430l13 61h430z" />
    <glyph glyph-name="period" unicode="." horiz-adv-x="315" 
d="M37 98q25 0 40 -15t15 -38q0 -31 -21.5 -52.5t-50.5 -21.5q-25 0 -40 15.5t-15 38.5q0 33 21 53t51 20z" />
    <glyph glyph-name="slash" unicode="/" horiz-adv-x="559" 
d="M-51 -61h-66l785 1536h65z" />
    <glyph glyph-name="zero" unicode="0" 
d="M692 1442q194 0 292.5 -131.5t98.5 -364.5q0 -80 -9.5 -167t-32 -183t-56 -184.5t-84 -169.5t-112.5 -140.5t-146.5 -95t-181.5 -35.5q-193 0 -291 132.5t-98 363.5q0 80 9.5 167.5t32 183.5t55.5 184.5t83.5 169t112.5 140t146 95t181 35.5zM467 39q84 0 157.5 35.5
t126.5 94t96 137t70.5 162.5t46 172.5t26 163.5t7.5 140q0 203 -77.5 316.5t-231.5 113.5q-98 0 -181 -46.5t-139.5 -125t-99 -173t-66 -199t-35 -194.5t-11.5 -167q0 -202 78 -316t233 -114z" />
    <glyph glyph-name="one" unicode="1" 
d="M870 1413l-249 -1413h-78l233 1331l-430 -239l14 84l357 200q66 37 108 37h45z" />
    <glyph glyph-name="two" unicode="2" 
d="M127 68h795l-13 -68h-915l10 49l576 488q249 209 335 328t86 259q0 115 -68.5 182.5t-195.5 67.5q-158 0 -278 -97.5t-152 -262.5l-4 -21h-78l4 21q42 201 186.5 314.5t338.5 113.5q162 0 249 -89.5t87 -219.5q0 -81 -25 -153t-85.5 -150.5t-141.5 -156.5t-211 -186z" />
    <glyph glyph-name="three" unicode="3" 
d="M748 735q123 -25 189.5 -98.5t66.5 -192.5q0 -142 -75.5 -251.5t-200 -165.5t-275.5 -56q-189 0 -292.5 109t-88.5 317v21h78v-21q-12 -164 71.5 -261t247.5 -97q124 0 225.5 46t162.5 135.5t61 207.5q0 260 -357 260h-35l15 68h34q76 0 153.5 25.5t142 70.5t105 114.5
t40.5 149.5q0 124 -72.5 191t-200.5 67q-156 0 -273 -88.5t-148 -247.5l-5 -20h-77l4 20q37 189 180 296.5t338 107.5q162 0 251 -87.5t89 -224.5q0 -139 -103 -250.5t-251 -144.5z" />
    <glyph glyph-name="four" unicode="4" 
d="M1034 397h-196l-70 -397h-78l70 397h-731l8 45l921 971h70l-178 -948h197zM772 465l156 833q-97 -116 -207 -231l-576 -602h627z" />
    <glyph glyph-name="five" unicode="5" 
d="M455 1339l-213 -624l94 94q130 88 297 88q174 0 268 -104.5t94 -270.5q0 -125 -46.5 -230.5t-125 -174.5t-179 -107.5t-210.5 -38.5q-80 0 -148 23.5t-120 70.5t-78.5 124.5t-19.5 177.5l2 20h77v-20q-9 -153 66 -240.5t236 -87.5q67 0 132 18.5t124.5 57t104.5 93.5
t72 133.5t27 170.5q0 152 -79.5 234.5t-217.5 82.5q-253 0 -403 -227h-76l268 805h738l-11 -68h-673z" />
    <glyph glyph-name="six" unicode="6" 
d="M1016 1057v20q-3 297 -283 297q-70 0 -138 -22.5t-137.5 -76t-125.5 -134.5t-100 -208t-64 -286l82 123q166 172 393 172q121 0 209 -57.5t129 -146t41 -195.5q0 -157 -71.5 -288t-199.5 -207.5t-286 -76.5q-179 0 -286 119.5t-107 341.5q0 284 83 513t238.5 363
t356.5 134q177 0 262.5 -99t85.5 -266l-2 -20h-80zM621 874q-121 0 -227 -59t-173 -171t-67 -253q0 -154 85.5 -253t235.5 -99q197 0 328 142.5t131 348.5q0 154 -82.5 249t-230.5 95z" />
    <glyph glyph-name="seven" unicode="7" 
d="M1190 1413l-6 -37l-979 -1376h-92l960 1346h-840l13 67h944z" />
    <glyph glyph-name="eight" unicode="8" 
d="M770 737q112 -30 174 -112t62 -193t-47.5 -201t-126 -146t-176 -86t-203.5 -30q-176 0 -293 87.5t-117 246.5q0 163 108.5 280t280.5 156q-88 27 -143.5 100.5t-55.5 172.5q0 181 139.5 305.5t354.5 124.5q166 0 264.5 -88t98.5 -224q0 -134 -90.5 -245t-229.5 -148z
M319 1020q0 -122 75 -187t214 -65q76 0 146.5 23t127 65.5t90.5 111t34 152.5q0 117 -76.5 185.5t-212.5 68.5q-171 0 -284.5 -100t-113.5 -254zM469 37q83 0 161.5 24t144 70t105.5 121.5t40 169.5q0 126 -84 202t-246 76q-212 0 -336.5 -110t-124.5 -277
q0 -133 97.5 -204.5t242.5 -71.5z" />
    <glyph glyph-name="nine" unicode="9" 
d="M700 1442q180 0 287 -119.5t107 -341.5q0 -284 -83 -513t-238.5 -363t-356.5 -134q-178 0 -263 99.5t-85 267.5l2 20h80v-20q3 -299 282 -299q70 0 138 22.5t137.5 76t125.5 134.5t100 208t64 286l-82 -121q-165 -174 -393 -174q-121 0 -209 57.5t-129 146t-41 195.5
q0 157 71.5 288t199.5 207.5t286 76.5zM545 539q121 0 227 59t173 171t67 253q0 155 -86 253.5t-236 98.5q-197 0 -328 -142.5t-131 -348.5q0 -154 83 -249t231 -95z" />
    <glyph glyph-name="colon" unicode=":" horiz-adv-x="315" 
d="M217 1108q24 0 39.5 -15.5t15.5 -37.5q0 -32 -21.5 -53t-51.5 -21q-24 0 -39 15.5t-15 37.5q0 33 21 53.5t51 20.5zM37 98q25 0 40 -15t15 -38q0 -31 -21.5 -52.5t-50.5 -21.5q-25 0 -40 15.5t-15 38.5q0 33 21 53t51 20z" />
    <glyph glyph-name="semicolon" unicode=";" horiz-adv-x="315" 
d="M217 1108q24 0 39.5 -15.5t15.5 -37.5q0 -32 -21.5 -53t-51.5 -21q-24 0 -39 15.5t-15 37.5q0 33 21 53.5t51 20.5zM63 74l-180 -314h-73l167 328h89z" />
    <glyph glyph-name="less" unicode="&#x3c;" 
d="M1044 903l-811 -362l685 -361l-13 -71l-751 401l12 65l891 404z" />
    <glyph glyph-name="equal" unicode="=" 
d="M1022 809h-860l12 59h860zM954 430h-860l12 59h861z" />
    <glyph glyph-name="greater" unicode="&#x3e;" 
d="M967 575l-13 -65l-891 -401l13 75l811 361l-684 362l12 72z" />
    <glyph glyph-name="question" unicode="?" horiz-adv-x="1085" 
d="M721 1442q162 0 253 -87.5t91 -205.5q0 -116 -60 -215t-212 -244q-140 -135 -191 -213.5t-76 -214.5h-73q20 136 75 225.5t201 235.5q148 147 200 235t52 187t-74 164t-196 65q-163 0 -269 -95.5t-145 -266.5h-80q38 196 174.5 313t329.5 117zM471 98q24 0 37.5 -13.5
t13.5 -37.5q0 -31 -22.5 -53.5t-53.5 -22.5q-23 0 -37 14.5t-14 37.5q0 31 23 53t53 22z" />
    <glyph glyph-name="at" unicode="@" horiz-adv-x="1732" 
d="M1235 952l-111 -456q-20 -91 -20 -152t36 -95t103 -34q129 0 218 127.5t89 337.5q0 192 -79 333.5t-216 213t-315 71.5q-106 0 -213.5 -34t-205.5 -102.5t-174 -161.5t-121.5 -222t-45.5 -274q0 -157 51 -284t137.5 -207t197.5 -122.5t235 -42.5q155 0 284 40.5
t265 136.5l30 -56q-156 -106 -288.5 -144t-292.5 -38q-105 0 -204 27.5t-187 85.5t-154 140.5t-104.5 201t-38.5 258.5q0 157 48.5 296t131 240.5t190 175.5t228.5 111t243 37q296 0 481 -187t185 -485q0 -130 -33 -234t-88 -168t-123 -98t-143 -34q-87 0 -146 44.5
t-63 143.5l-37 -80q-102 -125 -235 -125q-38 0 -72.5 8.5t-70 31.5t-61.5 57.5t-42.5 91t-16.5 127.5q0 141 56.5 263.5t157.5 197.5t223 75q109 0 159 -67l37 -107l35 137h80zM1061 557l18 82q29 125 -16 205t-141 80q-93 0 -173.5 -62.5t-128 -169t-47.5 -231.5
q0 -129 51.5 -193.5t141.5 -64.5q96 0 176 89t119 265z" />
    <glyph glyph-name="A" unicode="A" horiz-adv-x="1284" 
d="M969 539h-607l-296 -539h-93l789 1413h112l283 -1413h-84zM954 606l-145 744l-410 -744h555z" />
    <glyph glyph-name="B" unicode="B" horiz-adv-x="1222" 
d="M829 745q129 -26 195 -104.5t66 -200.5q0 -97 -39 -178t-104.5 -133.5t-146 -84t-169.5 -38.5q-57 -6 -152 -6h-409l249 1413h371q96 0 166 -4q142 -12 221.5 -86.5t79.5 -196.5q0 -148 -89 -249t-239 -132zM285 772h317q21 0 115 4q68 6 128.5 27t112.5 59.5t82.5 102
t30.5 145.5q0 219 -262 233q-64 3 -127 3h-295zM608 72q74 6 141.5 29t126.5 65.5t94.5 112.5t35.5 159q0 111 -67.5 183t-209.5 79q-59 5 -106 5h-351l-112 -637h354q40 0 94 4z" />
    <glyph glyph-name="C" unicode="C" horiz-adv-x="1433" 
d="M913 1442q157 0 268.5 -61t164 -163t49.5 -233v-20h-78v20q0 188 -110 288.5t-312 100.5q-128 0 -248.5 -56.5t-216 -158t-153.5 -258t-58 -342.5q0 -253 121.5 -386.5t318.5 -133.5q204 0 344 111t214 296l8 21h78l-9 -21q-38 -103 -95 -186.5t-136 -149.5t-186 -102.5
t-234 -36.5q-236 0 -373.5 156t-136.5 426q-1 196 61.5 364.5t169 282.5t249 178t300.5 64z" />
    <glyph glyph-name="D" unicode="D" horiz-adv-x="1394" 
d="M856 1409q100 -9 185 -47t153 -107t106.5 -179t38.5 -251q0 -151 -51.5 -293t-143 -254t-229 -185t-299.5 -87q-74 -6 -182 -6h-364l249 1413h381q101 0 156 -4zM627 76q119 13 221 60t176 119t126.5 163t78.5 193.5t26 209.5q0 240 -113 370t-300 148q-53 7 -150 7h-307
l-225 -1278h295q88 0 172 8z" />
    <glyph glyph-name="E" unicode="E" horiz-adv-x="1128" 
d="M385 1348l-106 -609h749l-12 -65h-750l-106 -606h817l-12 -68h-895l249 1413h875l-14 -65h-795z" />
    <glyph glyph-name="F" unicode="F" horiz-adv-x="1079" 
d="M385 1348l-106 -609h729l-13 -65h-729l-119 -674h-77l249 1413h875l-14 -65h-795z" />
    <glyph glyph-name="G" unicode="G" horiz-adv-x="1503" 
d="M940 1442q118 0 208.5 -35t146.5 -97t84 -144.5t26 -180.5v-20h-78v20q0 189 -102.5 289t-302.5 100q-132 0 -258 -56.5t-225.5 -158.5t-160.5 -258.5t-61 -341.5q0 -248 122 -384t320 -136q68 0 139 18t144 59.5t133.5 101.5t107 152.5t66.5 204.5h-440l12 68h518
l-112 -643h-74l59 338l-67 -127q-100 -122 -230.5 -181t-271.5 -59q-237 0 -374.5 156.5t-137.5 425.5q0 189 65.5 356t175.5 283t258 183t310 67z" />
    <glyph glyph-name="H" unicode="H" horiz-adv-x="1323" 
d="M1352 1413l-250 -1413h-78l117 659h-877l-117 -659h-77l249 1413h78l-121 -686h877l121 686h78z" />
    <glyph glyph-name="I" unicode="I" horiz-adv-x="368" 
d="M147 0h-77l249 1413h78z" />
    <glyph glyph-name="J" unicode="J" horiz-adv-x="976" 
d="M1018 1413l-156 -878q-14 -85 -37 -183q-19 -79 -52.5 -145t-86.5 -120.5t-132 -85t-177 -30.5q-180 0 -277 110.5t-67 315.5l10 68h78l-10 -68q-26 -184 53.5 -271t228.5 -87q138 0 228.5 82t130.5 239q5 22 15 77t17 87l156 889h78z" />
    <glyph glyph-name="K" unicode="K" horiz-adv-x="1138" 
d="M416 707l592 -707h-103l-549 664l-106 -89l-103 -575h-77l249 1413h78l-131 -745l905 745h103z" />
    <glyph glyph-name="L" unicode="L" horiz-adv-x="1091" 
d="M977 68l-12 -68h-895l249 1413h78l-237 -1345h817z" />
    <glyph glyph-name="M" unicode="M" horiz-adv-x="1607" 
d="M1636 1413l-250 -1413h-77l243 1346l-774 -1346h-98l-297 1343l-236 -1343h-77l249 1413h127l297 -1337l766 1337h127z" />
    <glyph glyph-name="N" unicode="N" horiz-adv-x="1288" 
d="M1319 1413l-250 -1413h-121l-565 1346l-236 -1346h-77l249 1413h119l566 -1341l237 1341h78z" />
    <glyph glyph-name="O" unicode="O" horiz-adv-x="1523" 
d="M911 1442q251 0 404 -169t153 -446q0 -124 -31.5 -246t-96.5 -232.5t-155.5 -194.5t-218 -133.5t-274.5 -49.5q-251 0 -404 169.5t-153 447.5q0 124 31.5 245.5t96 231.5t155 194t218 133.5t275.5 49.5zM707 39q126 0 236.5 45.5t190 123t137 179t85.5 214t28 226.5
q0 250 -137.5 398.5t-349.5 148.5q-126 0 -236.5 -45.5t-190 -123t-137 -178.5t-86 -213.5t-28.5 -225.5q0 -252 137 -400.5t351 -148.5z" />
    <glyph glyph-name="P" unicode="P" horiz-adv-x="1046" 
d="M860 1403q133 -16 211 -93.5t78 -215.5q0 -202 -120.5 -322t-303.5 -145q-77 -9 -201 -9h-266l-108 -618h-78l247 1413h345q117 0 196 -10zM729 696q149 22 242.5 119t93.5 270q0 112 -60.5 173t-164.5 75q-69 10 -183 10h-272l-115 -657h271q112 0 188 10z" />
    <glyph glyph-name="Q" unicode="Q" horiz-adv-x="1497" 
d="M1450 842q0 -231 -107 -445t-301 -325q81 -6 139 -35t117 -88l-53 -55q-72 65 -131 88.5t-137 23.5q-50 0 -148 -20q-77 -15 -141 -15q-255 0 -405 165.5t-150 434.5q0 123 30.5 245.5t94.5 235.5t152.5 199.5t215 138.5t271.5 52q254 0 403.5 -165.5t149.5 -434.5z
M217 571q0 -241 134.5 -386.5t344.5 -145.5q126 0 236 47.5t188.5 127.5t135.5 183.5t84.5 217t27.5 227.5q0 241 -135.5 386.5t-345.5 145.5q-126 0 -236 -47.5t-188 -127.5t-134.5 -183.5t-84 -217t-27.5 -227.5z" />
    <glyph glyph-name="R" unicode="R" horiz-adv-x="1161" 
d="M1178 1114q0 -163 -101.5 -272.5t-261.5 -136.5q83 -21 118.5 -102.5t37.5 -244.5q5 -255 35 -358h-84q-23 125 -29 403q-7 257 -191 267q-41 2 -120 2h-316l-119 -672h-77l249 1413h373q116 0 199 -10q137 -17 212 -92t75 -197zM743 743q155 12 252 110t97 247
q0 103 -60 162t-172 73q-81 11 -180 11h-295l-106 -607h315q90 0 149 4z" />
    <glyph glyph-name="S" unicode="S" horiz-adv-x="1124" 
d="M717 1442q195 0 297 -113t94 -285h-82q3 154 -88 242t-240 88q-76 0 -145 -21t-125 -61.5t-89.5 -106t-33.5 -147.5q0 -108 76 -166.5t254 -111.5q194 -54 286.5 -142t92.5 -235q0 -182 -148 -297t-381 -115q-98 0 -181.5 25.5t-146.5 75t-95 128t-25 177.5h80
q-6 -161 99.5 -249.5t287.5 -88.5t302 91t120 241q0 123 -78.5 193.5t-257.5 123.5q-193 56 -283 129t-90 199q0 191 140.5 308.5t359.5 117.5z" />
    <glyph glyph-name="T" unicode="T" horiz-adv-x="1204" 
d="M1350 1348h-533l-237 -1348h-78l237 1348h-530l12 65h1141z" />
    <glyph glyph-name="U" unicode="U" horiz-adv-x="1271" 
d="M1288 1413l-162 -915q-12 -66 -28 -136q-45 -182 -176.5 -286.5t-354.5 -104.5q-195 0 -300 93.5t-105 252.5q0 76 16 185l162 911h78l-160 -913q-18 -102 -18 -178q0 -127 84.5 -205t255.5 -78q186 0 295 89.5t149 248.5q13 55 27 127l159 909h78z" />
    <glyph glyph-name="V" unicode="V" horiz-adv-x="1232" 
d="M604 0h-112l-281 1413h82l264 -1350l743 1350h91z" />
    <glyph glyph-name="W" unicode="W" horiz-adv-x="1753" 
d="M1907 1413l-635 -1413h-98l-134 1317l-622 -1317h-101l-110 1413h82l94 -1323l612 1303h113l131 -1301l584 1321h84z" />
    <glyph glyph-name="X" unicode="X" horiz-adv-x="1185" 
d="M686 713l387 -713h-96l-346 659l-578 -659h-94l633 717l-348 696h88l319 -641l568 641l94 -2z" />
    <glyph glyph-name="Y" unicode="Y" horiz-adv-x="1134" 
d="M625 551l-97 -551h-77l98 559l-350 854h84l317 -780l586 780h96z" />
    <glyph glyph-name="Z" unicode="Z" horiz-adv-x="1128" 
d="M1206 1348l-1108 -1280h897l-14 -68h-999l12 59l1114 1287h-832l15 67h928z" />
    <glyph glyph-name="bracketleft" unicode="[" horiz-adv-x="528" 
d="M338 1597h317l-10 -61h-256l-289 -1638h256l-12 -62h-317z" />
    <glyph glyph-name="backslash" unicode="\" horiz-adv-x="559" 
d="M463 -61h-66l-243 1536h65z" />
    <glyph glyph-name="bracketright" unicode="]" horiz-adv-x="532" 
d="M246 -164h-320l11 62h256l288 1638h-254l11 61h319z" />
    <glyph glyph-name="asciicircum" unicode="^" 
d="M844 440l-180 762l-455 -762h-76l498 822h80l207 -822h-74z" />
    <glyph glyph-name="underscore" unicode="_" horiz-adv-x="1024" 
d="M915 -168h-819l13 62h819z" />
    <glyph glyph-name="grave" unicode="`" horiz-adv-x="614" 
d="M322 1188h-56l-110 225h80z" />
    <glyph glyph-name="a" unicode="a" horiz-adv-x="1019" 
d="M635 1108q151 0 228 -71t77 -191q0 -65 -18 -158l-64 -358q-28 -173 -39 -330h-80l27 238l-68 -105q-137 -162 -358 -162q-123 0 -205 67.5t-82 194.5q0 117 64 202t174.5 129.5t247 60.5t292.5 4l11 55q18 90 18 147q0 211 -231 211q-130 0 -228 -66.5t-137 -201.5h-80
q34 147 157 240.5t294 93.5zM797 424l24 141q-311 28 -498.5 -60t-187.5 -265q0 -97 64 -150t172 -53q153 0 276 115.5t150 271.5z" />
    <glyph glyph-name="b" unicode="b" horiz-adv-x="1155" 
d="M717 1108q181 0 284 -121.5t103 -316.5q0 -130 -40 -253.5t-113 -223.5t-189 -161t-256 -61q-106 0 -177 34t-118 108l-39 118l-41 -231h-78l266 1505h78l-114 -651l84 119q78 73 158.5 104t191.5 31zM516 37q115 0 212 54.5t159.5 144t97.5 202t35 230.5
q0 167 -85 270.5t-239 103.5q-80 0 -151 -24.5t-134 -76.5t-109.5 -143.5t-68.5 -215.5l-18 -107q-18 -91 -7 -170.5t44.5 -139t101 -94t162.5 -34.5z" />
    <glyph glyph-name="c" unicode="c" horiz-adv-x="1067" 
d="M657 1108q177 0 273.5 -101t93.5 -270h-80q-2 145 -78.5 226t-224.5 81q-149 0 -266 -87t-178.5 -227t-61.5 -304q0 -192 90 -290.5t232 -98.5q139 0 249 75.5t171 215.5h79q-71 -175 -204 -266t-310 -91q-175 0 -282 119t-107 332q0 130 40 251t114 219t191 157t259 59z
" />
    <glyph glyph-name="d" unicode="d" horiz-adv-x="1153" 
d="M1178 1505l-267 -1505h-77l38 227l-84 -121q-78 -73 -158.5 -104t-191.5 -31q-180 0 -283.5 122.5t-103.5 316.5q0 104 24.5 204t75 189.5t120.5 157.5t167.5 107.5t210.5 39.5q106 0 177 -34t118 -107l39 -119l117 657h78zM922 500l18 104q18 91 7 170.5t-44.5 139
t-101 94t-162.5 34.5q-115 0 -212 -54t-159.5 -143t-97.5 -201t-35 -230q0 -168 85 -272.5t239 -104.5q80 0 151 25t134 77.5t109.5 144.5t68.5 216z" />
    <glyph glyph-name="e" unicode="e" horiz-adv-x="1079" 
d="M993 518h-852q-8 -49 -8 -102q0 -99 26 -174t71 -118.5t100.5 -65t120.5 -21.5q129 0 240.5 75.5t176.5 223.5h80q-79 -184 -214 -274.5t-300 -90.5q-172 0 -278.5 115t-106.5 328q0 91 23 186t71.5 186.5t117 163t167 115t213.5 43.5q96 0 169.5 -31.5t118.5 -87.5
t67 -129t22 -160q0 -102 -25 -182zM631 1042q-80 0 -150.5 -27t-122 -71t-93.5 -104t-68.5 -123t-42.5 -131h776q8 52 8 112q0 179 -84 261.5t-223 82.5z" />
    <glyph glyph-name="f" unicode="f" horiz-adv-x="483" 
d="M545 1544q62 0 108 -10l-14 -68q-43 9 -80 9q-138 0 -178 -134q-14 -51 -25 -110l-26 -154h219l-10 -65h-222l-176 -1012h-78l177 1012h-97l13 65h94l24 137q8 44 29 129q28 100 94.5 150.5t147.5 50.5z" />
    <glyph glyph-name="g" unicode="g" horiz-adv-x="1150" 
d="M1102 1085l-141 -802q-37 -214 -54 -297q-43 -203 -179 -317.5t-359 -114.5q-170 0 -272 84t-99 249v27h80l-2 -27q-1 -138 82 -202t227 -64q181 0 294.5 96t149.5 275q18 89 37 201l6 30l-84 -117q-78 -73 -158.5 -104t-191.5 -31q-180 0 -283.5 122.5t-103.5 316.5
q0 104 24.5 204t75 189.5t120.5 157.5t167.5 107.5t210.5 39.5q106 0 177 -34t118 -107l39 -115l41 233h78zM459 37q77 0 145 23t129 71t108 131.5t72 196.5l31 180q11 86 -1 158t-47.5 127.5t-101 86.5t-155.5 31q-115 0 -212 -54t-159.5 -143t-97.5 -201t-35 -230
q0 -168 85 -272.5t239 -104.5z" />
    <glyph glyph-name="h" unicode="h" horiz-adv-x="1120" 
d="M698 1108q155 0 237.5 -77t82.5 -214q0 -71 -25 -215l-106 -602h-78l102 584q25 144 25 217q0 110 -63.5 175t-194.5 64q-159 0 -281.5 -112t-160.5 -330l-105 -598h-78l266 1516h78l-116 -668l69 119q141 141 348 141z" />
    <glyph glyph-name="i" unicode="i" horiz-adv-x="370" 
d="M330 1364q23 0 37 -14t14 -35q0 -30 -21 -50t-49 -20q-22 0 -35.5 14.5t-13.5 36.5q0 29 20 48.5t48 19.5zM129 0h-78l191 1079h77z" />
    <glyph glyph-name="j" unicode="j" horiz-adv-x="335" 
d="M330 1364q21 0 35 -14t14 -35q0 -30 -20 -50t-48 -20q-23 0 -37 14.5t-14 36.5q0 29 21 48.5t49 19.5zM326 1079l-213 -1214q-14 -74 -25 -113q-49 -182 -219 -182q-35 0 -76 6l14 66q84 -15 133.5 13t71.5 107q17 61 21 88l215 1229h78z" />
    <glyph glyph-name="k" unicode="k" horiz-adv-x="991" 
d="M385 567l469 -567h-96l-434 522l-117 -94l-76 -428h-78l266 1505h78l-174 -985l684 559h111z" />
    <glyph glyph-name="l" unicode="l" horiz-adv-x="395" 
d="M389 1505l-219 -1243q-23 -122 -23 -149q0 -39 24 -51.5t85 -4.5l-12 -61q-25 -6 -76 -6q-49 0 -75.5 21t-26.5 73q0 37 26 176l219 1245h78z" />
    <glyph glyph-name="m" unicode="m" horiz-adv-x="1681" 
d="M1311 1108q132 0 201 -74t69 -205q0 -20 -1 -38t-1.5 -29t-3.5 -32.5t-4.5 -29.5t-7 -40.5t-7.5 -45.5l-108 -614h-78l103 580q26 142 26 223q0 120 -53 179.5t-166 59.5q-133 0 -240.5 -115.5t-144.5 -328.5l-104 -598h-78l102 580q25 151 25 223q0 122 -51.5 180.5
t-165.5 58.5q-134 0 -241.5 -114t-145.5 -326l-105 -602h-78l189 1079h77l-36 -213l75 121q124 121 293 121q129 0 197.5 -68.5t73.5 -191.5l96 139q124 121 293 121z" />
    <glyph glyph-name="n" unicode="n" horiz-adv-x="1120" 
d="M698 1108q155 0 237.5 -77t82.5 -214q0 -71 -25 -215l-106 -602h-78l102 584q25 144 25 217q0 110 -63.5 175t-194.5 64q-159 0 -281.5 -112t-160.5 -330l-105 -598h-78l189 1079h77l-40 -231l71 119q141 141 348 141z" />
    <glyph glyph-name="o" unicode="o" horiz-adv-x="1146" 
d="M653 1108q212 0 325.5 -132t113.5 -337q0 -87 -21.5 -177.5t-69 -179t-115 -157.5t-169.5 -111.5t-223 -42.5q-108 0 -193 36.5t-138 101t-80.5 149t-27.5 184.5q0 87 21.5 176.5t69 178t115 157.5t169.5 111.5t223 42.5zM506 37q97 0 180.5 37.5t141.5 98.5t99.5 139.5
t61 161.5t19.5 163q0 187 -100.5 296t-266.5 109q-97 0 -181 -37t-142 -98.5t-100 -140t-61.5 -161.5t-19.5 -163q0 -187 101.5 -296t267.5 -109z" />
    <glyph glyph-name="p" unicode="p" horiz-adv-x="1155" 
d="M717 1108q181 0 284 -121.5t103 -316.5q0 -130 -40 -253.5t-113 -223.5t-189 -161t-256 -61q-106 0 -177 34t-118 108l-39 118l-113 -632h-77l264 1480h78l-41 -223l84 117q78 73 158.5 104t191.5 31zM516 37q115 0 212 54.5t159.5 144t97.5 202t35 230.5
q0 167 -85 270.5t-239 103.5q-80 0 -151 -24.5t-134 -76.5t-109.5 -143t-68.5 -214v-2l-18 -107q-18 -91 -7 -170.5t44.5 -139t101 -94t162.5 -34.5z" />
    <glyph glyph-name="q" unicode="q" horiz-adv-x="1153" 
d="M1102 1079l-264 -1480h-78l112 626l-84 -119q-78 -73 -158.5 -104t-191.5 -31q-180 0 -283.5 122.5t-103.5 316.5q0 104 24.5 204t75 189.5t120.5 157.5t167.5 107.5t210.5 39.5q106 0 177 -34t118 -107l39 -117l41 229h78zM922 500l18 104q18 91 7 170.5t-44.5 139
t-101 94t-162.5 34.5q-115 0 -212 -54t-159.5 -143t-97.5 -201t-35 -230q0 -168 85 -272.5t239 -104.5q80 0 151 25t134 77.5t109.5 144.5t68.5 216z" />
    <glyph glyph-name="r" unicode="r" horiz-adv-x="571" 
d="M602 1108q29 0 53 -6l-12 -64q-48 3 -92.5 -4.5t-94 -35t-89.5 -73.5t-74.5 -126.5t-54.5 -188.5l-2 -12l-105 -598h-78l191 1085h78l-39 -221l77 127q108 117 242 117z" />
    <glyph glyph-name="s" unicode="s" horiz-adv-x="931" 
d="M528 1108q160 0 248 -85t96 -241h-79q-20 260 -273 260q-131 0 -207.5 -71t-76.5 -168q0 -88 60.5 -139.5t176.5 -83.5q167 -47 245.5 -114.5t78.5 -186.5q0 -146 -110 -229t-279 -83q-181 0 -284 87t-104 253h80q6 -144 88 -208t232 -64q132 0 213.5 65.5t81.5 169.5
q0 95 -64.5 148.5t-220.5 95.5q-58 16 -103.5 37t-86.5 54t-63.5 81.5t-22.5 110.5q0 132 102 221.5t272 89.5z" />
    <glyph glyph-name="t" unicode="t" horiz-adv-x="528" 
d="M328 1010l-129 -734q-19 -100 -19 -137q0 -62 45 -81t144 -5l-11 -59q-41 -8 -102 -8q-78 0 -117 31t-39 100q0 59 21 164l129 729h-135l12 61h133l41 229h78l-41 -229h205l-11 -61h-204z" />
    <glyph glyph-name="u" unicode="u" horiz-adv-x="1110" 
d="M1059 1079l-189 -1079h-77l41 231l-72 -116q-144 -144 -348 -144q-154 0 -236 77.5t-82 213.5q0 82 23 217l108 600h78l-104 -583q-25 -141 -25 -217q0 -110 64 -175.5t194 -64.5q103 0 191.5 45.5t158 147.5t95.5 249l102 598h78z" />
    <glyph glyph-name="v" unicode="v" horiz-adv-x="978" 
d="M1051 1079l-615 -1079h-102l-230 1079h86l205 -1016l566 1016h90z" />
    <glyph glyph-name="w" unicode="w" horiz-adv-x="1490" 
d="M1565 1079l-535 -1079h-96l-115 1004l-469 -1004h-100l-146 1079h84l125 -1005l463 1003h105l116 -997l480 999h88z" />
    <glyph glyph-name="x" unicode="x" horiz-adv-x="919" 
d="M492 541l288 -541h-92l-250 485l-430 -485h-96l489 547l-268 532h90l236 -477l424 477h98z" />
    <glyph glyph-name="y" unicode="y" horiz-adv-x="978" 
d="M1051 1079l-615 -1079q-77 -137 -136.5 -222t-113 -130.5t-98 -61.5t-102.5 -16q-39 0 -70 8l12 66q25 -6 62 -6q81 0 152.5 63t168.5 229l27 47l-234 1102h86l205 -1016l566 1016h90z" />
    <glyph glyph-name="z" unicode="z" horiz-adv-x="956" 
d="M958 1006l-899 -943h744l-10 -63h-840l10 61l893 943h-678l10 67h781z" />
    <glyph glyph-name="braceleft" unicode="{" horiz-adv-x="595" 
d="M737 1597l-10 -61h-35q-63 0 -106 -15.5t-69 -41.5t-40.5 -74t-20 -98t-7.5 -129q-2 -66 -5 -110t-11 -99.5t-23 -92t-38.5 -72t-60.5 -57t-86 -30.5q68 -13 100.5 -57t32.5 -107q0 -95 -69 -291q-39 -109 -50.5 -155.5t-11.5 -88.5q0 -65 44.5 -92.5t131.5 -27.5h35
l-12 -62h-31q-110 0 -172.5 43.5t-62.5 136.5q0 44 14 96.5t57 170.5q62 176 62 264q0 125 -137 139l10 62q47 5 82.5 20.5t59 44t38.5 61t23 81t10.5 93.5t3.5 109q2 117 15 191.5t47 134.5t98 87t164 27h30z" />
    <glyph glyph-name="bar" unicode="|" horiz-adv-x="514" 
d="M119 -410h-64l361 2048h63z" />
    <glyph glyph-name="braceright" unicode="}" horiz-adv-x="595" 
d="M367 887q0 -57 32.5 -94.5t104.5 -44.5l-12 -62q-57 -5 -96.5 -28t-63 -56.5t-36.5 -88t-17 -107t-5 -130.5q-1 -93 -8.5 -156.5t-28 -121.5t-55.5 -91t-92.5 -52t-138.5 -19h-31l10 62h35q63 0 106 15.5t69.5 41.5t41.5 73.5t20.5 98.5t6.5 129q2 56 4 94.5t8 87.5
t15 82.5t25.5 70t39.5 59.5t56 41.5t75 25.5q-68 13 -100.5 57t-32.5 107q0 48 14.5 109t55.5 181q39 107 51 154t12 90q0 65 -45 93t-133 28h-35l12 61h31q236 0 236 -180q0 -44 -14 -94.5t-58 -171.5q-59 -165 -59 -264z" />
    <glyph glyph-name="asciitilde" unicode="~" horiz-adv-x="1218" 
d="M1004 721h61q-45 -248 -234 -248q-58 0 -103 17.5t-138 74.5q-84 51 -127 69.5t-88 18.5q-125 0 -156 -186h-61q45 248 233 248q57 0 102.5 -18t139.5 -76q80 -50 124.5 -68t88.5 -18q66 0 104.5 46.5t53.5 139.5z" />
    <glyph glyph-name="exclamdown" unicode="&#xa1;" horiz-adv-x="372" 
d="M264 981q-24 0 -38.5 14.5t-14.5 36.5q0 32 23 54t53 22q25 0 39 -14t14 -37q0 -30 -23 -53t-53 -23zM201 819h69l-202 -1153h-88z" />
    <glyph glyph-name="cent" unicode="&#xa2;" 
d="M1042 737h-79q-2 140 -74 220.5t-211 86.5l-178 -1007q130 8 232.5 82.5t160.5 208.5h80q-67 -167 -193 -258t-291 -99l-28 -155h-64l29 157q-161 11 -257.5 129t-96.5 320q0 91 22.5 183.5t69 179t111 155t156 113.5t196.5 53l28 164h64l-29 -162q170 -4 262.5 -104.5
t89.5 -266.5zM154 426q0 -178 77.5 -276t204.5 -111l178 1003q-82 -8 -155 -46.5t-128 -98t-95 -135t-61 -162t-21 -174.5z" />
    <glyph glyph-name="sterling" unicode="&#xa3;" 
d="M668 1374q-102 0 -180.5 -53t-117 -132t-38.5 -165q0 -128 53 -260h473l-10 -62h-442q43 -108 43 -200q0 -136 -72.5 -242.5t-237.5 -191.5h774l-12 -68h-911l10 61q183 67 275 179t92 254q0 84 -48 208h-186l10 62h152q-45 117 -45 258q0 73 27.5 145.5t79 134.5
t136.5 101t189 39q80 0 141.5 -21t101.5 -57t66.5 -88.5t39 -109t16.5 -126.5h-82q-8 162 -75.5 248t-221.5 86z" />
    <glyph glyph-name="currency" unicode="&#xa4;" 
d="M920 647q0 -76 -30.5 -151.5t-88.5 -133.5l88 -104l-53 -45l-88 106q-99 -71 -242 -71q-131 0 -215 94l-141 -119l-37 45l141 121q-53 83 -53 197q0 72 30 147.5t88 134.5l-90 111l54 45l92 -111q102 72 237 72q131 0 217 -92l144 123l37 -45l-144 -125q54 -82 54 -199z
M266 592q0 -124 69.5 -203.5t182.5 -79.5q64 0 120 21t94.5 55.5t66 78t40.5 89t13 88.5q0 130 -68.5 206.5t-183.5 76.5q-79 0 -144.5 -31.5t-106 -81t-62 -107t-21.5 -112.5z" />
    <glyph glyph-name="yen" unicode="&#xa5;" 
d="M653 709h324l-10 -62h-361l-8 -10l-27 -143h369l-12 -62h-367l-76 -432h-77l75 432h-364l12 62h363l28 153h-364l10 62h328l-308 704h88l297 -700l541 700h94z" />
    <glyph glyph-name="brokenbar" unicode="&#xa6;" horiz-adv-x="514" 
d="M317 717h-63l123 696h63zM133 -328h-63l123 697h63z" />
    <glyph glyph-name="section" unicode="&#xa7;" horiz-adv-x="1101" 
d="M1038 522q0 -119 -91.5 -206t-254.5 -111q139 -90 139 -250q0 -137 -112 -224t-281 -87q-160 0 -264 85t-125 257h80q23 -139 105 -208t212 -69q132 0 217 65t85 175q0 106 -73 170.5t-255 109.5q-326 91 -326 336q0 121 89 210t245 118q-125 82 -125 235q0 59 24 115
t68.5 100.5t114.5 71.5t154 27q161 0 249 -86t109 -238h-80q-45 258 -285 258q-129 0 -199.5 -71.5t-70.5 -176.5q0 -54 22 -97t64 -72.5t89.5 -49.5t111.5 -37q178 -46 271 -130t93 -220zM594 256q163 8 261.5 76t98.5 186q0 109 -77 174.5t-250 116.5q-52 14 -101 33
q-155 -9 -251.5 -79.5t-96.5 -189.5q0 -49 15.5 -89.5t40.5 -68.5t63.5 -51.5t77 -38.5t88.5 -28q53 -13 131 -41z" />
    <glyph glyph-name="dieresis" unicode="&#xa8;" horiz-adv-x="614" 
d="M219 1350q20 0 32.5 -13t12.5 -32q0 -26 -20 -45t-45 -19q-20 0 -32.5 12t-12.5 31q0 26 20 46t45 20zM416 1350q21 0 33 -13t12 -32q0 -26 -20.5 -45t-45.5 -19q-20 0 -31.5 12t-11.5 31q0 26 20 46t44 20z" />
    <glyph glyph-name="copyright" unicode="&#xa9;" horiz-adv-x="1716" 
d="M858 1497q156 0 295.5 -60.5t240 -163t159.5 -245t59 -301.5t-59 -301.5t-159.5 -245t-240 -163t-295.5 -60.5t-295.5 60.5t-240 163t-159.5 245t-59 301.5t59 301.5t159.5 245t240 163t295.5 60.5zM858 1434q-142 0 -269.5 -55.5t-219 -150t-145.5 -225.5t-54 -276
q0 -194 91 -355.5t249.5 -255t347.5 -93.5t347.5 93.5t249.5 255t91 355.5q0 145 -54 276t-145.5 225.5t-219 150t-269.5 55.5zM866 1167q141 0 236.5 -77.5t116.5 -217.5h-82q-21 106 -89 167t-182 61q-138 0 -220.5 -107t-82.5 -264q0 -161 83 -265t214 -104
q109 0 180.5 58.5t94.5 167.5h82q-31 -143 -125 -218t-242 -75q-157 0 -263 119t-106 315q0 200 109 320t276 120z" />
    <glyph glyph-name="guillemotleft" unicode="&#xab;" horiz-adv-x="974" 
d="M289 500l217 -332h-78l-221 340l340 340h90zM555 500l217 -332h-78l-221 340l340 340h90z" />
    <glyph glyph-name="logicalnot" unicode="&#xac;" 
d="M858 430h-63l47 266h-666l12 62h727z" />
    <glyph glyph-name="registered" unicode="&#xae;" horiz-adv-x="1062" 
d="M586 1565q179 0 283 -106.5t104 -270.5q0 -86 -32.5 -170t-92 -154.5t-156 -114.5t-213.5 -44q-179 0 -283 106t-104 270q0 69 19.5 137t61 130.5t98.5 111t139 77t176 28.5zM489 760q100 0 183 39t133.5 101.5t78 137t27.5 150.5q0 138 -90.5 229.5t-245.5 91.5
q-101 0 -184 -39t-133.5 -101.5t-78 -137t-27.5 -150.5q0 -138 90.5 -229.5t246.5 -91.5zM598 1350q50 -6 79.5 -37t29.5 -76t-28.5 -75.5t-78.5 -41.5q48 -17 45 -71q0 -62 19 -115h-66q-12 50 -12 90t-12 55t-46 15h-73l-29 -160h-57l73 418h107q31 0 49 -2zM557 1145
q41 5 63.5 27t22.5 59q0 58 -61 67q-12 2 -43 2h-50l-26 -157h51q27 0 43 2z" />
    <glyph glyph-name="macron" unicode="&#xaf;" horiz-adv-x="614" 
d="M471 1262h-338l10 59h338z" />
    <glyph glyph-name="degree" unicode="&#xb0;" horiz-adv-x="579" 
d="M461 1534q85 0 136.5 -51t51.5 -129q0 -111 -74 -181.5t-184 -70.5q-84 0 -135 51.5t-51 130.5q0 109 73 179.5t183 70.5zM453 1473q-77 0 -129 -52t-52 -135q0 -57 35 -90t94 -33q75 0 127 52t52 135q0 57 -34 90t-93 33z" />
    <glyph glyph-name="plusminus" unicode="&#xb1;" 
d="M989 682l-8 -61h-385l-72 -414h-63l71 414h-380l8 61h385l71 412h64l-72 -412h381zM51 61h830l-11 -61h-829z" />
    <glyph glyph-name="acute" unicode="&#xb4;" horiz-adv-x="614" 
d="M309 1188h-57l164 225h84z" />
    <glyph glyph-name="paragraph" unicode="&#xb6;" horiz-adv-x="1081" 
d="M1090 1413l-291 -1638h-64l281 1577h-244l-280 -1577h-64l156 880h-47q-80 0 -115 2q-63 4 -114 32.5t-82.5 73.5t-48.5 100.5t-17 115.5q0 54 14 110t45 112.5t76 101t112.5 74t147.5 34.5q37 2 117 2h418z" />
    <glyph glyph-name="periodcentered" unicode="&#xb7;" horiz-adv-x="313" 
d="M180 694q28 0 43 -15t15 -42q0 -33 -24.5 -57.5t-57.5 -24.5q-27 0 -42.5 16t-15.5 41q0 33 24.5 57.5t57.5 24.5z" />
    <glyph glyph-name="cedilla" unicode="&#xb8;" horiz-adv-x="614" 
d="M371 6l-74 -104q70 -8 109.5 -46t39.5 -102q0 -90 -68.5 -137t-178.5 -47q-62 0 -105 14l10 54q41 -15 105 -15q82 0 127 34.5t45 92.5q0 117 -180 105l116 161z" />
    <glyph glyph-name="guillemotright" unicode="&#xbb;" horiz-adv-x="974" 
d="M489 508l-339 -340h-91l349 348l-218 332h78zM756 508l-340 -340h-90l348 348l-217 332h78z" />
    <glyph glyph-name="questiondown" unicode="&#xbf;" horiz-adv-x="1003" 
d="M629 979q-24 0 -37.5 14.5t-13.5 36.5q0 32 22 54t53 22q23 0 37.5 -13.5t14.5 -35.5q0 -32 -23 -55t-53 -23zM379 -365q-162 0 -253 87.5t-91 205.5q0 116 60 215.5t212 245.5q74 71 113 113.5t72.5 93t50.5 100t30 121.5h74q-19 -137 -74.5 -226t-201.5 -235
q-148 -147 -200 -235.5t-52 -188.5q0 -98 74 -163.5t196 -65.5q163 0 269 96t145 267h80q-38 -196 -174.5 -313.5t-329.5 -117.5z" />
    <glyph glyph-name="Agrave" unicode="&#xc0;" horiz-adv-x="1284" 
d="M813 1507l-102 193h80l79 -193h-57zM969 539h-607l-296 -539h-93l789 1413h112l283 -1413h-84zM954 606l-145 744l-410 -744h555z" />
    <glyph glyph-name="Aacute" unicode="&#xc1;" horiz-adv-x="1284" 
d="M862 1507h-57l141 193h84zM969 539h-607l-296 -539h-93l789 1413h112l283 -1413h-84zM954 606l-145 744l-410 -744h555z" />
    <glyph glyph-name="Acircumflex" unicode="&#xc2;" horiz-adv-x="1284" 
d="M750 1507h-74l166 193h69l101 -193h-70l-72 150zM969 539h-607l-296 -539h-93l789 1413h112l283 -1413h-84zM954 606l-145 744l-410 -744h555z" />
    <glyph glyph-name="Atilde" unicode="&#xc3;" horiz-adv-x="1284" 
d="M750 1599q-33 0 -41 -40h-50q9 100 93 100q44 0 120 -27q65 -22 93 -22q34 0 39 41h49q-9 -101 -92 -101q-41 0 -121 27q-62 22 -90 22zM969 539h-607l-296 -539h-93l789 1413h112l283 -1413h-84zM954 606l-145 744l-410 -744h555z" />
    <glyph glyph-name="Adieresis" unicode="&#xc4;" horiz-adv-x="1284" 
d="M756 1550q-20 0 -31.5 12t-11.5 31q0 26 19.5 46t43.5 20q21 0 33 -13t12 -32q0 -26 -20 -45t-45 -19zM936 1550q-20 0 -32.5 12t-12.5 31q0 26 20 46t45 20q20 0 32.5 -13t12.5 -32q0 -26 -20 -45t-45 -19zM969 539h-607l-296 -539h-93l789 1413h112l283 -1413h-84z
M954 606l-145 744l-410 -744h555z" />
    <glyph glyph-name="Aring" unicode="&#xc5;" horiz-adv-x="1284" 
d="M836 1477q-55 0 -89 29t-34 79q0 71 51 115.5t117 44.5q55 0 89 -30.5t34 -80.5q0 -71 -50 -114t-118 -43zM872 1694q-41 0 -68.5 -30t-27.5 -73q0 -28 18 -46.5t50 -18.5q42 0 70 29.5t28 72.5q0 29 -18.5 47.5t-51.5 18.5zM969 539h-607l-296 -539h-93l789 1413h112
l283 -1413h-84zM954 606l-145 744l-410 -744h555z" />
    <glyph glyph-name="AE" unicode="&#xc6;" horiz-adv-x="1914" 
d="M1161 1348l-78 -609h732l-13 -65h-729l-78 -606h768l-12 -68h-840l70 539h-537l-432 -539h-100l1143 1413h925l-14 -65h-805zM1085 1337l-585 -731h491z" />
    <glyph glyph-name="Ccedilla" unicode="&#xc7;" horiz-adv-x="1433" 
d="M913 1442q157 0 268.5 -61t164 -163t49.5 -233v-20h-78v20q0 188 -110 288.5t-312 100.5q-128 0 -248.5 -56.5t-216 -158t-153.5 -258t-58 -342.5q0 -253 121.5 -386.5t318.5 -133.5q204 0 344 111t214 296l8 21h78l-9 -21q-38 -103 -95 -186.5t-136 -149.5t-186 -102.5
t-234 -36.5q-24 0 -70 4l-51 -73q70 -8 110 -46t40 -102q0 -90 -69 -137t-179 -47q-62 0 -105 14l11 54q41 -15 104 -15q82 0 127 34.5t45 92.5q0 117 -180 105l94 129q-183 39 -285.5 188t-101.5 381q-1 196 61.5 364.5t169 282.5t249 178t300.5 64z" />
    <glyph glyph-name="Egrave" unicode="&#xc8;" horiz-adv-x="1128" 
d="M729 1507l-102 193h80l79 -193h-57zM385 1348l-106 -609h749l-12 -65h-750l-106 -606h817l-12 -68h-895l249 1413h875l-14 -65h-795z" />
    <glyph glyph-name="Eacute" unicode="&#xc9;" horiz-adv-x="1128" 
d="M778 1507h-57l141 193h84zM385 1348l-106 -609h749l-12 -65h-750l-106 -606h817l-12 -68h-895l249 1413h875l-14 -65h-795z" />
    <glyph glyph-name="Ecircumflex" unicode="&#xca;" horiz-adv-x="1128" 
d="M666 1507h-74l166 193h69l101 -193h-70l-72 150zM385 1348l-106 -609h749l-12 -65h-750l-106 -606h817l-12 -68h-895l249 1413h875l-14 -65h-795z" />
    <glyph glyph-name="Edieresis" unicode="&#xcb;" horiz-adv-x="1128" 
d="M672 1550q-20 0 -31.5 12t-11.5 31q0 26 19.5 46t43.5 20q21 0 33 -13t12 -32q0 -26 -20 -45t-45 -19zM852 1550q-20 0 -32.5 12t-12.5 31q0 26 20 46t45 20q20 0 33 -13t13 -32q0 -26 -20.5 -45t-45.5 -19zM385 1348l-106 -609h749l-12 -65h-750l-106 -606h817l-12 -68
h-895l249 1413h875l-14 -65h-795z" />
    <glyph glyph-name="Igrave" unicode="&#xcc;" horiz-adv-x="368" 
d="M406 1507h-58l-102 193h80zM147 0h-77l249 1413h78z" />
    <glyph glyph-name="Iacute" unicode="&#xcd;" horiz-adv-x="368" 
d="M397 1507h-57l141 193h84zM147 0h-77l249 1413h78z" />
    <glyph glyph-name="Icircumflex" unicode="&#xce;" horiz-adv-x="368" 
d="M477 1507l-71 150l-121 -150h-74l166 193h69l101 -193h-70zM319 1413h78l-250 -1413h-77z" />
    <glyph glyph-name="Idieresis" unicode="&#xcf;" horiz-adv-x="368" 
d="M311 1659q21 0 33 -13t12 -32q0 -26 -20 -45t-45 -19q-20 0 -31.5 12t-11.5 31q0 26 19.5 46t43.5 20zM492 1659q20 0 32.5 -13t12.5 -32q0 -26 -20.5 -45t-45.5 -19q-20 0 -32.5 12t-12.5 31q0 26 20.5 46t45.5 20zM147 0h-77l249 1413h78z" />
    <glyph glyph-name="Eth" unicode="&#xd0;" horiz-adv-x="1394" 
d="M856 1409q100 -9 185 -47t153 -107t106.5 -179t38.5 -251q0 -151 -51.5 -293t-143 -254t-229 -185t-299.5 -87q-74 -6 -182 -6h-364l114 653h-139l12 60h140l122 700h381q101 0 156 -4zM627 76q119 13 221 60t176 119t126.5 163t78.5 193.5t26 209.5q0 240 -113 370
t-300 148q-53 7 -150 7h-307l-111 -633h357l-13 -60h-354l-104 -585h295q88 0 172 8z" />
    <glyph glyph-name="Ntilde" unicode="&#xd1;" horiz-adv-x="1288" 
d="M745 1599q-32 0 -40 -40h-50q9 100 93 100q44 0 120 -27q65 -22 93 -22q33 0 38 41h50q-9 -101 -93 -101q-40 0 -120 27q-62 22 -91 22zM1319 1413l-250 -1413h-121l-565 1346l-236 -1346h-77l249 1413h119l566 -1341l237 1341h78z" />
    <glyph glyph-name="Ograve" unicode="&#xd2;" horiz-adv-x="1523" 
d="M905 1507l-102 193h80l80 -193h-58zM911 1442q251 0 404 -169t153 -446q0 -124 -31.5 -246t-96.5 -232.5t-155.5 -194.5t-218 -133.5t-274.5 -49.5q-251 0 -404 169.5t-153 447.5q0 124 31.5 245.5t96 231.5t155 194t218 133.5t275.5 49.5zM707 39q126 0 236.5 45.5
t190 123t137 179t85.5 214t28 226.5q0 250 -137.5 398.5t-349.5 148.5q-126 0 -236.5 -45.5t-190 -123t-137 -178.5t-86 -213.5t-28.5 -225.5q0 -252 137 -400.5t351 -148.5z" />
    <glyph glyph-name="Oacute" unicode="&#xd3;" horiz-adv-x="1523" 
d="M954 1507h-57l141 193h84zM911 1442q251 0 404 -169t153 -446q0 -124 -31.5 -246t-96.5 -232.5t-155.5 -194.5t-218 -133.5t-274.5 -49.5q-251 0 -404 169.5t-153 447.5q0 124 31.5 245.5t96 231.5t155 194t218 133.5t275.5 49.5zM707 39q126 0 236.5 45.5t190 123
t137 179t85.5 214t28 226.5q0 250 -137.5 398.5t-349.5 148.5q-126 0 -236.5 -45.5t-190 -123t-137 -178.5t-86 -213.5t-28.5 -225.5q0 -252 137 -400.5t351 -148.5z" />
    <glyph glyph-name="Ocircumflex" unicode="&#xd4;" horiz-adv-x="1523" 
d="M842 1507h-74l166 193h70l100 -193h-70l-71 150zM911 1442q251 0 404 -169t153 -446q0 -124 -31.5 -246t-96.5 -232.5t-155.5 -194.5t-218 -133.5t-274.5 -49.5q-251 0 -404 169.5t-153 447.5q0 124 31.5 245.5t96 231.5t155 194t218 133.5t275.5 49.5zM707 39
q126 0 236.5 45.5t190 123t137 179t85.5 214t28 226.5q0 250 -137.5 398.5t-349.5 148.5q-126 0 -236.5 -45.5t-190 -123t-137 -178.5t-86 -213.5t-28.5 -225.5q0 -252 137 -400.5t351 -148.5z" />
    <glyph glyph-name="Otilde" unicode="&#xd5;" horiz-adv-x="1523" 
d="M842 1599q-33 0 -41 -40h-49q9 100 92 100q44 0 121 -27q65 -22 92 -22q34 0 39 41h49q-9 -101 -92 -101q-41 0 -121 27q-62 22 -90 22zM911 1442q251 0 404 -169t153 -446q0 -124 -31.5 -246t-96.5 -232.5t-155.5 -194.5t-218 -133.5t-274.5 -49.5q-251 0 -404 169.5
t-153 447.5q0 124 31.5 245.5t96 231.5t155 194t218 133.5t275.5 49.5zM707 39q126 0 236.5 45.5t190 123t137 179t85.5 214t28 226.5q0 250 -137.5 398.5t-349.5 148.5q-126 0 -236.5 -45.5t-190 -123t-137 -178.5t-86 -213.5t-28.5 -225.5q0 -252 137 -400.5t351 -148.5z
" />
    <glyph glyph-name="Odieresis" unicode="&#xd6;" horiz-adv-x="1523" 
d="M848 1550q-20 0 -31.5 12t-11.5 31q0 26 19.5 46t43.5 20q21 0 33 -13t12 -32q0 -26 -20 -45t-45 -19zM1028 1550q-20 0 -32.5 12t-12.5 31q0 26 20.5 46t45.5 20q20 0 32.5 -13t12.5 -32q0 -26 -20.5 -45t-45.5 -19zM911 1442q251 0 404 -169t153 -446
q0 -124 -31.5 -246t-96.5 -232.5t-155.5 -194.5t-218 -133.5t-274.5 -49.5q-251 0 -404 169.5t-153 447.5q0 124 31.5 245.5t96 231.5t155 194t218 133.5t275.5 49.5zM707 39q126 0 236.5 45.5t190 123t137 179t85.5 214t28 226.5q0 250 -137.5 398.5t-349.5 148.5
q-126 0 -236.5 -45.5t-190 -123t-137 -178.5t-86 -213.5t-28.5 -225.5q0 -252 137 -400.5t351 -148.5z" />
    <glyph glyph-name="multiply" unicode="&#xd7;" 
d="M610 639l248 -299l-51 -45l-248 301l-356 -303l-43 49l358 305l-246 297l52 45l245 -299l355 301l43 -49z" />
    <glyph glyph-name="Oslash" unicode="&#xd8;" horiz-adv-x="1511" 
d="M1561 1317l-177 -150q80 -147 80 -340q0 -103 -22.5 -205.5t-65.5 -198.5t-110 -178t-150.5 -143t-193.5 -96t-234 -35q-145 0 -259 58.5t-187 167.5l-174 -148l-39 47l180 154q-78 144 -78 338q0 124 31.5 245.5t96.5 231.5t155.5 194t218 133.5t274.5 49.5
q143 0 257.5 -57.5t187.5 -163.5l170 143zM215 588q0 -165 59 -283l1014 860q-64 101 -167 155t-228 54q-126 0 -236.5 -45.5t-190 -123t-137 -178.5t-86 -213.5t-28.5 -225.5zM1380 827q0 164 -59 285l-1016 -862q66 -101 169 -156t228 -55q126 0 236.5 45.5t190 123.5
t137 179t86 213.5t28.5 226.5z" />
    <glyph glyph-name="Ugrave" unicode="&#xd9;" horiz-adv-x="1271" 
d="M862 1507h-57l-103 193h80zM1288 1413l-162 -915q-12 -66 -28 -136q-45 -182 -176.5 -286.5t-354.5 -104.5q-195 0 -300 93.5t-105 252.5q0 76 16 185l162 911h78l-160 -913q-18 -102 -18 -178q0 -127 84.5 -205t255.5 -78q186 0 295 89.5t149 248.5q13 55 27 127
l159 909h78z" />
    <glyph glyph-name="Uacute" unicode="&#xda;" horiz-adv-x="1271" 
d="M854 1507h-57l141 193h84zM1288 1413l-162 -915q-12 -66 -28 -136q-45 -182 -176.5 -286.5t-354.5 -104.5q-195 0 -300 93.5t-105 252.5q0 76 16 185l162 911h78l-160 -913q-18 -102 -18 -178q0 -127 84.5 -205t255.5 -78q186 0 295 89.5t149 248.5q13 55 27 127l159 909
h78z" />
    <glyph glyph-name="Ucircumflex" unicode="&#xdb;" horiz-adv-x="1271" 
d="M741 1507h-73l166 193h69l101 -193h-70l-72 150zM1288 1413l-162 -915q-12 -66 -28 -136q-45 -182 -176.5 -286.5t-354.5 -104.5q-195 0 -300 93.5t-105 252.5q0 76 16 185l162 911h78l-160 -913q-18 -102 -18 -178q0 -127 84.5 -205t255.5 -78q186 0 295 89.5t149 248.5
q13 55 27 127l159 909h78z" />
    <glyph glyph-name="Udieresis" unicode="&#xdc;" horiz-adv-x="1271" 
d="M768 1659q21 0 33 -13t12 -32q0 -26 -20 -45t-45 -19q-20 0 -31.5 12t-11.5 31q0 26 19.5 46t43.5 20zM948 1659q20 0 32.5 -13t12.5 -32q0 -26 -20 -45t-45 -19q-20 0 -32.5 12t-12.5 31q0 26 20 46t45 20zM1288 1413l-162 -915q-12 -66 -28 -136
q-45 -182 -176.5 -286.5t-354.5 -104.5q-195 0 -300 93.5t-105 252.5q0 76 16 185l162 911h78l-160 -913q-18 -102 -18 -178q0 -127 84.5 -205t255.5 -78q186 0 295 89.5t149 248.5q13 55 27 127l159 909h78z" />
    <glyph glyph-name="Yacute" unicode="&#xdd;" horiz-adv-x="1134" 
d="M778 1507h-57l141 193h84zM625 551l-97 -551h-77l98 559l-350 854h84l317 -780l586 780h96z" />
    <glyph glyph-name="Thorn" unicode="&#xde;" horiz-adv-x="1136" 
d="M823 1178q133 -18 212 -87.5t79 -193.5q0 -22 -8 -80q-20 -112 -81.5 -194.5t-145.5 -126t-187 -56.5q-82 -10 -198 -10h-271l-76 -430h-77l249 1413h78l-39 -225h269q117 0 196 -10zM1022 817q4 23 4 66q0 194 -229 225q-71 10 -183 10h-270l-108 -618h270q112 0 186 10
q129 16 217 91t113 216z" />
    <glyph glyph-name="germandbls" unicode="&#xdf;" horiz-adv-x="1075" 
d="M750 1544q148 0 237.5 -78.5t89.5 -208.5q0 -151 -100 -266q-115 -53 -164 -102.5t-49 -120.5q0 -45 19.5 -81.5t70.5 -90.5q75 -79 110 -144t35 -135q0 -59 -25 -114.5t-73.5 -103.5t-132 -77.5t-190.5 -29.5t-211 24l12 68q108 -27 209 -27q83 0 148 24t102.5 62t57 82
t19.5 88q0 53 -27.5 107t-94.5 127q-62 68 -86.5 115.5t-24.5 101.5q0 90 56 152t184 124q73 96 73 215q0 102 -68 162t-186 60q-350 0 -432 -471l-178 -1006h-78l176 999q96 545 521 545z" />
    <glyph glyph-name="agrave" unicode="&#xe0;" horiz-adv-x="1019" 
d="M645 1188l-110 225h79l86 -225h-55zM635 1108q151 0 228 -71t77 -191q0 -65 -18 -158l-64 -358q-28 -173 -39 -330h-80l27 238l-68 -105q-137 -162 -358 -162q-123 0 -205 67.5t-82 194.5q0 117 64 202t174.5 129.5t247 60.5t292.5 4l11 55q18 90 18 147q0 211 -231 211
q-130 0 -228 -66.5t-137 -201.5h-80q34 147 157 240.5t294 93.5zM797 424l24 141q-311 28 -498.5 -60t-187.5 -265q0 -97 64 -150t172 -53q153 0 276 115.5t150 271.5z" />
    <glyph glyph-name="aacute" unicode="&#xe1;" horiz-adv-x="1019" 
d="M688 1188h-57l164 225h84zM635 1108q151 0 228 -71t77 -191q0 -65 -18 -158l-64 -358q-28 -173 -39 -330h-80l27 238l-68 -105q-137 -162 -358 -162q-123 0 -205 67.5t-82 194.5q0 117 64 202t174.5 129.5t247 60.5t292.5 4l11 55q18 90 18 147q0 211 -231 211
q-130 0 -228 -66.5t-137 -201.5h-80q34 147 157 240.5t294 93.5zM797 424l24 141q-311 28 -498.5 -60t-187.5 -265q0 -97 64 -150t172 -53q153 0 276 115.5t150 271.5z" />
    <glyph glyph-name="acircumflex" unicode="&#xe2;" horiz-adv-x="1019" 
d="M569 1188h-69l176 225h65l95 -225h-68l-68 176zM635 1108q151 0 228 -71t77 -191q0 -65 -18 -158l-64 -358q-28 -173 -39 -330h-80l27 238l-68 -105q-137 -162 -358 -162q-123 0 -205 67.5t-82 194.5q0 117 64 202t174.5 129.5t247 60.5t292.5 4l11 55q18 90 18 147
q0 211 -231 211q-130 0 -228 -66.5t-137 -201.5h-80q34 147 157 240.5t294 93.5zM797 424l24 141q-311 28 -498.5 -60t-187.5 -265q0 -97 64 -150t172 -53q153 0 276 115.5t150 271.5z" />
    <glyph glyph-name="atilde" unicode="&#xe3;" horiz-adv-x="1019" 
d="M582 1317q-33 0 -41 -41h-49q9 98 92 98q47 0 121 -26q68 -23 92 -23q34 0 39 41h49q-9 -98 -92 -98q-44 0 -121 26q-65 23 -90 23zM635 1108q151 0 228 -71t77 -191q0 -65 -18 -158l-64 -358q-28 -173 -39 -330h-80l27 238l-68 -105q-137 -162 -358 -162
q-123 0 -205 67.5t-82 194.5q0 117 64 202t174.5 129.5t247 60.5t292.5 4l11 55q18 90 18 147q0 211 -231 211q-130 0 -228 -66.5t-137 -201.5h-80q34 147 157 240.5t294 93.5zM797 424l24 141q-311 28 -498.5 -60t-187.5 -265q0 -97 64 -150t172 -53q153 0 276 115.5
t150 271.5z" />
    <glyph glyph-name="adieresis" unicode="&#xe4;" horiz-adv-x="1019" 
d="M575 1241q-20 0 -32.5 12t-12.5 31q0 26 20.5 46t45.5 20q20 0 32.5 -13t12.5 -32q0 -26 -20.5 -45t-45.5 -19zM772 1241q-20 0 -31.5 12t-11.5 31q0 26 20 46t44 20q21 0 33 -13t12 -32q0 -26 -20.5 -45t-45.5 -19zM635 1108q151 0 228 -71t77 -191q0 -65 -18 -158
l-64 -358q-28 -173 -39 -330h-80l27 238l-68 -105q-137 -162 -358 -162q-123 0 -205 67.5t-82 194.5q0 117 64 202t174.5 129.5t247 60.5t292.5 4l11 55q18 90 18 147q0 211 -231 211q-130 0 -228 -66.5t-137 -201.5h-80q34 147 157 240.5t294 93.5zM797 424l24 141
q-311 28 -498.5 -60t-187.5 -265q0 -97 64 -150t172 -53q153 0 276 115.5t150 271.5z" />
    <glyph glyph-name="aring" unicode="&#xe5;" horiz-adv-x="1019" 
d="M662 1167q-53 0 -86 31t-33 80q0 73 50 119.5t118 46.5q53 0 86.5 -30t33.5 -79q0 -73 -50.5 -120.5t-118.5 -47.5zM700 1395q-41 0 -68.5 -32t-27.5 -77q0 -30 17.5 -48.5t50.5 -18.5q42 0 70 31.5t28 76.5q0 30 -18.5 49t-51.5 19zM635 1108q151 0 228 -71t77 -191
q0 -65 -18 -158l-64 -358q-28 -173 -39 -330h-80l27 238l-68 -105q-137 -162 -358 -162q-123 0 -205 67.5t-82 194.5q0 117 64 202t174.5 129.5t247 60.5t292.5 4l11 55q18 90 18 147q0 211 -231 211q-130 0 -228 -66.5t-137 -201.5h-80q34 147 157 240.5t294 93.5zM797 424
l24 141q-311 28 -498.5 -60t-187.5 -265q0 -97 64 -150t172 -53q153 0 276 115.5t150 271.5z" />
    <glyph glyph-name="ae" unicode="&#xe6;" horiz-adv-x="1886" 
d="M1800 518h-858q-10 -54 -10 -123q0 -182 87 -270t230 -88q129 0 245 76t179 223h80q-74 -177 -215 -271t-305 -94q-87 0 -156 25.5t-112.5 70.5t-69 102t-33.5 124l-69 -121q-95 -105 -200 -153t-237 -48q-134 0 -221.5 62t-87.5 178q0 186 191.5 280.5t566.5 94.5h69
q23 130 23 190q0 273 -264 273q-125 0 -229.5 -68t-143.5 -201h-80q35 145 165 239.5t298 94.5q92 0 158.5 -23.5t102.5 -64.5t53 -86.5t20 -99.5q75 129 202 201.5t267 72.5q96 0 170 -32.5t118 -89.5t66.5 -130t22.5 -160q0 -98 -23 -184zM1430 1049q-165 0 -297 -119.5
t-181 -343.5h779q10 59 9.5 114t-10 107.5t-33.5 96t-59 76.5t-88 51t-120 18zM385 37q170 0 302 117.5t165 304.5l10 59q-35 2 -106 2q-294 0 -457.5 -73t-163.5 -220q0 -88 66.5 -139t183.5 -51z" />
    <glyph glyph-name="ccedilla" unicode="&#xe7;" horiz-adv-x="1067" 
d="M641 1044q-149 0 -266 -87t-178.5 -227t-61.5 -304q0 -192 90 -290.5t232 -98.5q139 0 249 75.5t171 215.5h79q-68 -169 -195 -260t-294 -97l-49 -69q70 -8 109.5 -46t39.5 -102q0 -90 -69 -137t-179 -47q-61 0 -104 14l10 54q41 -15 105 -15q82 0 127 34.5t45 92.5
q0 117 -180 105l86 118q-162 11 -258.5 129t-96.5 320q0 130 40 251t114 219t191 157t259 59q177 0 273.5 -101t93.5 -270h-80q-2 145 -78.5 226t-224.5 81z" />
    <glyph glyph-name="egrave" unicode="&#xe8;" horiz-adv-x="1079" 
d="M633 1188l-111 225h80l86 -225h-55zM993 518h-852q-8 -49 -8 -102q0 -99 26 -174t71 -118.5t100.5 -65t120.5 -21.5q129 0 240.5 75.5t176.5 223.5h80q-79 -184 -214 -274.5t-300 -90.5q-172 0 -278.5 115t-106.5 328q0 91 23 186t71.5 186.5t117 163t167 115t213.5 43.5
q96 0 169.5 -31.5t118.5 -87.5t67 -129t22 -160q0 -102 -25 -182zM631 1042q-80 0 -150.5 -27t-122 -71t-93.5 -104t-68.5 -123t-42.5 -131h776q8 52 8 112q0 179 -84 261.5t-223 82.5z" />
    <glyph glyph-name="eacute" unicode="&#xe9;" horiz-adv-x="1079" 
d="M676 1188h-58l164 225h84zM993 518h-852q-8 -49 -8 -102q0 -99 26 -174t71 -118.5t100.5 -65t120.5 -21.5q129 0 240.5 75.5t176.5 223.5h80q-79 -184 -214 -274.5t-300 -90.5q-172 0 -278.5 115t-106.5 328q0 91 23 186t71.5 186.5t117 163t167 115t213.5 43.5
q96 0 169.5 -31.5t118.5 -87.5t67 -129t22 -160q0 -102 -25 -182zM631 1042q-80 0 -150.5 -27t-122 -71t-93.5 -104t-68.5 -123t-42.5 -131h776q8 52 8 112q0 179 -84 261.5t-223 82.5z" />
    <glyph glyph-name="ecircumflex" unicode="&#xea;" horiz-adv-x="1079" 
d="M557 1188h-70l177 225h65l94 -225h-67l-68 176zM993 518h-852q-8 -49 -8 -102q0 -99 26 -174t71 -118.5t100.5 -65t120.5 -21.5q129 0 240.5 75.5t176.5 223.5h80q-79 -184 -214 -274.5t-300 -90.5q-172 0 -278.5 115t-106.5 328q0 91 23 186t71.5 186.5t117 163t167 115
t213.5 43.5q96 0 169.5 -31.5t118.5 -87.5t67 -129t22 -160q0 -102 -25 -182zM631 1042q-80 0 -150.5 -27t-122 -71t-93.5 -104t-68.5 -123t-42.5 -131h776q8 52 8 112q0 179 -84 261.5t-223 82.5z" />
    <glyph glyph-name="edieresis" unicode="&#xeb;" horiz-adv-x="1079" 
d="M561 1241q-20 0 -32.5 12t-12.5 31q0 26 20.5 46t45.5 20q20 0 32.5 -13t12.5 -32q0 -26 -20.5 -45t-45.5 -19zM758 1241q-20 0 -31.5 12t-11.5 31q0 26 19.5 46t43.5 20q21 0 33 -13t12 -32q0 -26 -20 -45t-45 -19zM993 518h-852q-8 -49 -8 -102q0 -99 26 -174
t71 -118.5t100.5 -65t120.5 -21.5q129 0 240.5 75.5t176.5 223.5h80q-79 -184 -214 -274.5t-300 -90.5q-172 0 -278.5 115t-106.5 328q0 91 23 186t71.5 186.5t117 163t167 115t213.5 43.5q96 0 169.5 -31.5t118.5 -87.5t67 -129t22 -160q0 -102 -25 -182zM631 1042
q-80 0 -150.5 -27t-122 -71t-93.5 -104t-68.5 -123t-42.5 -131h776q8 52 8 112q0 179 -84 261.5t-223 82.5z" />
    <glyph glyph-name="igrave" unicode="&#xec;" horiz-adv-x="370" 
d="M336 1188h-55l-111 225h80zM129 0h-78l191 1079h77z" />
    <glyph glyph-name="iacute" unicode="&#xed;" horiz-adv-x="370" 
d="M324 1188h-58l164 225h84zM129 0h-78l191 1079h77z" />
    <glyph glyph-name="icircumflex" unicode="&#xee;" horiz-adv-x="370" 
d="M403 1188l-67 176l-131 -176h-70l176 225h66l94 -225h-68zM242 1079h77l-190 -1079h-78z" />
    <glyph glyph-name="idieresis" unicode="&#xef;" horiz-adv-x="370" 
d="M231 1350q20 0 32.5 -13t12.5 -32q0 -26 -20 -45t-45 -19q-20 0 -32.5 12t-12.5 31q0 26 20 46t45 20zM428 1350q21 0 33 -13t12 -32q0 -26 -20 -45t-45 -19q-20 0 -31.5 12t-11.5 31q0 26 19.5 46t43.5 20zM129 0h-78l191 1079h77z" />
    <glyph glyph-name="eth" unicode="&#xf0;" horiz-adv-x="1136" 
d="M1094 1409l-158 -59q98 -165 98 -545q0 -135 -23 -257t-71.5 -228t-118.5 -183.5t-170.5 -121.5t-220.5 -44q-116 0 -204 60.5t-132.5 160.5t-44.5 222q0 71 15 147.5t45 155.5t79.5 150t113 126.5t151 88t188.5 32.5q152 0 252 -84l63 -115q-13 283 -90 406l-334 -127
l-18 53l317 121q-68 77 -186 111l60 47q128 -45 198 -129l170 65zM442 37q89 0 165 31.5t130 85.5t95 122.5t65.5 146.5t36.5 154t12 148q0 150 -85 237t-224 87q-100 0 -185.5 -40.5t-143 -106t-98 -149.5t-59 -169.5t-18.5 -167.5q0 -177 86 -278t223 -101z" />
    <glyph glyph-name="ntilde" unicode="&#xf1;" horiz-adv-x="1120" 
d="M590 1317q-33 0 -41 -41h-49q9 98 92 98q47 0 121 -26q68 -23 92 -23q34 0 39 41h49q-9 -98 -92 -98q-44 0 -121 26q-65 23 -90 23zM698 1108q155 0 237.5 -77t82.5 -214q0 -71 -25 -215l-106 -602h-78l102 584q25 144 25 217q0 110 -63.5 175t-194.5 64
q-159 0 -281.5 -112t-160.5 -330l-105 -598h-78l189 1079h77l-40 -231l71 119q141 141 348 141z" />
    <glyph glyph-name="ograve" unicode="&#xf2;" horiz-adv-x="1146" 
d="M668 1188l-111 225h80l86 -225h-55zM653 1108q212 0 325.5 -132t113.5 -337q0 -87 -21.5 -177.5t-69 -179t-115 -157.5t-169.5 -111.5t-223 -42.5q-108 0 -193 36.5t-138 101t-80.5 149t-27.5 184.5q0 87 21.5 176.5t69 178t115 157.5t169.5 111.5t223 42.5zM506 37
q97 0 180.5 37.5t141.5 98.5t99.5 139.5t61 161.5t19.5 163q0 187 -100.5 296t-266.5 109q-97 0 -181 -37t-142 -98.5t-100 -140t-61.5 -161.5t-19.5 -163q0 -187 101.5 -296t267.5 -109z" />
    <glyph glyph-name="oacute" unicode="&#xf3;" horiz-adv-x="1146" 
d="M711 1188h-58l164 225h84zM653 1108q212 0 325.5 -132t113.5 -337q0 -87 -21.5 -177.5t-69 -179t-115 -157.5t-169.5 -111.5t-223 -42.5q-108 0 -193 36.5t-138 101t-80.5 149t-27.5 184.5q0 87 21.5 176.5t69 178t115 157.5t169.5 111.5t223 42.5zM506 37
q97 0 180.5 37.5t141.5 98.5t99.5 139.5t61 161.5t19.5 163q0 187 -100.5 296t-266.5 109q-97 0 -181 -37t-142 -98.5t-100 -140t-61.5 -161.5t-19.5 -163q0 -187 101.5 -296t267.5 -109z" />
    <glyph glyph-name="ocircumflex" unicode="&#xf4;" horiz-adv-x="1146" 
d="M592 1188h-70l176 225h66l94 -225h-67l-68 176zM653 1108q212 0 325.5 -132t113.5 -337q0 -87 -21.5 -177.5t-69 -179t-115 -157.5t-169.5 -111.5t-223 -42.5q-108 0 -193 36.5t-138 101t-80.5 149t-27.5 184.5q0 87 21.5 176.5t69 178t115 157.5t169.5 111.5t223 42.5z
M506 37q97 0 180.5 37.5t141.5 98.5t99.5 139.5t61 161.5t19.5 163q0 187 -100.5 296t-266.5 109q-97 0 -181 -37t-142 -98.5t-100 -140t-61.5 -161.5t-19.5 -163q0 -187 101.5 -296t267.5 -109z" />
    <glyph glyph-name="otilde" unicode="&#xf5;" horiz-adv-x="1146" 
d="M604 1317q-33 0 -41 -41h-49q9 98 92 98q47 0 121 -26q68 -23 92 -23q34 0 39 41h49q-9 -98 -92 -98q-44 0 -121 26q-65 23 -90 23zM653 1108q212 0 325.5 -132t113.5 -337q0 -87 -21.5 -177.5t-69 -179t-115 -157.5t-169.5 -111.5t-223 -42.5q-108 0 -193 36.5t-138 101
t-80.5 149t-27.5 184.5q0 87 21.5 176.5t69 178t115 157.5t169.5 111.5t223 42.5zM506 37q97 0 180.5 37.5t141.5 98.5t99.5 139.5t61 161.5t19.5 163q0 187 -100.5 296t-266.5 109q-97 0 -181 -37t-142 -98.5t-100 -140t-61.5 -161.5t-19.5 -163q0 -187 101.5 -296
t267.5 -109z" />
    <glyph glyph-name="odieresis" unicode="&#xf6;" horiz-adv-x="1146" 
d="M598 1241q-20 0 -32.5 12t-12.5 31q0 26 20 46t45 20q20 0 33 -13t13 -32q0 -26 -20.5 -45t-45.5 -19zM795 1241q-20 0 -31.5 12t-11.5 31q0 26 19.5 46t43.5 20q21 0 33 -13t12 -32q0 -26 -20 -45t-45 -19zM653 1108q212 0 325.5 -132t113.5 -337q0 -87 -21.5 -177.5
t-69 -179t-115 -157.5t-169.5 -111.5t-223 -42.5q-108 0 -193 36.5t-138 101t-80.5 149t-27.5 184.5q0 87 21.5 176.5t69 178t115 157.5t169.5 111.5t223 42.5zM506 37q97 0 180.5 37.5t141.5 98.5t99.5 139.5t61 161.5t19.5 163q0 187 -100.5 296t-266.5 109
q-97 0 -181 -37t-142 -98.5t-100 -140t-61.5 -161.5t-19.5 -163q0 -187 101.5 -296t267.5 -109z" />
    <glyph glyph-name="divide" unicode="&#xf7;" 
d="M635 1038q26 0 42.5 -15t16.5 -38q0 -35 -24.5 -59.5t-57.5 -24.5q-28 0 -43.5 15.5t-15.5 41.5q0 33 25 56.5t57 23.5zM975 621h-830l13 61h829zM522 397q28 0 43 -15.5t15 -41.5q0 -33 -24.5 -56.5t-57.5 -23.5q-25 0 -41.5 15.5t-16.5 39.5q0 34 24 58t58 24z" />
    <glyph glyph-name="oslash" unicode="&#xf8;" horiz-adv-x="1259" 
d="M1268 1061l-201 -170q55 -110 55 -252q0 -87 -21.5 -177.5t-69.5 -179t-116 -157.5t-170 -111.5t-223 -42.5q-230 0 -348 160l-176 -149l-35 43l182 153q-61 113 -61 264q0 87 21.5 176.5t69 178t115.5 157.5t170 111.5t222 42.5q238 0 356 -170l195 166zM168 442
q0 -119 41 -209l766 652q-48 75 -126 116t-177 41q-98 0 -182 -37.5t-142 -98.5t-99.5 -139.5t-61 -161.5t-19.5 -163zM1038 637q0 116 -37 197l-763 -650q47 -71 124 -109t173 -38q120 0 219 56.5t159 146t92.5 192.5t32.5 205z" />
    <glyph glyph-name="ugrave" unicode="&#xf9;" horiz-adv-x="1110" 
d="M627 1188l-111 225h80l86 -225h-55zM1059 1079l-189 -1079h-77l41 231l-72 -116q-144 -144 -348 -144q-154 0 -236 77.5t-82 213.5q0 82 23 217l108 600h78l-104 -583q-25 -141 -25 -217q0 -110 64 -175.5t194 -64.5q103 0 191.5 45.5t158 147.5t95.5 249l102 598h78z
" />
    <glyph glyph-name="uacute" unicode="&#xfa;" horiz-adv-x="1110" 
d="M670 1188h-58l164 225h84zM1059 1079l-189 -1079h-77l41 231l-72 -116q-144 -144 -348 -144q-154 0 -236 77.5t-82 213.5q0 82 23 217l108 600h78l-104 -583q-25 -141 -25 -217q0 -110 64 -175.5t194 -64.5q103 0 191.5 45.5t158 147.5t95.5 249l102 598h78z" />
    <glyph glyph-name="ucircumflex" unicode="&#xfb;" horiz-adv-x="1110" 
d="M551 1188h-70l176 225h66l94 -225h-67l-68 176zM1059 1079l-189 -1079h-77l41 231l-72 -116q-144 -144 -348 -144q-154 0 -236 77.5t-82 213.5q0 82 23 217l108 600h78l-104 -583q-25 -141 -25 -217q0 -110 64 -175.5t194 -64.5q103 0 191.5 45.5t158 147.5t95.5 249
l102 598h78z" />
    <glyph glyph-name="udieresis" unicode="&#xfc;" horiz-adv-x="1110" 
d="M557 1241q-20 0 -32.5 12t-12.5 31q0 26 20.5 46t45.5 20q20 0 32.5 -13t12.5 -32q0 -26 -20.5 -45t-45.5 -19zM754 1241q-20 0 -31.5 12t-11.5 31q0 26 19.5 46t43.5 20q21 0 33 -13t12 -32q0 -26 -20 -45t-45 -19zM1059 1079l-189 -1079h-77l41 231l-72 -116
q-144 -144 -348 -144q-154 0 -236 77.5t-82 213.5q0 82 23 217l108 600h78l-104 -583q-25 -141 -25 -217q0 -110 64 -175.5t194 -64.5q103 0 191.5 45.5t158 147.5t95.5 249l102 598h78z" />
    <glyph glyph-name="yacute" unicode="&#xfd;" horiz-adv-x="978" 
d="M608 1188h-57l164 225h84zM1051 1079l-615 -1079q-77 -137 -136.5 -222t-113 -130.5t-98 -61.5t-102.5 -16q-39 0 -70 8l12 66q25 -6 62 -6q81 0 152.5 63t168.5 229l27 47l-234 1102h86l205 -1016l566 1016h90z" />
    <glyph glyph-name="thorn" unicode="&#xfe;" horiz-adv-x="1155" 
d="M717 1108q181 0 284 -121.5t103 -316.5q0 -102 -22.5 -200.5t-72 -189t-119.5 -159t-173 -109.5t-225 -41q-188 0 -281 127l-39 131l-113 -630h-77l340 1906h77l-116 -649l84 117q77 72 160.5 103.5t189.5 31.5zM502 37q126 0 227.5 55.5t163.5 147t94.5 201.5t32.5 227
q0 167 -85 270.5t-239 103.5q-80 0 -151 -24.5t-134 -76.5t-109.5 -143.5t-68.5 -215.5l-18 -107q-21 -124 0.5 -221t94.5 -157t192 -60z" />
    <glyph glyph-name="ydieresis" unicode="&#xff;" horiz-adv-x="978" 
d="M496 1241q-20 0 -32.5 12t-12.5 31q0 26 20 46t45 20q20 0 32.5 -13t12.5 -32q0 -26 -20 -45t-45 -19zM692 1241q-20 0 -31.5 12t-11.5 31q0 26 20 46t44 20q21 0 33 -13t12 -32q0 -26 -20.5 -45t-45.5 -19zM1051 1079l-615 -1079q-77 -137 -136.5 -222t-113 -130.5
t-98 -61.5t-102.5 -16q-39 0 -70 8l12 66q25 -6 62 -6q81 0 152.5 63t168.5 229l27 47l-234 1102h86l205 -1016l566 1016h90z" />
    <glyph glyph-name="Amacron" unicode="&#x100;" horiz-adv-x="1284" 
d="M1020 1573h-338l10 59h338zM969 539h-607l-296 -539h-93l789 1413h112l283 -1413h-84zM954 606l-145 744l-410 -744h555z" />
    <glyph glyph-name="amacron" unicode="&#x101;" horiz-adv-x="1019" 
d="M848 1262h-338l10 59h338zM635 1108q151 0 228 -71t77 -191q0 -65 -18 -158l-64 -358q-28 -173 -39 -330h-80l27 238l-68 -105q-137 -162 -358 -162q-123 0 -205 67.5t-82 194.5q0 117 64 202t174.5 129.5t247 60.5t292.5 4l11 55q18 90 18 147q0 211 -231 211
q-130 0 -228 -66.5t-137 -201.5h-80q34 147 157 240.5t294 93.5zM797 424l24 141q-311 28 -498.5 -60t-187.5 -265q0 -97 64 -150t172 -53q153 0 276 115.5t150 271.5z" />
    <glyph glyph-name="Abreve" unicode="&#x102;" horiz-adv-x="1284" 
d="M831 1479q-84 0 -123 57.5t-24 163.5h55q-10 -90 18 -125t87 -35q130 0 168 160h55q-47 -221 -236 -221zM969 539h-607l-296 -539h-93l789 1413h112l283 -1413h-84zM954 606l-145 744l-410 -744h555z" />
    <glyph glyph-name="abreve" unicode="&#x103;" horiz-adv-x="1019" 
d="M662 1165q-96 0 -131 66t-17 182h55q-12 -98 13.5 -142t91.5 -44q126 0 168 186h55q-24 -119 -83 -183.5t-152 -64.5zM635 1108q151 0 228 -71t77 -191q0 -65 -18 -158l-64 -358q-28 -173 -39 -330h-80l27 238l-68 -105q-137 -162 -358 -162q-123 0 -205 67.5t-82 194.5
q0 117 64 202t174.5 129.5t247 60.5t292.5 4l11 55q18 90 18 147q0 211 -231 211q-130 0 -228 -66.5t-137 -201.5h-80q34 147 157 240.5t294 93.5zM797 424l24 141q-311 28 -498.5 -60t-187.5 -265q0 -97 64 -150t172 -53q153 0 276 115.5t150 271.5z" />
    <glyph glyph-name="Aogonek" unicode="&#x104;" horiz-adv-x="1284" 
d="M1157 0h-22q-138 -62 -213.5 -143t-75.5 -170q0 -86 80 -86q64 0 137 59l-10 -59q-70 -58 -162 -58q-55 0 -90 30.5t-35 96.5q0 98 77 189.5t226 158.5l-100 521h-607l-296 -539h-93l789 1413h112zM954 606l-145 744l-410 -744h555z" />
    <glyph glyph-name="aogonek" unicode="&#x105;" horiz-adv-x="1019" 
d="M635 1108q151 0 228 -71t77 -191q0 -65 -18 -158l-64 -358q-28 -173 -39 -330h-14q-138 -62 -213.5 -143t-75.5 -170q0 -86 80 -86q64 0 137 59l-10 -59q-70 -58 -162 -58q-55 0 -90 30.5t-35 96.5q0 98 77.5 189.5t227.5 158.5l25 220l-68 -105q-137 -162 -358 -162
q-123 0 -205 67.5t-82 194.5q0 117 64 202t174.5 129.5t247 60.5t292.5 4l11 55q18 90 18 147q0 211 -231 211q-130 0 -228 -66.5t-137 -201.5h-80q34 147 157 240.5t294 93.5zM797 424l24 141q-311 28 -498.5 -60t-187.5 -265q0 -97 64 -150t172 -53q153 0 276 115.5
t150 271.5z" />
    <glyph glyph-name="Cacute" unicode="&#x106;" horiz-adv-x="1433" 
d="M940 1507h-57l141 193h84zM913 1442q157 0 268.5 -61t164 -163t49.5 -233v-20h-78v20q0 188 -110 288.5t-312 100.5q-128 0 -248.5 -56.5t-216 -158t-153.5 -258t-58 -342.5q0 -253 121.5 -386.5t318.5 -133.5q204 0 344 111t214 296l8 21h78l-9 -21q-38 -103 -95 -186.5
t-136 -149.5t-186 -102.5t-234 -36.5q-236 0 -373.5 156t-136.5 426q-1 196 61.5 364.5t169 282.5t249 178t300.5 64z" />
    <glyph glyph-name="cacute" unicode="&#x107;" horiz-adv-x="1067" 
d="M684 1188h-57l164 225h83zM657 1108q177 0 273.5 -101t93.5 -270h-80q-2 145 -78.5 226t-224.5 81q-149 0 -266 -87t-178.5 -227t-61.5 -304q0 -192 90 -290.5t232 -98.5q139 0 249 75.5t171 215.5h79q-71 -175 -204 -266t-310 -91q-175 0 -282 119t-107 332
q0 130 40 251t114 219t191 157t259 59z" />
    <glyph glyph-name="Cdotaccent" unicode="&#x10a;" horiz-adv-x="1433" 
d="M944 1659q20 0 32.5 -13t12.5 -32q0 -26 -20 -45t-45 -19q-20 0 -32.5 12t-12.5 31q0 26 20 46t45 20zM913 1442q157 0 268.5 -61t164 -163t49.5 -233v-20h-78v20q0 188 -110 288.5t-312 100.5q-128 0 -248.5 -56.5t-216 -158t-153.5 -258t-58 -342.5
q0 -253 121.5 -386.5t318.5 -133.5q204 0 344 111t214 296l8 21h78l-9 -21q-38 -103 -95 -186.5t-136 -149.5t-186 -102.5t-234 -36.5q-236 0 -373.5 156t-136.5 426q-1 196 61.5 364.5t169 282.5t249 178t300.5 64z" />
    <glyph glyph-name="cdotaccent" unicode="&#x10b;" horiz-adv-x="1067" 
d="M690 1364q23 0 37 -14t14 -35q0 -30 -20.5 -50t-48.5 -20q-22 0 -35.5 14.5t-13.5 36.5q0 29 19.5 48.5t47.5 19.5zM657 1108q177 0 273.5 -101t93.5 -270h-80q-2 145 -78.5 226t-224.5 81q-149 0 -266 -87t-178.5 -227t-61.5 -304q0 -192 90 -290.5t232 -98.5
q139 0 249 75.5t171 215.5h79q-71 -175 -204 -266t-310 -91q-175 0 -282 119t-107 332q0 130 40 251t114 219t191 157t259 59z" />
    <glyph glyph-name="Ccaron" unicode="&#x10c;" horiz-adv-x="1433" 
d="M887 1507l-103 193h72l70 -152l123 152h73l-166 -193h-69zM913 1442q157 0 268.5 -61t164 -163t49.5 -233v-20h-78v20q0 188 -110 288.5t-312 100.5q-128 0 -248.5 -56.5t-216 -158t-153.5 -258t-58 -342.5q0 -253 121.5 -386.5t318.5 -133.5q204 0 344 111t214 296l8 21
h78l-9 -21q-38 -103 -95 -186.5t-136 -149.5t-186 -102.5t-234 -36.5q-236 0 -373.5 156t-136.5 426q-1 196 61.5 364.5t169 282.5t249 178t300.5 64z" />
    <glyph glyph-name="ccaron" unicode="&#x10d;" horiz-adv-x="1067" 
d="M631 1188l-94 225h67l68 -174l131 174h69l-176 -225h-65zM641 1044q-149 0 -266 -87t-178.5 -227t-61.5 -304q0 -192 90 -290.5t232 -98.5q139 0 249 75.5t171 215.5h79q-71 -175 -204 -266t-310 -91q-175 0 -282 119t-107 332q0 130 40 251t114 219t191 157t259 59
q177 0 273.5 -101t93.5 -270h-80q-2 145 -78.5 226t-224.5 81z" />
    <glyph glyph-name="Dcaron" unicode="&#x10e;" horiz-adv-x="1394" 
d="M791 1507l-103 193h72l69 -152l123 152h74l-166 -193h-69zM856 1409q100 -9 185 -47t153 -107t106.5 -179t38.5 -251q0 -151 -51.5 -293t-143 -254t-229 -185t-299.5 -87q-74 -6 -182 -6h-364l249 1413h381q101 0 156 -4zM627 76q119 13 221 60t176 119t126.5 163
t78.5 193.5t26 209.5q0 240 -113 370t-300 148q-53 7 -150 7h-307l-225 -1278h295q88 0 172 8z" />
    <glyph glyph-name="dcaron" unicode="&#x10f;" horiz-adv-x="1153" 
d="M1100 1505h78l-267 -1505h-77l38 227l-84 -121q-78 -73 -158.5 -104t-191.5 -31q-180 0 -283.5 122.5t-103.5 316.5q0 104 24.5 204t75 189.5t120.5 157.5t167.5 107.5t210.5 39.5q106 0 177 -34t118 -107l39 -119zM1389 1503v-8l-129 -231h-54l107 239h76zM922 500
l18 104q18 91 7 170.5t-44.5 139t-101 94t-162.5 34.5q-115 0 -212 -54t-159.5 -143t-97.5 -201t-35 -230q0 -168 85 -272.5t239 -104.5q80 0 151 25t134 77.5t109.5 144.5t68.5 216z" />
    <glyph glyph-name="Dcroat" unicode="&#x110;" horiz-adv-x="1394" 
d="M856 1409q100 -9 185 -47t153 -107t106.5 -179t38.5 -251q0 -151 -51.5 -293t-143 -254t-229 -185t-299.5 -87q-74 -6 -182 -6h-364l114 653h-139l12 60h140l122 700h381q101 0 156 -4zM627 76q119 13 221 60t176 119t126.5 163t78.5 193.5t26 209.5q0 240 -113 370
t-300 148q-53 7 -150 7h-307l-111 -633h357l-13 -60h-354l-104 -585h295q88 0 172 8z" />
    <glyph glyph-name="dcroat" unicode="&#x111;" horiz-adv-x="1163" 
d="M1225 1247h-92l-222 -1247h-77l38 227l-84 -121q-78 -73 -158.5 -104t-191.5 -31q-180 0 -283.5 122.5t-103.5 316.5q0 104 24.5 204t75 189.5t120.5 157.5t167.5 107.5t210.5 39.5q106 0 177 -34t118 -107l39 -119l72 399h-234l8 60h236l35 198h78l-35 -198h92zM922 500
l18 104q18 91 7 170.5t-44.5 139t-101 94t-162.5 34.5q-115 0 -212 -54t-159.5 -143t-97.5 -201t-35 -230q0 -168 85 -272.5t239 -104.5q80 0 151 25t134 77.5t109.5 144.5t68.5 216z" />
    <glyph glyph-name="Emacron" unicode="&#x112;" horiz-adv-x="1128" 
d="M936 1573h-338l10 59h338zM385 1348l-106 -609h749l-12 -65h-750l-106 -606h817l-12 -68h-895l249 1413h875l-14 -65h-795z" />
    <glyph glyph-name="emacron" unicode="&#x113;" horiz-adv-x="1079" 
d="M836 1262h-338l10 59h338zM993 518h-852q-8 -49 -8 -102q0 -99 26 -174t71 -118.5t100.5 -65t120.5 -21.5q129 0 240.5 75.5t176.5 223.5h80q-79 -184 -214 -274.5t-300 -90.5q-172 0 -278.5 115t-106.5 328q0 91 23 186t71.5 186.5t117 163t167 115t213.5 43.5
q96 0 169.5 -31.5t118.5 -87.5t67 -129t22 -160q0 -102 -25 -182zM631 1042q-80 0 -150.5 -27t-122 -71t-93.5 -104t-68.5 -123t-42.5 -131h776q8 52 8 112q0 179 -84 261.5t-223 82.5z" />
    <glyph glyph-name="Edotaccent" unicode="&#x116;" horiz-adv-x="1128" 
d="M762 1550q-20 0 -32.5 12t-12.5 31q0 26 20 46t45 20q20 0 32.5 -13t12.5 -32q0 -26 -20 -45t-45 -19zM385 1348l-106 -609h749l-12 -65h-750l-106 -606h817l-12 -68h-895l249 1413h875l-14 -65h-795z" />
    <glyph glyph-name="edotaccent" unicode="&#x117;" horiz-adv-x="1079" 
d="M664 1245q-22 0 -36 14.5t-14 36.5q0 29 20 48.5t48 19.5q23 0 37 -14t14 -35q0 -30 -20.5 -50t-48.5 -20zM993 518h-852q-8 -49 -8 -102q0 -99 26 -174t71 -118.5t100.5 -65t120.5 -21.5q129 0 240.5 75.5t176.5 223.5h80q-79 -184 -214 -274.5t-300 -90.5
q-172 0 -278.5 115t-106.5 328q0 91 23 186t71.5 186.5t117 163t167 115t213.5 43.5q96 0 169.5 -31.5t118.5 -87.5t67 -129t22 -160q0 -102 -25 -182zM631 1042q-80 0 -150.5 -27t-122 -71t-93.5 -104t-68.5 -123t-42.5 -131h776q8 52 8 112q0 179 -84 261.5t-223 82.5z
" />
    <glyph glyph-name="Eogonek" unicode="&#x118;" horiz-adv-x="1128" 
d="M385 1348l-106 -609h749l-12 -65h-750l-106 -606h817l-12 -68q-138 -62 -213.5 -143t-75.5 -170q0 -86 80 -86q64 0 137 59l-10 -59q-70 -58 -162 -58q-55 0 -90 30.5t-35 96.5q0 91 67.5 177.5t198.5 152.5h-792l249 1413h875l-14 -65h-795z" />
    <glyph glyph-name="eogonek" unicode="&#x119;" horiz-adv-x="1079" 
d="M993 518h-852q-8 -49 -8 -102q0 -99 26 -174t71 -118.5t100.5 -65t120.5 -21.5q129 0 240.5 75.5t176.5 223.5h80q-116 -275 -366 -346q-129 -60 -199 -138.5t-70 -164.5t80 -86q64 0 137 59l-10 -59q-70 -58 -162 -58q-55 0 -90 30.5t-35 96.5q0 81 55 159.5t161 141.5
h-15q-172 0 -278.5 115t-106.5 328q0 91 23 186t71.5 186.5t117 163t167 115t213.5 43.5q96 0 169.5 -31.5t118.5 -87.5t67 -129t22 -160q0 -102 -25 -182zM631 1042q-80 0 -150.5 -27t-122 -71t-93.5 -104t-68.5 -123t-42.5 -131h776q8 52 8 112q0 179 -84 261.5t-223 82.5
z" />
    <glyph glyph-name="Ecaron" unicode="&#x11a;" horiz-adv-x="1128" 
d="M725 1507l-102 193h71l70 -152l123 152h74l-166 -193h-70zM385 1348l-106 -609h749l-12 -65h-750l-106 -606h817l-12 -68h-895l249 1413h875l-14 -65h-795z" />
    <glyph glyph-name="ecaron" unicode="&#x11b;" horiz-adv-x="1079" 
d="M623 1188l-95 225h68l68 -174l131 174h69l-176 -225h-65zM993 518h-852q-8 -49 -8 -102q0 -99 26 -174t71 -118.5t100.5 -65t120.5 -21.5q129 0 240.5 75.5t176.5 223.5h80q-79 -184 -214 -274.5t-300 -90.5q-172 0 -278.5 115t-106.5 328q0 91 23 186t71.5 186.5
t117 163t167 115t213.5 43.5q96 0 169.5 -31.5t118.5 -87.5t67 -129t22 -160q0 -102 -25 -182zM631 1042q-80 0 -150.5 -27t-122 -71t-93.5 -104t-68.5 -123t-42.5 -131h776q8 52 8 112q0 179 -84 261.5t-223 82.5z" />
    <glyph glyph-name="Gbreve" unicode="&#x11e;" horiz-adv-x="1503" 
d="M977 1479q-84 0 -123.5 57.5t-24.5 163.5h56q-10 -90 18 -125t86 -35q130 0 168 160h55q-47 -221 -235 -221zM940 1442q118 0 208.5 -35t146.5 -97t84 -144.5t26 -180.5v-20h-78v20q0 189 -102.5 289t-302.5 100q-132 0 -258 -56.5t-225.5 -158.5t-160.5 -258.5
t-61 -341.5q0 -248 122 -384t320 -136q68 0 139 18t144 59.5t133.5 101.5t107 152.5t66.5 204.5h-440l12 68h518l-112 -643h-74l59 338l-67 -127q-100 -122 -230.5 -181t-271.5 -59q-237 0 -374.5 156.5t-137.5 425.5q0 189 65.5 356t175.5 283t258 183t310 67z" />
    <glyph glyph-name="gbreve" unicode="&#x11f;" horiz-adv-x="1150" 
d="M692 1165q-96 0 -130.5 66t-16.5 182h55q-12 -98 13.5 -142t91.5 -44q125 0 167 186h56q-24 -118 -83.5 -183t-152.5 -65zM1102 1085l-141 -802q-37 -214 -54 -297q-43 -203 -179 -317.5t-359 -114.5q-170 0 -272 84t-99 249v27h80l-2 -27q-1 -138 82 -202t227 -64
q181 0 294.5 96t149.5 275q18 89 37 201l6 30l-84 -117q-78 -73 -158.5 -104t-191.5 -31q-180 0 -283.5 122.5t-103.5 316.5q0 104 24.5 204t75 189.5t120.5 157.5t167.5 107.5t210.5 39.5q106 0 177 -34t118 -107l39 -115l41 233h78zM459 37q77 0 145 23t129 71t108 131.5
t72 196.5l31 180q11 86 -1 158t-47.5 127.5t-101 86.5t-155.5 31q-115 0 -212 -54t-159.5 -143t-97.5 -201t-35 -230q0 -168 85 -272.5t239 -104.5z" />
    <glyph glyph-name="Gdotaccent" unicode="&#x120;" horiz-adv-x="1503" 
d="M991 1550q-20 0 -32.5 12t-12.5 31q0 26 20.5 46t45.5 20q20 0 32.5 -13t12.5 -32q0 -26 -20.5 -45t-45.5 -19zM940 1442q118 0 208.5 -35t146.5 -97t84 -144.5t26 -180.5v-20h-78v20q0 189 -102.5 289t-302.5 100q-132 0 -258 -56.5t-225.5 -158.5t-160.5 -258.5
t-61 -341.5q0 -248 122 -384t320 -136q68 0 139 18t144 59.5t133.5 101.5t107 152.5t66.5 204.5h-440l12 68h518l-112 -643h-74l59 338l-67 -127q-100 -122 -230.5 -181t-271.5 -59q-237 0 -374.5 156.5t-137.5 425.5q0 189 65.5 356t175.5 283t258 183t310 67z" />
    <glyph glyph-name="gdotaccent" unicode="&#x121;" horiz-adv-x="1150" 
d="M709 1245q-22 0 -36 14.5t-14 36.5q0 29 20 48.5t48 19.5q23 0 37 -14t14 -35q0 -30 -20.5 -50t-48.5 -20zM1102 1085l-141 -802q-37 -214 -54 -297q-43 -203 -179 -317.5t-359 -114.5q-170 0 -272 84t-99 249v27h80l-2 -27q-1 -138 82 -202t227 -64q181 0 294.5 96
t149.5 275q18 89 37 201l6 30l-84 -117q-78 -73 -158.5 -104t-191.5 -31q-180 0 -283.5 122.5t-103.5 316.5q0 104 24.5 204t75 189.5t120.5 157.5t167.5 107.5t210.5 39.5q106 0 177 -34t118 -107l39 -115l41 233h78zM459 37q77 0 145 23t129 71t108 131.5t72 196.5l31 180
q11 86 -1 158t-47.5 127.5t-101 86.5t-155.5 31q-115 0 -212 -54t-159.5 -143t-97.5 -201t-35 -230q0 -168 85 -272.5t239 -104.5z" />
    <glyph glyph-name="Gcommaaccent" unicode="&#x122;" horiz-adv-x="1503" 
d="M940 1442q118 0 208.5 -35t146.5 -97t84 -144.5t26 -180.5v-20h-78v20q0 189 -102.5 289t-302.5 100q-132 0 -258 -56.5t-225.5 -158.5t-160.5 -258.5t-61 -341.5q0 -248 122 -384t320 -136q68 0 139 18t144 59.5t133.5 101.5t107 152.5t66.5 204.5h-440l12 68h518
l-112 -643h-74l59 338l-67 -127q-100 -122 -230.5 -181t-271.5 -59q-237 0 -374.5 156.5t-137.5 425.5q0 189 65.5 356t175.5 283t258 183t310 67zM524 -104h76v-9l-129 -231h-53z" />
    <glyph glyph-name="gcommaaccent" unicode="&#x123;" horiz-adv-x="1150" 
d="M729 1190h-76v8l131 232h52zM1102 1085l-141 -802q-37 -214 -54 -297q-43 -203 -179 -317.5t-359 -114.5q-170 0 -272 84t-99 249v27h80l-2 -27q-1 -138 82 -202t227 -64q181 0 294.5 96t149.5 275q18 89 37 201l6 30l-84 -117q-78 -73 -158.5 -104t-191.5 -31
q-180 0 -283.5 122.5t-103.5 316.5q0 104 24.5 204t75 189.5t120.5 157.5t167.5 107.5t210.5 39.5q106 0 177 -34t118 -107l39 -115l41 233h78zM459 37q77 0 145 23t129 71t108 131.5t72 196.5l31 180q11 86 -1 158t-47.5 127.5t-101 86.5t-155.5 31q-115 0 -212 -54
t-159.5 -143t-97.5 -201t-35 -230q0 -168 85 -272.5t239 -104.5z" />
    <glyph glyph-name="Hbar" unicode="&#x126;" horiz-adv-x="1320" 
d="M1370 1057h-82l-186 -1057h-78l117 659h-877l-117 -659h-77l186 1057h-82l12 59h80l53 297h78l-53 -297h877l53 297h78l-54 -297h82zM1210 1057h-876l-58 -330h877z" />
    <glyph glyph-name="hbar" unicode="&#x127;" horiz-adv-x="1153" 
d="M731 1108q155 0 236.5 -77t81.5 -214q0 -82 -23 -215l-108 -602h-78l104 584q25 144 25 217q0 110 -63.5 175t-194.5 64q-103 0 -191.5 -45.5t-158 -147.5t-95.5 -249l-102 -598h-78l219 1247h-115l11 60h114l37 209h78l-37 -209h213l-12 -60h-211l-72 -397l72 117
q141 141 348 141z" />
    <glyph glyph-name="Imacron" unicode="&#x12a;" horiz-adv-x="368" 
d="M555 1573h-338l10 59h338zM147 0h-77l249 1413h78z" />
    <glyph glyph-name="imacron" unicode="&#x12b;" horiz-adv-x="370" 
d="M483 1262h-338l11 59h338zM129 0h-78l191 1079h77z" />
    <glyph glyph-name="Iogonek" unicode="&#x12e;" horiz-adv-x="368" 
d="M397 1413l-250 -1413h-12q-139 -61 -214 -142.5t-75 -170.5q0 -86 78 -86q66 0 139 59l-10 -59q-70 -58 -162 -58q-55 0 -89.5 30.5t-34.5 96.5q0 99 77.5 191t229.5 157l245 1395h78z" />
    <glyph glyph-name="iogonek" unicode="&#x12f;" horiz-adv-x="370" 
d="M330 1364q23 0 37 -14t14 -35q0 -30 -21 -50t-49 -20q-22 0 -35.5 14.5t-13.5 36.5q0 29 20 48.5t48 19.5zM242 1079h77l-190 -1079h-12q-139 -61 -214 -142.5t-75 -170.5q0 -86 78 -86q66 0 139 59l-10 -59q-70 -58 -162 -58q-55 0 -90 30.5t-35 96.5q0 99 77.5 191
t229.5 157z" />
    <glyph glyph-name="Idotaccent" unicode="&#x130;" horiz-adv-x="368" 
d="M401 1659q20 0 32.5 -13t12.5 -32q0 -26 -20 -45t-45 -19q-20 0 -32.5 12t-12.5 31q0 26 20 46t45 20zM147 0h-77l249 1413h78z" />
    <glyph glyph-name="dotlessi" unicode="&#x131;" horiz-adv-x="370" 
d="M129 0h-78l191 1079h77z" />
    <glyph glyph-name="IJ" unicode="&#x132;" horiz-adv-x="1345" 
d="M147 0h-77l249 1413h78zM1386 1413l-155 -878q-14 -85 -37 -183q-19 -79 -52.5 -145t-86.5 -120.5t-132.5 -85t-177.5 -30.5q-180 0 -277 110.5t-67 315.5l11 68h77l-10 -68q-26 -184 54 -271t229 -87q276 0 358 321q5 23 16 78.5t17 85.5l156 889h77z" />
    <glyph glyph-name="ij" unicode="&#x133;" horiz-adv-x="706" 
d="M330 1364q23 0 37 -14t14 -35q0 -30 -21 -50t-49 -20q-22 0 -35.5 14.5t-13.5 36.5q0 29 20 48.5t48 19.5zM700 1364q22 0 36 -14t14 -35q0 -30 -20 -50t-48 -20q-23 0 -37 14.5t-14 36.5q0 29 20.5 48.5t48.5 19.5zM129 0h-78l191 1079h77zM696 1079l-213 -1214
q-17 -87 -24 -113q-49 -182 -219 -182q-34 0 -74 6l12 66q84 -15 133.5 13t71.5 107q15 53 20 88l215 1229h78z" />
    <glyph glyph-name="Kcommaaccent" unicode="&#x136;" horiz-adv-x="1138" 
d="M416 707l592 -707h-103l-549 664l-106 -89l-103 -575h-77l249 1413h78l-131 -745l905 745h103zM449 -104h75v-9l-129 -231h-53z" />
    <glyph glyph-name="kcommaaccent" unicode="&#x137;" horiz-adv-x="991" 
d="M385 567l469 -567h-96l-434 522l-117 -94l-76 -428h-78l266 1505h78l-174 -985l684 559h111zM346 -104h76v-9l-129 -231h-53z" />
    <glyph glyph-name="Lacute" unicode="&#x139;" horiz-adv-x="1091" 
d="M401 1507h-57l141 193h84zM977 68l-12 -68h-895l249 1413h78l-237 -1345h817z" />
    <glyph glyph-name="lacute" unicode="&#x13a;" horiz-adv-x="395" 
d="M391 1608h-57l164 225h84zM389 1505l-219 -1243q-23 -122 -23 -149q0 -39 24 -51.5t85 -4.5l-12 -61q-25 -6 -76 -6q-49 0 -75.5 21t-26.5 73q0 37 26 176l219 1245h78z" />
    <glyph glyph-name="Lcommaaccent" unicode="&#x13b;" horiz-adv-x="1091" 
d="M977 68l-12 -68h-895l249 1413h78l-237 -1345h817zM434 -104h76v-9l-129 -231h-53z" />
    <glyph glyph-name="lcommaaccent" unicode="&#x13c;" horiz-adv-x="395" 
d="M389 1505l-219 -1243q-23 -122 -23 -149q0 -39 24 -51.5t85 -4.5l-12 -61q-25 -6 -76 -6q-49 0 -75.5 21t-26.5 73q0 37 26 176l219 1245h78zM166 -113l-129 -231h-53l106 240h76v-9z" />
    <glyph glyph-name="Lcaron" unicode="&#x13d;" horiz-adv-x="1091" 
d="M977 68l-12 -68h-895l249 1413h78l-237 -1345h817z" />
    <glyph glyph-name="lcaron" unicode="&#x13e;" horiz-adv-x="395" 
d="M389 1505l-219 -1243q-23 -122 -23 -149q0 -39 24 -51.5t85 -4.5l-12 -61q-25 -6 -76 -6q-49 0 -75.5 21t-26.5 73q0 37 26 176l219 1245h78z" />
    <glyph glyph-name="Ldot" unicode="&#x13f;" horiz-adv-x="1091" 
d="M977 68l-12 -68h-895l249 1413h78l-237 -1345h817zM664 760q-22 0 -36 14.5t-14 36.5q0 29 20 48.5t48 19.5q23 0 37 -14.5t14 -35.5q0 -30 -20.5 -49.5t-48.5 -19.5z" />
    <glyph glyph-name="ldot" unicode="&#x140;" horiz-adv-x="466" 
d="M389 1505l-219 -1243q-23 -122 -23 -149q0 -39 24 -51.5t85 -4.5l-12 -61q-25 -6 -76 -6q-49 0 -75.5 21t-26.5 73q0 37 26 176l219 1245h78zM436 879q23 0 37 -14.5t14 -35.5q0 -30 -20.5 -49.5t-48.5 -19.5q-22 0 -35.5 14.5t-13.5 36.5q0 29 19.5 48.5t47.5 19.5z" />
    <glyph glyph-name="Lslash" unicode="&#x141;" horiz-adv-x="1232" 
d="M1116 68l-12 -68h-893l117 657l-308 -165l13 71l307 166l121 684h78l-113 -639l330 178l-13 -71l-329 -179l-113 -634h815z" />
    <glyph glyph-name="lslash" unicode="&#x142;" horiz-adv-x="462" 
d="M299 727l129 78l-12 -74l-129 -78l-70 -391q-22 -117 -22 -149q0 -39 24 -51.5t84 -4.5l-12 -61q-25 -6 -76 -6q-49 0 -75.5 21t-26.5 73q0 37 26 176l60 340l-142 -86l15 76l141 84l145 831h78z" />
    <glyph glyph-name="Nacute" unicode="&#x143;" horiz-adv-x="1288" 
d="M858 1507h-57l141 193h84zM1319 1413l-250 -1413h-121l-565 1346l-236 -1346h-77l249 1413h119l566 -1341l237 1341h78z" />
    <glyph glyph-name="nacute" unicode="&#x144;" horiz-adv-x="1120" 
d="M696 1188h-57l164 225h84zM698 1108q155 0 237.5 -77t82.5 -214q0 -71 -25 -215l-106 -602h-78l102 584q25 144 25 217q0 110 -63.5 175t-194.5 64q-159 0 -281.5 -112t-160.5 -330l-105 -598h-78l189 1079h77l-40 -231l71 119q141 141 348 141z" />
    <glyph glyph-name="Ncommaaccent" unicode="&#x145;" horiz-adv-x="1288" 
d="M1319 1413l-250 -1413h-121l-565 1346l-236 -1346h-77l249 1413h119l566 -1341l237 1341h78zM518 -104h76v-9l-129 -231h-53z" />
    <glyph glyph-name="ncommaaccent" unicode="&#x146;" horiz-adv-x="1120" 
d="M698 1108q155 0 237.5 -77t82.5 -214q0 -71 -25 -215l-106 -602h-78l102 584q25 144 25 217q0 110 -63.5 175t-194.5 64q-159 0 -281.5 -112t-160.5 -330l-105 -598h-78l189 1079h77l-40 -231l71 119q141 141 348 141zM410 -104h75v-9l-129 -231h-53z" />
    <glyph glyph-name="Ncaron" unicode="&#x147;" horiz-adv-x="1288" 
d="M805 1507l-103 193h72l70 -152l123 152h73l-166 -193h-69zM1319 1413l-250 -1413h-121l-565 1346l-236 -1346h-77l249 1413h119l566 -1341l237 1341h78z" />
    <glyph glyph-name="ncaron" unicode="&#x148;" horiz-adv-x="1120" 
d="M643 1188l-94 225h67l68 -174l131 174h70l-176 -225h-66zM698 1108q155 0 237.5 -77t82.5 -214q0 -71 -25 -215l-106 -602h-78l102 584q25 144 25 217q0 110 -63.5 175t-194.5 64q-159 0 -281.5 -112t-160.5 -330l-105 -598h-78l189 1079h77l-40 -231l71 119
q141 141 348 141z" />
    <glyph glyph-name="Eng" unicode="&#x14a;" horiz-adv-x="1290" 
d="M1319 1413l-272 -1550q-16 -91 -37 -146t-60 -96t-99 -58.5t-153 -19.5l11 68q112 0 171.5 49.5t80.5 169.5l22 125l-598 1380l-235 -1335h-78l247 1413h119l572 -1319l231 1319h78z" />
    <glyph glyph-name="eng" unicode="&#x14b;" horiz-adv-x="1120" 
d="M698 1108q155 0 237.5 -77t82.5 -214q0 -71 -25 -215l-112 -639q-11 -54 -21 -90q-34 -125 -111.5 -175.5t-216.5 -53.5l11 67q112 0 171.5 49t82.5 170l114 654q25 144 25 217q0 110 -63.5 175t-194.5 64q-159 0 -281.5 -112t-160.5 -330l-105 -598h-78l189 1079h77
l-40 -231l71 119q141 141 348 141z" />
    <glyph glyph-name="Omacron" unicode="&#x14c;" horiz-adv-x="1523" 
d="M1112 1573h-338l10 59h338zM911 1442q251 0 404 -169t153 -446q0 -124 -31.5 -246t-96.5 -232.5t-155.5 -194.5t-218 -133.5t-274.5 -49.5q-251 0 -404 169.5t-153 447.5q0 124 31.5 245.5t96 231.5t155 194t218 133.5t275.5 49.5zM707 39q126 0 236.5 45.5t190 123
t137 179t85.5 214t28 226.5q0 250 -137.5 398.5t-349.5 148.5q-126 0 -236.5 -45.5t-190 -123t-137 -178.5t-86 -213.5t-28.5 -225.5q0 -252 137 -400.5t351 -148.5z" />
    <glyph glyph-name="omacron" unicode="&#x14d;" horiz-adv-x="1146" 
d="M870 1262h-338l11 59h338zM653 1108q212 0 325.5 -132t113.5 -337q0 -87 -21.5 -177.5t-69 -179t-115 -157.5t-169.5 -111.5t-223 -42.5q-108 0 -193 36.5t-138 101t-80.5 149t-27.5 184.5q0 87 21.5 176.5t69 178t115 157.5t169.5 111.5t223 42.5zM506 37
q97 0 180.5 37.5t141.5 98.5t99.5 139.5t61 161.5t19.5 163q0 187 -100.5 296t-266.5 109q-97 0 -181 -37t-142 -98.5t-100 -140t-61.5 -161.5t-19.5 -163q0 -187 101.5 -296t267.5 -109z" />
    <glyph glyph-name="Ohungarumlaut" unicode="&#x150;" horiz-adv-x="1523" 
d="M854 1507h-57l141 193h84zM985 1507l141 193h84l-168 -193h-57zM911 1442q251 0 404 -169t153 -446q0 -124 -31.5 -246t-96.5 -232.5t-155.5 -194.5t-218 -133.5t-274.5 -49.5q-251 0 -404 169.5t-153 447.5q0 124 31.5 245.5t96 231.5t155 194t218 133.5t275.5 49.5z
M707 39q126 0 236.5 45.5t190 123t137 179t85.5 214t28 226.5q0 250 -137.5 398.5t-349.5 148.5q-126 0 -236.5 -45.5t-190 -123t-137 -178.5t-86 -213.5t-28.5 -225.5q0 -252 137 -400.5t351 -148.5z" />
    <glyph glyph-name="ohungarumlaut" unicode="&#x151;" horiz-adv-x="1146" 
d="M602 1188h-57l164 225h84zM760 1188l164 225h84l-191 -225h-57zM653 1108q212 0 325.5 -132t113.5 -337q0 -87 -21.5 -177.5t-69 -179t-115 -157.5t-169.5 -111.5t-223 -42.5q-108 0 -193 36.5t-138 101t-80.5 149t-27.5 184.5q0 87 21.5 176.5t69 178t115 157.5
t169.5 111.5t223 42.5zM506 37q97 0 180.5 37.5t141.5 98.5t99.5 139.5t61 161.5t19.5 163q0 187 -100.5 296t-266.5 109q-97 0 -181 -37t-142 -98.5t-100 -140t-61.5 -161.5t-19.5 -163q0 -187 101.5 -296t267.5 -109z" />
    <glyph glyph-name="OE" unicode="&#x152;" horiz-adv-x="2287" 
d="M1544 1348l-106 -609h749l-12 -65h-750l-106 -606h817l-12 -68h-895l65 375l-86 -154q-111 -132 -245.5 -191t-303.5 -59q-249 0 -387.5 162.5t-138.5 441.5q0 117 28.5 235.5t91.5 232.5t152.5 202.5t222.5 142.5t290 54q173 0 280 -59t178 -197l33 -164l70 391h874
l-12 -65h-797zM676 39q123 0 232.5 42t198.5 124t153.5 210t93.5 292q14 83 15 160.5t-12 154t-46.5 139t-85 111t-131.5 75.5t-181 27q-115 0 -215.5 -34.5t-175.5 -94t-134 -138t-96 -168t-56 -181t-19 -180.5q0 -254 126.5 -396.5t332.5 -142.5z" />
    <glyph glyph-name="oe" unicode="&#x153;" horiz-adv-x="2031" 
d="M1948 518h-856q-11 -56 -11 -117q0 -183 90 -273.5t226 -90.5q129 0 245 76t179 223h80q-53 -124 -137 -207.5t-180 -120.5t-204 -37q-144 0 -247.5 89.5t-122.5 256.5q-82 -168 -217.5 -257t-313.5 -89q-201 0 -313.5 128.5t-112.5 340.5q0 85 22 174.5t71.5 180
t120.5 161t178 114.5t235 44q173 0 282.5 -92t129.5 -258q81 168 214.5 259t290.5 91q185 0 279 -116t94 -298q0 -89 -22 -182zM492 37q197 0 341 146.5t179 387.5q8 74 5 143t-28.5 130t-65 106.5t-105 72t-148.5 26.5q-106 0 -196 -38.5t-150.5 -100.5t-104 -142.5
t-63 -162.5t-19.5 -161q0 -188 100.5 -297.5t254.5 -109.5zM1583 1049q-76 0 -150 -29t-139 -85t-115.5 -146t-74.5 -203h776q10 51 10 110q0 93 -24 162.5t-67.5 110.5t-97 60.5t-118.5 19.5z" />
    <glyph glyph-name="Racute" unicode="&#x154;" horiz-adv-x="1161" 
d="M750 1507h-58l142 193h84zM1178 1114q0 -163 -101.5 -272.5t-261.5 -136.5q83 -21 118.5 -102.5t37.5 -244.5q5 -255 35 -358h-84q-23 125 -29 403q-7 257 -191 267q-41 2 -120 2h-316l-119 -672h-77l249 1413h373q116 0 199 -10q137 -17 212 -92t75 -197zM743 743
q155 12 252 110t97 247q0 103 -60 162t-172 73q-81 11 -180 11h-295l-106 -607h315q90 0 149 4z" />
    <glyph glyph-name="racute" unicode="&#x155;" horiz-adv-x="571" 
d="M420 1188h-58l164 225h84zM602 1108q29 0 53 -6l-12 -64q-48 3 -92.5 -4.5t-94 -35t-89.5 -73.5t-74.5 -126.5t-54.5 -188.5l-2 -12l-105 -598h-78l191 1085h78l-39 -221l77 127q108 117 242 117z" />
    <glyph glyph-name="Rcommaaccent" unicode="&#x156;" horiz-adv-x="1161" 
d="M1178 1114q0 -163 -101.5 -272.5t-261.5 -136.5q83 -21 118.5 -102.5t37.5 -244.5q5 -255 35 -358h-84q-23 125 -29 403q-7 257 -191 267q-41 2 -120 2h-316l-119 -672h-77l249 1413h373q116 0 199 -10q137 -17 212 -92t75 -197zM743 743q155 12 252 110t97 247
q0 103 -60 162t-172 73q-81 11 -180 11h-295l-106 -607h315q90 0 149 4zM391 -104h76v-9l-129 -231h-53z" />
    <glyph glyph-name="rcommaaccent" unicode="&#x157;" horiz-adv-x="571" 
d="M602 1108q29 0 53 -6l-12 -64q-48 3 -92.5 -4.5t-94 -35t-89.5 -73.5t-74.5 -126.5t-54.5 -188.5l-2 -12l-105 -598h-78l191 1085h78l-39 -221l77 127q108 117 242 117zM41 -104h76v-9l-131 -231h-52z" />
    <glyph glyph-name="Rcaron" unicode="&#x158;" horiz-adv-x="1161" 
d="M696 1507l-102 193h72l69 -152l123 152h74l-166 -193h-70zM1178 1114q0 -163 -101.5 -272.5t-261.5 -136.5q83 -21 118.5 -102.5t37.5 -244.5q5 -255 35 -358h-84q-23 125 -29 403q-7 257 -191 267q-41 2 -120 2h-316l-119 -672h-77l249 1413h373q116 0 199 -10
q137 -17 212 -92t75 -197zM743 743q155 12 252 110t97 247q0 103 -60 162t-172 73q-81 11 -180 11h-295l-106 -607h315q90 0 149 4z" />
    <glyph glyph-name="rcaron" unicode="&#x159;" horiz-adv-x="571" 
d="M367 1188l-95 225h68l68 -174l131 174h69l-176 -225h-65zM602 1108q29 0 53 -6l-12 -64q-48 3 -92.5 -4.5t-94 -35t-89.5 -73.5t-74.5 -126.5t-54.5 -188.5l-2 -12l-105 -598h-78l191 1085h78l-39 -221l77 127q108 117 242 117z" />
    <glyph glyph-name="Sacute" unicode="&#x15a;" horiz-adv-x="1124" 
d="M745 1507h-57l141 193h84zM717 1442q195 0 297 -113t94 -285h-82q3 154 -88 242t-240 88q-76 0 -145 -21t-125 -61.5t-89.5 -106t-33.5 -147.5q0 -108 76 -166.5t254 -111.5q194 -54 286.5 -142t92.5 -235q0 -182 -148 -297t-381 -115q-98 0 -181.5 25.5t-146.5 75
t-95 128t-25 177.5h80q-6 -161 99.5 -249.5t287.5 -88.5t302 91t120 241q0 123 -78.5 193.5t-257.5 123.5q-193 56 -283 129t-90 199q0 191 140.5 308.5t359.5 117.5z" />
    <glyph glyph-name="sacute" unicode="&#x15b;" horiz-adv-x="931" 
d="M592 1188h-57l163 225h84zM528 1108q160 0 248 -85t96 -241h-79q-20 260 -273 260q-131 0 -207.5 -71t-76.5 -168q0 -88 60.5 -139.5t176.5 -83.5q167 -47 245.5 -114.5t78.5 -186.5q0 -146 -110 -229t-279 -83q-181 0 -284 87t-104 253h80q6 -144 88 -208t232 -64
q132 0 213.5 65.5t81.5 169.5q0 95 -64.5 148.5t-220.5 95.5q-58 16 -103.5 37t-86.5 54t-63.5 81.5t-22.5 110.5q0 132 102 221.5t272 89.5z" />
    <glyph glyph-name="Scedilla" unicode="&#x15e;" horiz-adv-x="1124" 
d="M717 1442q195 0 297 -113t94 -285h-82q3 154 -88 242t-240 88q-76 0 -145 -21t-125 -61.5t-89.5 -106t-33.5 -147.5q0 -108 76 -166.5t254 -111.5q194 -54 286.5 -142t92.5 -235q0 -174 -137.5 -288.5t-356.5 -123.5l-51 -69q70 -8 111 -46.5t41 -101.5q0 -90 -69 -137
t-179 -47q-62 0 -105 14l11 54q41 -15 104 -15q82 0 127 34.5t45 92.5q0 117 -180 105l84 116q-195 6 -315.5 112t-106.5 294h80q-6 -161 99.5 -249.5t287.5 -88.5t302 91t120 241q0 123 -78.5 193.5t-257.5 123.5q-193 56 -283 129t-90 199q0 191 140.5 308.5t359.5 117.5z
" />
    <glyph glyph-name="scedilla" unicode="&#x15f;" horiz-adv-x="931" 
d="M473 580q167 -47 245.5 -114.5t78.5 -186.5q0 -146 -110 -229t-279 -83h-19l-45 -65q70 -8 110 -46t40 -102q0 -90 -69 -137t-179 -47q-62 0 -105 14l11 54q41 -15 104 -15q82 0 127 34.5t45 92.5q0 117 -180 105l84 116q-146 18 -228.5 103t-83.5 233h80q6 -144 88 -208
t232 -64q132 0 213.5 65.5t81.5 169.5q0 95 -64.5 148.5t-220.5 95.5q-58 16 -103.5 37t-86.5 54t-63.5 81.5t-22.5 110.5q0 132 102 221.5t272 89.5q160 0 248 -85t96 -241h-79q-20 260 -273 260q-131 0 -207.5 -71t-76.5 -168q0 -88 60.5 -139.5t176.5 -83.5z" />
    <glyph glyph-name="Scaron" unicode="&#x160;" horiz-adv-x="1124" 
d="M692 1507l-102 193h72l69 -152l123 152h74l-166 -193h-70zM717 1442q195 0 297 -113t94 -285h-82q3 154 -88 242t-240 88q-76 0 -145 -21t-125 -61.5t-89.5 -106t-33.5 -147.5q0 -108 76 -166.5t254 -111.5q194 -54 286.5 -142t92.5 -235q0 -182 -148 -297t-381 -115
q-98 0 -181.5 25.5t-146.5 75t-95 128t-25 177.5h80q-6 -161 99.5 -249.5t287.5 -88.5t302 91t120 241q0 123 -78.5 193.5t-257.5 123.5q-193 56 -283 129t-90 199q0 191 140.5 308.5t359.5 117.5z" />
    <glyph glyph-name="scaron" unicode="&#x161;" horiz-adv-x="931" 
d="M539 1188l-95 225h68l68 -174l131 174h69l-176 -225h-65zM473 580q167 -47 245.5 -114.5t78.5 -186.5q0 -146 -110 -229t-279 -83q-181 0 -284 87t-104 253h80q6 -144 88 -208t232 -64q132 0 213.5 65.5t81.5 169.5q0 95 -64.5 148.5t-220.5 95.5q-58 16 -103.5 37
t-86.5 54t-63.5 81.5t-22.5 110.5q0 132 102 221.5t272 89.5q160 0 248 -85t96 -241h-79q-20 260 -273 260q-131 0 -207.5 -71t-76.5 -168q0 -88 60.5 -139.5t176.5 -83.5z" />
    <glyph glyph-name="Tcedilla" unicode="&#x162;" horiz-adv-x="1204" 
d="M569 0l-69 -98q70 -8 109.5 -46t39.5 -102q0 -90 -69 -137t-179 -47q-61 0 -104 14l10 54q41 -15 105 -15q82 0 127 34.5t45 92.5q0 117 -181 105l105 145h-6l237 1348h-530l12 65h1141l-12 -65h-533l-237 -1348h-11z" />
    <glyph glyph-name="tcedilla" unicode="&#x163;" horiz-adv-x="528" 
d="M328 1010l-129 -734q-19 -100 -19 -137q0 -62 45 -81t144 -5l-11 -59q-41 -8 -102 -8h-12l-60 -84q70 -8 110 -46t40 -102q0 -90 -69 -137t-179 -47q-60 0 -106 14l10 54q44 -15 106 -15q82 0 127 34.5t45 92.5q0 117 -180 105l100 139q-88 22 -88 123q0 59 21 164
l129 729h-135l12 61h133l41 229h78l-41 -229h205l-11 -61h-204z" />
    <glyph glyph-name="Tcaron" unicode="&#x164;" horiz-adv-x="1204" 
d="M776 1507l-102 193h71l70 -152l123 152h74l-166 -193h-70zM1350 1348h-533l-237 -1348h-78l237 1348h-530l12 65h1141z" />
    <glyph glyph-name="tcaron" unicode="&#x165;" horiz-adv-x="495" 
d="M625 1436v-9l-131 -231h-54l107 240h78zM338 1071h205l-11 -61h-204l-129 -734q-19 -100 -19 -137q0 -62 45 -81t144 -5l-11 -59q-41 -8 -102 -8q-78 0 -117 31t-39 100q0 59 21 164l129 729h-135l12 61h133l41 229h78z" />
    <glyph glyph-name="Tbar" unicode="&#x166;" horiz-adv-x="1216" 
d="M817 1348l-110 -635h299l-13 -60h-299l-114 -653h-78l114 653h-258l13 60h258l110 635h-530l12 65h1141l-12 -65h-533z" />
    <glyph glyph-name="tbar" unicode="&#x167;" horiz-adv-x="528" 
d="M328 1010l-52 -293h140l-10 -60h-140l-67 -381q-19 -100 -19 -137q0 -62 45 -81t144 -5l-11 -59q-41 -8 -102 -8q-78 0 -117 31t-39 100q0 59 21 164l67 376h-120l10 60h121l51 293h-135l12 61h133l41 229h78l-41 -229h205l-11 -61h-204z" />
    <glyph glyph-name="Umacron" unicode="&#x16a;" horiz-adv-x="1271" 
d="M1012 1573h-338l10 59h338zM1288 1413l-162 -915q-12 -66 -28 -136q-45 -182 -176.5 -286.5t-354.5 -104.5q-195 0 -300 93.5t-105 252.5q0 76 16 185l162 911h78l-160 -913q-18 -102 -18 -178q0 -127 84.5 -205t255.5 -78q186 0 295 89.5t149 248.5q13 55 27 127
l159 909h78z" />
    <glyph glyph-name="umacron" unicode="&#x16b;" horiz-adv-x="1110" 
d="M829 1262h-337l10 59h338zM1059 1079l-189 -1079h-77l41 231l-72 -116q-144 -144 -348 -144q-154 0 -236 77.5t-82 213.5q0 82 23 217l108 600h78l-104 -583q-25 -141 -25 -217q0 -110 64 -175.5t194 -64.5q103 0 191.5 45.5t158 147.5t95.5 249l102 598h78z" />
    <glyph glyph-name="Uring" unicode="&#x16e;" horiz-adv-x="1271" 
d="M870 1745q55 0 89 -30.5t34 -80.5q0 -71 -50 -114t-118 -43q-55 0 -89 29t-34 79q0 71 51 115.5t117 44.5zM862 1694q-41 0 -68.5 -30t-27.5 -73q0 -28 18 -46.5t50 -18.5q42 0 70 29.5t28 72.5q0 29 -18.5 47.5t-51.5 18.5zM1288 1413l-162 -915q-12 -66 -28 -136
q-45 -182 -176.5 -286.5t-354.5 -104.5q-195 0 -300 93.5t-105 252.5q0 76 16 185l162 911h78l-160 -913q-18 -102 -18 -178q0 -127 84.5 -205t255.5 -78q186 0 295 89.5t149 248.5q13 55 27 127l159 909h78z" />
    <glyph glyph-name="uring" unicode="&#x16f;" horiz-adv-x="1110" 
d="M643 1167q-53 0 -86 31t-33 80q0 73 50 119.5t118 46.5q53 0 87 -30t34 -79q0 -73 -51 -120.5t-119 -47.5zM682 1395q-41 0 -68.5 -32t-27.5 -77q0 -30 17 -48.5t50 -18.5q42 0 70.5 31.5t28.5 76.5q0 30 -18.5 49t-51.5 19zM1059 1079l-189 -1079h-77l41 231l-72 -116
q-144 -144 -348 -144q-154 0 -236 77.5t-82 213.5q0 82 23 217l108 600h78l-104 -583q-25 -141 -25 -217q0 -110 64 -175.5t194 -64.5q103 0 191.5 45.5t158 147.5t95.5 249l102 598h78z" />
    <glyph glyph-name="Uhungarumlaut" unicode="&#x170;" horiz-adv-x="1271" 
d="M754 1507h-58l142 193h84zM942 1507h-57l141 193h84zM1288 1413l-162 -915q-12 -66 -28 -136q-45 -182 -176.5 -286.5t-354.5 -104.5q-195 0 -300 93.5t-105 252.5q0 76 16 185l162 911h78l-160 -913q-18 -102 -18 -178q0 -127 84.5 -205t255.5 -78q186 0 295 89.5
t149 248.5q13 55 27 127l159 909h78z" />
    <glyph glyph-name="uhungarumlaut" unicode="&#x171;" horiz-adv-x="1110" 
d="M561 1188h-57l164 225h84zM719 1188l164 225h84l-191 -225h-57zM1059 1079l-189 -1079h-77l41 231l-72 -116q-144 -144 -348 -144q-154 0 -236 77.5t-82 213.5q0 82 23 217l108 600h78l-104 -583q-25 -141 -25 -217q0 -110 64 -175.5t194 -64.5q103 0 191.5 45.5
t158 147.5t95.5 249l102 598h78z" />
    <glyph glyph-name="Uogonek" unicode="&#x172;" horiz-adv-x="1271" 
d="M1288 1413l-162 -915q-12 -66 -28 -136q-75 -298 -355 -370q-130 -62 -200 -140.5t-70 -164.5t80 -86q64 0 137 59l-10 -59q-70 -58 -162 -58q-55 0 -90 30.5t-35 96.5q0 81 55 159.5t160 141.5h-41q-195 0 -300 93.5t-105 252.5q0 76 16 185l162 911h78l-160 -913
q-18 -102 -18 -178q0 -127 84.5 -205t255.5 -78q186 0 295 89.5t149 248.5q13 55 27 127l159 909h78z" />
    <glyph glyph-name="uogonek" unicode="&#x173;" horiz-adv-x="1110" 
d="M1059 1079l-189 -1079h-10q-138 -62 -213.5 -143t-75.5 -170q0 -86 80 -86q64 0 137 59l-10 -59q-70 -58 -162 -58q-55 0 -89.5 30.5t-34.5 96.5q0 98 77.5 189.5t227.5 158.5l37 213l-72 -116q-144 -144 -348 -144q-154 0 -236 77.5t-82 213.5q0 82 23 217l108 600h78
l-104 -583q-25 -141 -25 -217q0 -110 64 -175.5t194 -64.5q103 0 191.5 45.5t158 147.5t95.5 249l102 598h78z" />
    <glyph glyph-name="Wcircumflex" unicode="&#x174;" horiz-adv-x="1753" 
d="M987 1507h-74l166 193h70l100 -193h-69l-72 150zM1907 1413l-635 -1413h-98l-134 1317l-622 -1317h-101l-110 1413h82l94 -1323l612 1303h113l131 -1301l584 1321h84z" />
    <glyph glyph-name="wcircumflex" unicode="&#x175;" horiz-adv-x="1490" 
d="M750 1188h-70l176 225h66l94 -225h-68l-67 176zM1565 1079l-535 -1079h-96l-115 1004l-469 -1004h-100l-146 1079h84l125 -1005l463 1003h105l116 -997l480 999h88z" />
    <glyph glyph-name="Ycircumflex" unicode="&#x176;" horiz-adv-x="1134" 
d="M666 1507h-74l166 193h69l101 -193h-70l-72 150zM625 551l-97 -551h-77l98 559l-350 854h84l317 -780l586 780h96z" />
    <glyph glyph-name="ycircumflex" unicode="&#x177;" horiz-adv-x="978" 
d="M489 1188h-69l176 225h66l94 -225h-68l-67 176zM1051 1079l-615 -1079q-77 -137 -136.5 -222t-113 -130.5t-98 -61.5t-102.5 -16q-39 0 -70 8l12 66q25 -6 62 -6q81 0 152.5 63t168.5 229l27 47l-234 1102h86l205 -1016l566 1016h90z" />
    <glyph glyph-name="Ydieresis" unicode="&#x178;" horiz-adv-x="1134" 
d="M672 1550q-20 0 -31.5 12t-11.5 31q0 26 19.5 46t43.5 20q21 0 33 -13t12 -32q0 -26 -20 -45t-45 -19zM852 1550q-20 0 -32.5 12t-12.5 31q0 26 20 46t45 20q20 0 33 -13t13 -32q0 -26 -20.5 -45t-45.5 -19zM625 551l-97 -551h-77l98 559l-350 854h84l317 -780l586 780
h96z" />
    <glyph glyph-name="Zacute" unicode="&#x179;" horiz-adv-x="1128" 
d="M770 1507h-57l141 193h84zM1206 1348l-1108 -1280h897l-14 -68h-999l12 59l1114 1287h-832l15 67h928z" />
    <glyph glyph-name="zacute" unicode="&#x17a;" horiz-adv-x="956" 
d="M612 1188h-57l164 225h84zM958 1006l-899 -943h744l-10 -63h-840l10 61l893 943h-678l10 67h781z" />
    <glyph glyph-name="Zdotaccent" unicode="&#x17b;" horiz-adv-x="1128" 
d="M754 1550q-20 0 -32.5 12t-12.5 31q0 26 20 46t45 20q20 0 32.5 -13t12.5 -32q0 -26 -20 -45t-45 -19zM1206 1348l-1108 -1280h897l-14 -68h-999l12 59l1114 1287h-832l15 67h928z" />
    <glyph glyph-name="zdotaccent" unicode="&#x17c;" horiz-adv-x="956" 
d="M600 1245q-22 0 -35.5 14.5t-13.5 36.5q0 29 19.5 48.5t47.5 19.5q23 0 37.5 -14t14.5 -35q0 -30 -21 -50t-49 -20zM958 1006l-899 -943h744l-10 -63h-840l10 61l893 943h-678l10 67h781z" />
    <glyph glyph-name="Zcaron" unicode="&#x17d;" horiz-adv-x="1128" 
d="M717 1507l-103 193h72l70 -152l123 152h73l-166 -193h-69zM1206 1348l-1108 -1280h897l-14 -68h-999l12 59l1114 1287h-832l15 67h928z" />
    <glyph glyph-name="zcaron" unicode="&#x17e;" horiz-adv-x="956" 
d="M559 1188l-94 225h67l68 -174l131 174h70l-176 -225h-66zM958 1006l-899 -943h744l-10 -63h-840l10 61l893 943h-678l10 67h781z" />
    <glyph glyph-name="Scommaaccent" unicode="&#x218;" horiz-adv-x="1124" 
d="M717 1442q195 0 297 -113t94 -285h-82q3 154 -88 242t-240 88q-76 0 -145 -21t-125 -61.5t-89.5 -106t-33.5 -147.5q0 -108 76 -166.5t254 -111.5q194 -54 286.5 -142t92.5 -235q0 -182 -148 -297t-381 -115q-98 0 -181.5 25.5t-146.5 75t-95 128t-25 177.5h80
q-6 -161 99.5 -249.5t287.5 -88.5t302 91t120 241q0 123 -78.5 193.5t-257.5 123.5q-193 56 -283 129t-90 199q0 191 140.5 308.5t359.5 117.5zM528 -113l-129 -231h-53l107 240h75v-9z" />
    <glyph glyph-name="scommaaccent" unicode="&#x219;" horiz-adv-x="931" 
d="M528 1108q160 0 248 -85t96 -241h-79q-20 260 -273 260q-131 0 -207.5 -71t-76.5 -168q0 -88 60.5 -139.5t176.5 -83.5q167 -47 245.5 -114.5t78.5 -186.5q0 -146 -110 -229t-279 -83q-181 0 -284 87t-104 253h80q6 -144 88 -208t232 -64q132 0 213.5 65.5t81.5 169.5
q0 95 -64.5 148.5t-220.5 95.5q-58 16 -103.5 37t-86.5 54t-63.5 81.5t-22.5 110.5q0 132 102 221.5t272 89.5zM401 -113l-129 -231h-53l107 240h75v-9z" />
    <glyph glyph-name="uni021A" unicode="&#x21a;" horiz-adv-x="1204" 
d="M1350 1348h-533l-237 -1348h-78l237 1348h-530l12 65h1141zM483 -104h76v-9l-129 -231h-53z" />
    <glyph glyph-name="uni021B" unicode="&#x21b;" horiz-adv-x="528" 
d="M328 1010l-129 -734q-19 -100 -19 -137q0 -62 45 -81t144 -5l-11 -59q-41 -8 -102 -8q-78 0 -117 31t-39 100q0 59 21 164l129 729h-135l12 61h133l41 229h78l-41 -229h205l-11 -61h-204zM164 -104h76v-9l-129 -231h-54z" />
    <glyph glyph-name="circumflex" unicode="&#x2c6;" horiz-adv-x="614" 
d="M389 1188l-67 176l-132 -176h-69l176 225h65l95 -225h-68z" />
    <glyph glyph-name="caron" unicode="&#x2c7;" horiz-adv-x="614" 
d="M498 1413l-176 -225h-66l-94 225h67l68 -174l131 174h70z" />
    <glyph glyph-name="breve" unicode="&#x2d8;" horiz-adv-x="614" 
d="M465 1413h55q-24 -119 -83 -183.5t-152 -64.5q-96 0 -131 66t-17 182h56q-12 -98 13 -142t91 -44q126 0 168 186z" />
    <glyph glyph-name="dotaccent" unicode="&#x2d9;" horiz-adv-x="614" 
d="M317 1364q23 0 37.5 -14t14.5 -35q0 -30 -21 -50t-49 -20q-22 0 -35.5 14.5t-13.5 36.5q0 29 19.5 48.5t47.5 19.5z" />
    <glyph glyph-name="ring" unicode="&#x2da;" horiz-adv-x="614" 
d="M332 1444q53 0 87 -30t34 -79q0 -73 -51 -120.5t-119 -47.5q-53 0 -86 31t-33 80q0 73 50 119.5t118 46.5zM322 1395q-41 0 -69 -32t-28 -77q0 -30 17.5 -48.5t50.5 -18.5q42 0 70 31.5t28 76.5q0 30 -18 49t-51 19z" />
    <glyph glyph-name="ogonek" unicode="&#x2db;" horiz-adv-x="614" 
d="M350 27l45 -27q-138 -62 -213.5 -143t-75.5 -170q0 -86 80 -86q65 0 138 59l-11 -59q-70 -58 -161 -58q-55 0 -90 30.5t-35 96.5q0 101 82.5 195.5t240.5 161.5z" />
    <glyph glyph-name="tilde" unicode="&#x2dc;" horiz-adv-x="614" 
d="M203 1374q47 0 121 -26q68 -23 92 -23q34 0 39 41h49q-9 -98 -92 -98q-44 0 -121 26q-65 23 -90 23q-33 0 -41 -41h-49q9 98 92 98z" />
    <glyph glyph-name="hungarumlaut" unicode="&#x2dd;" horiz-adv-x="614" 
d="M201 1188h-58l164 225h84zM416 1188h-58l164 225h84z" />
    <glyph glyph-name="uni0326" unicode="&#x326;" horiz-adv-x="0" 
d="M373 -113l-129 -231h-54l107 240h76v-9z" />
    <glyph glyph-name="Wgrave" unicode="&#x1e80;" horiz-adv-x="1753" 
d="M1051 1507l-103 193h80l80 -193h-57zM1907 1413l-635 -1413h-98l-134 1317l-622 -1317h-101l-110 1413h82l94 -1323l612 1303h113l131 -1301l584 1321h84z" />
    <glyph glyph-name="wgrave" unicode="&#x1e81;" horiz-adv-x="1490" 
d="M825 1188l-110 225h80l86 -225h-56zM1565 1079l-535 -1079h-96l-115 1004l-469 -1004h-100l-146 1079h84l125 -1005l463 1003h105l116 -997l480 999h88z" />
    <glyph glyph-name="Wacute" unicode="&#x1e82;" horiz-adv-x="1753" 
d="M1100 1507h-58l142 193h84zM1907 1413l-635 -1413h-98l-134 1317l-622 -1317h-101l-110 1413h82l94 -1323l612 1303h113l131 -1301l584 1321h84z" />
    <glyph glyph-name="wacute" unicode="&#x1e83;" horiz-adv-x="1490" 
d="M868 1188h-57l164 225h84zM1565 1079l-535 -1079h-96l-115 1004l-469 -1004h-100l-146 1079h84l125 -1005l463 1003h105l116 -997l480 999h88z" />
    <glyph glyph-name="Wdieresis" unicode="&#x1e84;" horiz-adv-x="1753" 
d="M993 1550q-20 0 -31.5 12t-11.5 31q0 26 20 46t44 20q21 0 33 -13t12 -32q0 -26 -20.5 -45t-45.5 -19zM1174 1550q-20 0 -33 12t-13 31q0 26 20.5 46t45.5 20q20 0 32.5 -13t12.5 -32q0 -26 -20 -45t-45 -19zM1907 1413l-635 -1413h-98l-134 1317l-622 -1317h-101
l-110 1413h82l94 -1323l612 1303h113l131 -1301l584 1321h84z" />
    <glyph glyph-name="wdieresis" unicode="&#x1e85;" horiz-adv-x="1490" 
d="M756 1241q-20 0 -32.5 12t-12.5 31q0 26 20 46t45 20q20 0 32.5 -13t12.5 -32q0 -26 -20 -45t-45 -19zM952 1241q-20 0 -31.5 12t-11.5 31q0 26 20 46t44 20q21 0 33 -13t12 -32q0 -26 -20.5 -45t-45.5 -19zM1565 1079l-535 -1079h-96l-115 1004l-469 -1004h-100
l-146 1079h84l125 -1005l463 1003h105l116 -997l480 999h88z" />
    <glyph glyph-name="Ygrave" unicode="&#x1ef2;" horiz-adv-x="1134" 
d="M729 1507l-102 193h80l79 -193h-57zM625 551l-97 -551h-77l98 559l-350 854h84l317 -780l586 780h96z" />
    <glyph glyph-name="ygrave" unicode="&#x1ef3;" horiz-adv-x="978" 
d="M565 1188l-110 225h80l86 -225h-56zM1051 1079l-615 -1079q-77 -137 -136.5 -222t-113 -130.5t-98 -61.5t-102.5 -16q-39 0 -70 8l12 66q25 -6 62 -6q81 0 152.5 63t168.5 229l27 47l-234 1102h86l205 -1016l566 1016h90z" />
    <glyph glyph-name="endash" unicode="&#x2013;" horiz-adv-x="1024" 
d="M874 565h-737l13 62h737z" />
    <glyph glyph-name="emdash" unicode="&#x2014;" horiz-adv-x="2048" 
d="M1898 565h-1761l13 62h1761z" />
    <glyph glyph-name="quoteleft" unicode="&#x2018;" horiz-adv-x="389" 
d="M205 1010l209 473h71l-198 -488h-82v15z" />
    <glyph glyph-name="quoteright" unicode="&#x2019;" horiz-adv-x="389" 
d="M401 1468l-208 -473h-72l198 488h82v-15z" />
    <glyph glyph-name="quotesinglbase" unicode="&#x201a;" horiz-adv-x="315" 
d="M63 74l-180 -314h-73l167 328h89z" />
    <glyph glyph-name="quotedblleft" unicode="&#x201c;" horiz-adv-x="614" 
d="M207 1010l207 473h71l-196 -488h-84zM432 1010l207 473h72l-197 -488h-84z" />
    <glyph glyph-name="quotedblright" unicode="&#x201d;" horiz-adv-x="614" 
d="M401 1468l-208 -473h-72l198 488h82v-15zM627 1468l-209 -473h-72l199 488h82v-15z" />
    <glyph glyph-name="quotedblbase" unicode="&#x201e;" horiz-adv-x="540" 
d="M63 74l-180 -314h-73l167 328h89zM289 74l-180 -314h-74l170 328h86z" />
    <glyph glyph-name="dagger" unicode="&#x2020;" horiz-adv-x="1208" 
d="M1028 811l-379 6l-192 -1145h-90l206 1145l-380 -6l12 76l379 -6l88 532h92l-102 -532l378 6z" />
    <glyph glyph-name="daggerdbl" unicode="&#x2021;" horiz-adv-x="1193" 
d="M651 817l-98 -551l381 6l-14 -75l-377 6l-86 -531h-90l98 531l-381 -6l14 75l377 -6l98 551l-380 -6l12 76l379 -6l88 532h92l-102 -532l378 6l-12 -76z" />
    <glyph glyph-name="bullet" unicode="&#x2022;" horiz-adv-x="454" 
d="M248 748q47 0 75.5 -28t28.5 -71q0 -61 -44 -104t-103 -43q-45 0 -74 28.5t-29 71.5q0 60 43.5 103t102.5 43z" />
    <glyph glyph-name="ellipsis" unicode="&#x2026;" horiz-adv-x="827" 
d="M37 98q25 0 40 -15t15 -38q0 -31 -21.5 -52.5t-50.5 -21.5q-25 0 -40 15.5t-15 38.5q0 33 21 53t51 20zM293 98q25 0 40 -15t15 -38q0 -31 -21.5 -52.5t-50.5 -21.5q-25 0 -40 15.5t-15 38.5q0 32 21.5 52.5t50.5 20.5zM549 98q25 0 40 -15t15 -38q0 -31 -21.5 -52.5
t-50.5 -21.5q-25 0 -40 15.5t-15 38.5q0 32 21.5 52.5t50.5 20.5z" />
    <glyph glyph-name="perthousand" unicode="&#x2030;" horiz-adv-x="2086" 
d="M455 791q-107 0 -170.5 73.5t-63.5 190.5q0 67 20.5 133.5t59.5 124t103.5 93.5t142.5 36q107 0 170 -73.5t63 -190.5q0 -67 -20.5 -133.5t-59 -124t-103 -93.5t-142.5 -36zM1378 1413l-1161 -1413h-90l1161 1413h90zM539 1378q-77 0 -133 -51t-80.5 -123t-24.5 -151
q0 -93 42.5 -146t119.5 -53t133 52t81 124t25 150q0 93 -42.5 145.5t-120.5 52.5zM1055 623q107 0 170 -74t63 -191q0 -67 -20.5 -133.5t-59 -124t-102 -93.5t-141.5 -36q-107 0 -171.5 74t-64.5 191q0 67 20.5 133.5t59.5 124t103.5 93.5t142.5 36zM1688 623q107 0 171 -74
t64 -191q0 -67 -20.5 -133.5t-59.5 -124t-103.5 -93.5t-142.5 -36q-107 0 -170 74t-63 191q0 67 20.5 133.5t59.5 124t102.5 93.5t141.5 36zM973 35q76 0 131.5 51.5t80.5 123.5t25 150q0 93 -43 146t-120 53t-133 -51.5t-80.5 -123.5t-24.5 -151q0 -93 42.5 -145.5
t121.5 -52.5zM1606 35q77 0 132.5 51.5t80 123.5t24.5 150q0 93 -42.5 146t-121.5 53q-76 0 -131.5 -51.5t-80.5 -123.5t-25 -151q0 -93 43 -145.5t121 -52.5z" />
    <glyph glyph-name="guilsinglleft" unicode="&#x2039;" horiz-adv-x="708" 
d="M289 500l217 -332h-78l-221 340l340 340h90z" />
    <glyph glyph-name="guilsinglright" unicode="&#x203a;" horiz-adv-x="708" 
d="M489 508l-339 -340h-91l349 348l-218 332h78z" />
    <glyph glyph-name="fraction" unicode="&#x2044;" horiz-adv-x="622" 
d="M-195 0h-92l1164 1413h90z" />
    <glyph glyph-name="Euro" unicode="&#x20ac;" 
d="M821 1442q112 0 186 -29.5t130 -95.5l-52 -49q-52 58 -116.5 82t-159.5 24q-102 0 -186.5 -42t-144.5 -117t-101.5 -165.5t-67.5 -199.5h668l-33 -62h-649q-18 -101 -23 -163h617l-29 -62h-592l-2 -74q0 -235 97.5 -342.5t289.5 -107.5q152 0 305 84l-12 -76
q-148 -76 -313 -76q-451 0 -451 514q0 51 2 78h-174l31 62h147q5 62 23 163h-113l31 62h96q23 96 56.5 179.5t85 160.5t115.5 132t151 87.5t188 32.5z" />
    <glyph glyph-name="trademark" unicode="&#x2122;" horiz-adv-x="1071" 
d="M303 1303l-65 -369h-60l66 369h-168l8 49h393l-8 -49h-166zM961 1350l-74 -416h-56l68 356l-194 -350h-64l-68 348l-59 -354h-57l73 416h86l68 -363l195 363h82z" />
    <glyph glyph-name="partialdiff" unicode="&#x2202;" 
d="M676 1552q364 0 364 -524q0 -137 -15.5 -265t-45.5 -247.5t-79 -218t-112.5 -171.5t-149 -114t-185.5 -41q-159 0 -254 100.5t-95 268.5q0 84 17.5 167t58 164.5t99 143.5t147 100.5t195.5 38.5q118 0 201.5 -52t115.5 -138q18 129 18 262q0 228 -70.5 344.5
t-230.5 116.5q-87 0 -157.5 -24.5t-147.5 -80.5l-31 52q88 63 172.5 90.5t184.5 27.5zM463 37q116 0 211 82.5t157.5 221.5t94.5 323q-12 59 -43 104t-75 70.5t-93.5 38t-104.5 12.5q-88 0 -161 -34t-120.5 -89.5t-80.5 -128t-47.5 -147.5t-14.5 -150q0 -143 76.5 -223
t200.5 -80z" />
    <glyph glyph-name="emptyset" unicode="&#x2205;" horiz-adv-x="1716" 
d="M1589 1413l-170 -170q93 -103 144 -235.5t51 -280.5q0 -160 -60.5 -303t-162 -244.5t-241 -161t-292.5 -59.5q-147 0 -280 54t-238 151l-168 -168l-45 45l170 170q-93 103 -144 235.5t-51 280.5q0 160 60.5 303t162 244.5t241 161t292.5 59.5q147 0 280 -54t238 -151
l168 168zM172 727q0 -269 172 -469l985 985q-94 91 -215.5 141t-255.5 50q-139 0 -265.5 -55t-219 -148.5t-147 -225t-54.5 -278.5zM858 23q186 0 343.5 92t250 254t92.5 358q0 269 -172 469l-985 -985q94 -89 215.5 -138.5t255.5 -49.5z" />
    <glyph glyph-name="product" unicode="&#x220f;" 
d="M1163 1346h-116l-279 -1571h-78l279 1571h-557l-279 -1571h-78l279 1571h-119l14 67h947z" />
    <glyph glyph-name="summation" unicode="&#x2211;" 
d="M1151 1346h-805l393 -732l-721 -772h881l-14 -67h-971l12 65l721 776l-393 732l12 65h897z" />
    <glyph glyph-name="minus" unicode="&#x2212;" 
d="M973 621h-830l13 61h829z" />
    <glyph glyph-name="radical" unicode="&#x221a;" 
d="M1212 1597l-784 -1925h-90l-109 901h-135l10 62h185l104 -897l752 1859h67z" />
    <glyph glyph-name="infinity" unicode="&#x221e;" horiz-adv-x="2037" 
d="M1587 1114q186 0 292 -128t106 -333q0 -87 -21 -179t-68.5 -182.5t-114 -161.5t-166.5 -115t-218 -44q-173 0 -276 105.5t-126 314.5q-190 -420 -544 -420q-186 0 -292 127.5t-106 331.5q0 87 21 179t68.5 183t114 162t166.5 115.5t218 44.5q172 0 275.5 -105t127.5 -313
q91 205 229.5 311.5t313.5 106.5zM973 543q4 137 -21 237.5t-74.5 157.5t-111 84t-137.5 27q-92 0 -173 -38.5t-138.5 -102t-99 -144t-61.5 -165t-20 -165.5q0 -187 92.5 -292t233.5 -105q70 0 142.5 29t143 87t130 159t94.5 231zM1409 37q93 0 174.5 38.5t138.5 101t98 143
t61 164.5t20 165q0 187 -92 293.5t-232 106.5q-56 0 -114 -17.5t-117.5 -57t-111.5 -97t-96.5 -143.5t-72.5 -191q-4 -136 21.5 -237t75 -158t111 -84t136.5 -27z" />
    <glyph glyph-name="integral" unicode="&#x222b;" 
d="M776 1544q75 0 119 -53l-37 -49q-36 41 -92 41q-89 0 -143 -101.5t-54 -291.5q0 -155 27 -474q29 -306 29 -475q0 -469 -277 -469q-71 0 -119 54l37 49q22 -24 42.5 -32.5t49.5 -8.5q93 0 146 99.5t53 303.5q0 128 -29 463q-26 315 -26 487q0 229 73.5 343t200.5 114z
" />
    <glyph glyph-name="approxequal" unicode="&#x2248;" horiz-adv-x="1101" 
d="M389 901q54 0 95.5 -16.5t117.5 -61.5q68 -39 106 -53t83 -14q65 0 110 26.5t100 94.5l39 -37q-112 -148 -264 -148q-52 0 -94 16.5t-119 61.5q-69 40 -105 54t-83 14q-63 0 -109.5 -26.5t-101.5 -92.5l-39 37q113 145 264 145zM326 543q53 0 95 -16.5t120 -61.5
q68 -40 104.5 -54t81.5 -14q65 0 110.5 27t100.5 94l41 -37q-118 -147 -266 -147q-52 0 -94 16.5t-119 61.5q-67 39 -104.5 53t-84.5 14q-64 0 -110 -26.5t-99 -92.5l-39 37q111 146 263 146z" />
    <glyph glyph-name="notequal" unicode="&#x2260;" 
d="M700 809l-243 -320h510l-13 -59h-542l-168 -221h-72l168 221h-246l12 59h279l244 320h-467l12 59h500l168 222h71l-168 -222h289l-12 -59h-322z" />
    <glyph glyph-name="lessequal" unicode="&#x2264;" 
d="M1020 897l-811 -319l700 -316l-14 -72l-766 357l12 65l891 357zM43 61h829l-12 -61h-829z" />
    <glyph glyph-name="greaterequal" unicode="&#x2265;" 
d="M971 612l-13 -65l-892 -357l14 74l811 320l-701 315l13 70zM43 61h829l-12 -61h-829z" />
    <glyph glyph-name="lozenge" unicode="&#x25ca;" horiz-adv-x="1042" 
d="M897 707l-467 -707h-68l-217 707l467 706h68zM827 707l-192 639l-418 -639l191 -639z" />
    <glyph glyph-name="a.alt" horiz-adv-x="1150" 
d="M1100 1079l-189 -1079h-77l38 227l-84 -121q-78 -73 -158.5 -104t-191.5 -31q-180 0 -283.5 122.5t-103.5 316.5q0 104 24.5 204t75 189.5t120.5 157.5t167.5 107.5t210.5 39.5q106 0 177 -34t118 -107l39 -115l39 227h78zM922 500l18 104q18 91 7 170.5t-44.5 139
t-101 94t-162.5 34.5q-115 0 -212 -54t-159.5 -143t-97.5 -201t-35 -230q0 -168 85 -272.5t239 -104.5q80 0 151 25t134 77.5t109.5 144.5t68.5 216z" />
    <glyph glyph-name="braceleft.001" horiz-adv-x="595" 
d="M737 1597l-10 -61h-35q-63 0 -106 -15.5t-69 -41.5t-40.5 -74t-20 -98t-7.5 -129q-2 -66 -5 -110t-11 -99.5t-23 -92t-38.5 -72t-60.5 -57t-86 -30.5q68 -13 100.5 -57t32.5 -107q0 -95 -69 -291q-39 -109 -50.5 -155.5t-11.5 -88.5q0 -65 44.5 -92.5t131.5 -27.5h35
l-12 -62h-31q-110 0 -172.5 43.5t-62.5 136.5q0 44 14 96.5t57 170.5q62 176 62 264q0 125 -137 139l10 62q47 5 82.5 20.5t59 44t38.5 61t23 81t10.5 93.5t3.5 109q2 117 15 191.5t47 134.5t98 87t164 27h30z" />
    </font>
</defs>
</svg>
