<?xml version="1.0" standalone="no"?>
<!DOCTYPE svg PUBLIC "-//W3C//DTD SVG 1.1//EN" "http://www.w3.org/Graphics/SVG/1.1/DTD/svg11.dtd" >
<svg xmlns="http://www.w3.org/2000/svg" xmlns:xlink="http://www.w3.org/1999/xlink" version="1.1">
<metadata>
Created by FontForge 20170731 at Wed Dec 14 12:20:10 2022
 By Aleksey,,,
No Rights Reserved.
</metadata>
<defs>
<font id="Aileron-UltraLight" horiz-adv-x="1085" >
  <font-face 
    font-family="Aileron UltraLight"
    font-weight="250"
    font-stretch="normal"
    units-per-em="2048"
    panose-1="0 0 3 0 0 0 0 0 0 0"
    ascent="1577"
    descent="-471"
    x-height="1061"
    cap-height="1413"
    bbox="-410 -457 2212 1833"
    underline-thickness="102"
    underline-position="-307"
    unicode-range="U+0020-FB02"
  />
<missing-glyph horiz-adv-x="1024" 
d="M0 0v1434h1024v-1434h-1024zM512 809l348 522h-696zM573 717l349 -522v1044zM164 102h696l-348 523zM102 1239v-1044l349 522z" />
    <glyph glyph-name="fi" unicode="fi" horiz-adv-x="811" 
d="M666 1069v-1069h-45v1026h-408v-1026h-45v1026h-117v43h117v90q0 66 4 109q11 121 105 198.5t247 77.5q51 0 97 -10v-43q-99 13 -176.5 -0.5t-124.5 -48.5t-72.5 -80.5t-30.5 -99.5q-4 -45 -4 -103v-90h453z" />
    <glyph glyph-name="fl" unicode="fl" horiz-adv-x="774" 
d="M606 104q3 -50 27 -64.5t88 -6.5v-39q-20 -4 -59 -4q-46 0 -72 23t-29 81q-2 41 -2 152v1231q-41 24 -115 24q-62 0 -109.5 -19.5t-75.5 -54t-43 -75.5t-19 -90q-4 -45 -4 -103v-90h219v-43h-219v-1026h-46v1026h-96v43h96v90q0 55 5 109q11 124 84.5 200t205.5 76
q104 0 162 -39v-1259q0 -113 2 -142z" />
    <glyph glyph-name=".notdef" horiz-adv-x="1024" 
d="M0 0v1434h1024v-1434h-1024zM512 809l348 522h-696zM573 717l349 -522v1044zM164 102h696l-348 523zM102 1239v-1044l349 522z" />
    <glyph glyph-name=".null" horiz-adv-x="0" 
 />
    <glyph glyph-name="nonmarkingreturn" horiz-adv-x="682" 
 />
    <glyph glyph-name="space" unicode=" " horiz-adv-x="376" 
 />
    <glyph glyph-name="exclam" unicode="!" horiz-adv-x="413" 
d="M227 225h-41l-8 1188h58zM207 53q17 0 29 -12t12 -29t-12 -29t-29 -12t-29 12t-12 29t12 29t29 12z" />
    <glyph glyph-name="quotedbl" unicode="&#x22;" horiz-adv-x="307" 
d="M82 1006h-33l-6 499h45zM229 1006h-32l-7 499h46z" />
    <glyph glyph-name="numbersign" unicode="#" 
d="M733 868l-67 -323h245v-43h-256l-106 -502h-43l106 502h-227l-106 -502h-43l106 502h-229v43h239l68 323h-246v43h256l107 502h43l-107 -502h227l107 502h43l-107 -502h230v-43h-240zM692 868h-227l-70 -323h228z" />
    <glyph glyph-name="dollar" unicode="$" 
d="M586 1399v-674q391 -114 391 -408q0 -141 -103.5 -240.5t-287.5 -105.5v-155h-45v155q-112 5 -203.5 48.5t-155 133.5t-76.5 216h46q18 -162 123.5 -254.5t265.5 -100.5v668q-64 19 -114.5 40t-100.5 54.5t-83.5 74t-54 98t-20.5 126.5q0 159 106 258.5t267 108.5v155h45
v-155q175 -6 274 -114t121 -275h-45q-20 159 -111 249.5t-239 96.5zM217 1075q0 -60 17 -109.5t44.5 -84.5t71 -63.5t88 -47.5t103.5 -37v666q-86 -5 -158 -41.5t-119 -110t-47 -172.5zM586 674v-660q161 4 251.5 87t90.5 212q0 135 -86 221.5t-256 139.5z" />
    <glyph glyph-name="percent" unicode="%" horiz-adv-x="1431" 
d="M408 1442q120 0 191 -92t71 -234q0 -139 -71 -232t-191 -93t-191.5 93t-71.5 232q0 142 71.5 234t191.5 92zM285 0h-54l916 1413h53zM408 1399q-102 0 -157.5 -77.5t-55.5 -205.5q0 -127 55.5 -204.5t157.5 -77.5t157.5 77.5t55.5 204.5q0 128 -55.5 205.5t-157.5 77.5z
M1024 623q120 0 191 -92t71 -234q0 -139 -71 -232.5t-191 -93.5t-191 93.5t-71 232.5q0 142 71 234t191 92zM1024 580q-102 0 -157.5 -77.5t-55.5 -205.5q0 -127 55.5 -205t157.5 -78t157.5 78t55.5 205q0 128 -55.5 205.5t-157.5 77.5z" />
    <glyph glyph-name="ampersand" unicode="&#x26;" horiz-adv-x="1310" 
d="M1266 727v-43h-226v-682q-181 -31 -358 -31q-104 0 -183.5 10t-148 34t-113 64t-69.5 101.5t-25 143.5q0 163 109.5 261.5t288.5 119.5q-145 19 -232.5 104t-87.5 248q0 167 128 276t331 109q129 0 246 -21v-45q-121 23 -252 23q-175 0 -289.5 -92t-114.5 -248
q0 -312 375 -330q41 -2 125 -2h225v311h45v-311h226zM193 324q0 -72 23.5 -126.5t64.5 -89t104 -56t135.5 -30t165.5 -8.5q181 0 309 25v645h-225q-84 0 -125 -4q-452 -38 -452 -356z" />
    <glyph glyph-name="quotesingle" unicode="'" horiz-adv-x="159" 
d="M82 1006h-33l-6 499h45z" />
    <glyph glyph-name="parenleft" unicode="(" horiz-adv-x="600" 
d="M485 1597h45q-112 -184 -172.5 -410.5t-60.5 -469.5t61 -470t172 -411h-45q-108 164 -172.5 402t-64.5 479t64.5 478.5t172.5 401.5z" />
    <glyph glyph-name="parenright" unicode=")" horiz-adv-x="600" 
d="M70 1597h45q108 -164 172.5 -401.5t64.5 -478.5t-64.5 -479t-172.5 -402h-45q111 184 172 411t61 470t-60.5 469.5t-172.5 410.5z" />
    <glyph glyph-name="asterisk" unicode="*" 
d="M561 573l326 117l14 -45l-328 -106l232 -306l-41 -28l-221 315l-221 -315l-41 28l231 306l-328 106l15 45l325 -117l-6 398h49z" />
    <glyph glyph-name="plus" unicode="+" 
d="M952 629h-387v-451h-45v451h-387v43h387v450h45v-450h387v-43z" />
    <glyph glyph-name="comma" unicode="," horiz-adv-x="307" 
d="M139 39l-104 -277h-39l94 287h47z" />
    <glyph glyph-name="hyphen" unicode="-" horiz-adv-x="561" 
d="M496 555h-430v43h430v-43z" />
    <glyph glyph-name="period" unicode="." horiz-adv-x="307" 
d="M123 53q17 0 29 -12t12 -29t-12 -29t-29 -12t-29 12t-12 29t12 29t29 12z" />
    <glyph glyph-name="slash" unicode="/" horiz-adv-x="538" 
d="M35 -61h-45l514 1536h45z" />
    <glyph glyph-name="zero" unicode="0" 
d="M543 1442q124 0 215.5 -53.5t146.5 -153.5t81 -231t26 -297t-26 -298t-81 -231.5t-146.5 -153t-215.5 -53.5t-215.5 54t-146.5 153.5t-81 231t-26 297.5t26 297.5t81 231t146.5 153t215.5 53.5zM543 14q114 0 197 52.5t131 148.5t70 217.5t22 274.5q0 152 -22 273.5
t-70 217.5t-131 148.5t-197 52.5q-92 0 -164 -35t-119.5 -96t-78.5 -149t-44.5 -189.5t-13.5 -222.5q0 -152 22 -273.5t70 -218t131 -149t197 -52.5z" />
    <glyph glyph-name="one" unicode="1" 
d="M715 1413v-1413h-45v1364l-389 -242v52l325 204q55 35 86 35h23z" />
    <glyph glyph-name="two" unicode="2" 
d="M985 43v-43h-903v33l489 475q206 201 280.5 315.5t74.5 233.5q0 150 -92 246t-254 96q-159 0 -266 -104t-124 -275l-2 -21h-45l2 21q20 191 140.5 306.5t294.5 115.5q128 0 219 -53t133.5 -138.5t42.5 -193.5q0 -88 -42.5 -178.5t-118.5 -181t-204 -212.5l-458 -442h833z
" />
    <glyph glyph-name="three" unicode="3" 
d="M672 731q156 -24 241.5 -112.5t85.5 -243.5q0 -185 -129 -294.5t-329 -109.5q-188 0 -307 110t-140 316l-2 21h45l2 -21q18 -172 122 -277.5t280 -105.5q180 0 294.5 96t114.5 265q0 148 -106.5 237.5t-319.5 89.5h-35v43h35q97 0 188 39t153.5 118.5t62.5 180.5
q0 156 -95.5 236t-246.5 80q-160 0 -263 -95t-120 -262l-2 -20h-45l2 20q18 187 137 293.5t293 106.5q185 0 287 -99.5t102 -255.5q0 -130 -86.5 -229t-218.5 -127z" />
    <glyph glyph-name="four" unicode="4" 
d="M1032 410h-203v-410h-45v410h-741v32l752 971h34v-960h203v-43zM784 453v890q-108 -150 -184 -247l-498 -643h682z" />
    <glyph glyph-name="five" unicode="5" 
d="M563 885q194 0 308 -128t114 -325q0 -141 -63.5 -247.5t-166.5 -160t-229 -53.5q-75 0 -144 22.5t-128 68.5t-99.5 124t-50.5 179l-2 20h45l3 -20q15 -156 116 -253.5t262 -97.5q76 0 147 25.5t130.5 74.5t95 131t35.5 185q0 187 -105 299.5t-272 112.5q-271 0 -383 -238
h-45l133 801h717v-43h-678l-119 -678l78 100q135 101 301 101z" />
    <glyph glyph-name="six" unicode="6" 
d="M563 938q107 0 193.5 -39.5t142 -107t85.5 -155.5t30 -187q0 -132 -58.5 -240.5t-166.5 -173t-244 -64.5q-457 0 -457 641q0 830 496 830q179 0 273 -92.5t130 -268.5l4 -20h-45l-4 20q-32 161 -120.5 239.5t-237.5 78.5q-73 0 -133.5 -18.5t-120.5 -70.5t-102 -136
t-69 -224.5t-30 -326.5l41 104q67 102 169 156.5t224 54.5zM547 14q188 0 303 124.5t115 307.5q0 196 -112 322.5t-294 126.5q-173 0 -294.5 -118.5t-121.5 -293.5q0 -132 46 -237t139 -168.5t219 -63.5z" />
    <glyph glyph-name="seven" unicode="7" 
d="M1018 1413v-22l-746 -1391h-53l737 1370h-864v43h926z" />
    <glyph glyph-name="eight" unicode="8" 
d="M705 735q148 -35 224.5 -133.5t76.5 -243.5q0 -92 -37.5 -166.5t-101.5 -122.5t-147 -74t-177 -26q-134 0 -237.5 44t-164.5 133t-61 212q0 141 84 240.5t233 136.5q-118 32 -182.5 122t-64.5 218q0 157 109 262t300 105q198 0 304 -104t106 -263q0 -129 -70.5 -220
t-193.5 -120zM199 1075q0 -80 31 -143t83.5 -100.5t115 -56.5t130.5 -19t131 19t115 56.5t83.5 100.5t31.5 143q0 149 -98 236.5t-263 87.5t-262.5 -87.5t-97.5 -236.5zM547 12q58 0 114.5 12t110 39.5t94 67t65.5 98t25 129.5q0 160 -105 257.5t-300 97.5
q-197 0 -309.5 -98t-112.5 -257q0 -88 36.5 -156.5t97 -108.5t133 -60.5t151.5 -20.5z" />
    <glyph glyph-name="nine" unicode="9" 
d="M541 1442q456 0 456 -641q0 -416 -128 -623t-365 -207q-179 0 -274.5 92.5t-131.5 268.5l-4 20h45l4 -20q64 -318 361 -318q440 0 452 777l-41 -105q-67 -102 -169 -156.5t-224 -54.5q-107 0 -193.5 39.5t-142 107.5t-85 156t-29.5 187q0 132 58.5 240.5t166.5 172.5
t244 64zM526 518q173 0 294.5 118.5t121.5 293.5q0 132 -45.5 237t-138.5 168.5t-219 63.5q-188 0 -303 -124.5t-115 -307.5q0 -196 111.5 -322.5t293.5 -126.5z" />
    <glyph glyph-name="colon" unicode=":" horiz-adv-x="307" 
d="M123 1106q17 0 29 -12t12 -29t-12 -29t-29 -12t-29 12t-12 29t12 29t29 12zM123 53q17 0 29 -12t12 -29t-12 -29t-29 -12t-29 12t-12 29t12 29t29 12z" />
    <glyph glyph-name="semicolon" unicode=";" horiz-adv-x="307" 
d="M123 1106q17 0 29 -12t12 -29t-12 -29t-29 -12t-29 12t-12 29t12 29t29 12zM139 39l-104 -277h-39l94 287h47z" />
    <glyph glyph-name="less" unicode="&#x3c;" 
d="M967 911l-760 -368l760 -369v-51l-822 399v41l822 400v-52z" />
    <glyph glyph-name="equal" unicode="=" 
d="M973 813h-860v43h860v-43zM973 444h-860v43h860v-43z" />
    <glyph glyph-name="greater" unicode="&#x3e;" 
d="M940 563v-41l-821 -399v51l760 369l-760 368v52z" />
    <glyph glyph-name="question" unicode="?" horiz-adv-x="1069" 
d="M530 1442q185 0 288.5 -103t103.5 -262q0 -202 -191 -383q-137 -131 -177 -220.5t-40 -248.5h-41q1 120 16.5 189t62 139t146.5 168q90 89 132 174t42 182q0 150 -93 236t-249 86q-171 0 -271 -105t-112 -282h-45q8 191 126 310.5t302 119.5zM496 53q17 0 29 -12t12 -29
t-12 -29t-29 -12t-29 12t-12 29t12 29t29 12z" />
    <glyph glyph-name="at" unicode="@" horiz-adv-x="1742" 
d="M1227 952l-103 -428q-26 -113 -26 -180q0 -70 43.5 -108.5t118.5 -38.5q137 0 230 134.5t93 350.5q0 294 -174 464.5t-459 170.5q-89 0 -180.5 -25t-178 -72t-162.5 -118.5t-132.5 -159t-89.5 -200.5t-33 -236q0 -161 53 -292t142 -213.5t202 -126.5t238 -44
q164 0 289.5 38.5t271.5 139.5l25 -39q-162 -109 -290.5 -145.5t-295.5 -36.5q-103 0 -201 27.5t-186 85.5t-154 140.5t-104.5 201t-38.5 258.5q0 157 48.5 296t131.5 240.5t190.5 175.5t227.5 111t240 37q298 0 483.5 -186t185.5 -482q0 -128 -31.5 -232.5t-84.5 -170
t-120 -100.5t-141 -35q-87 0 -146.5 46.5t-59.5 153.5l-37 -78q-104 -139 -248 -139q-46 0 -87 14.5t-80 47t-62 96t-23 151.5q0 144 56 268t156.5 199.5t221.5 75.5q104 0 154 -69l43 -107l33 139h51zM1090 571l18 82q28 122 -20 207.5t-150 85.5q-98 0 -184.5 -65
t-139.5 -179t-53 -247q0 -137 56 -206t155 -69q102 0 186.5 94t131.5 297z" />
    <glyph glyph-name="A" unicode="A" horiz-adv-x="1261" 
d="M965 551h-633l-211 -551h-47l547 1413h59l547 -1413h-49zM348 594h598l-297 780z" />
    <glyph glyph-name="B" unicode="B" horiz-adv-x="1202" 
d="M795 745q161 -24 244 -122.5t83 -247.5q0 -162 -113.5 -262t-279.5 -109q-51 -4 -139 -4h-393v1413h356q88 0 160 -4q162 -11 259 -99.5t97 -234.5q0 -133 -73 -221.5t-201 -108.5zM242 1370v-608h340q65 0 112 2q60 3 113.5 19.5t103.5 49.5t79.5 92.5t29.5 139.5
t-28.5 140t-77.5 93.5t-105.5 50.5t-122.5 19q-47 2 -133 2h-311zM715 45q69 5 130 25.5t113.5 58.5t83.5 101t31 143q0 51 -10.5 97t-36.5 90.5t-65.5 77t-102 54.5t-141.5 25q-47 2 -107 2h-368v-676h381q65 0 92 2z" />
    <glyph glyph-name="C" unicode="C" horiz-adv-x="1386" 
d="M745 1442q221 0 356.5 -124.5t176.5 -326.5l4 -20h-45l-4 20q-37 182 -165 295t-331 113q-112 0 -215.5 -45.5t-186 -130.5t-132 -219.5t-49.5 -298.5q0 -171 45.5 -305t124.5 -217t180 -126t217 -43q111 0 201 33t152.5 92t103 135.5t59.5 169.5l4 21h45l-4 -21
q-20 -102 -63.5 -186t-111.5 -149t-167.5 -101.5t-222.5 -36.5q-131 0 -243.5 50t-194.5 142t-128.5 231t-46.5 308q0 216 84.5 385.5t230.5 262t326 92.5z" />
    <glyph glyph-name="D" unicode="D" horiz-adv-x="1390" 
d="M754 1409q70 -5 142 -30t148 -79t135 -130t96.5 -195t37.5 -262q0 -142 -37 -261.5t-94 -196t-130 -132t-139.5 -82t-128.5 -33.5q-72 -8 -180 -8h-407v1413h407q99 0 150 -4zM778 51q69 8 136.5 38t131 85.5t112 130t77.5 180t29 228.5q0 107 -22 200.5t-61 162
t-89 122.5t-108.5 88.5t-116 54.5t-115.5 25q-45 4 -148 4h-362v-1327h362q106 0 174 8z" />
    <glyph glyph-name="E" unicode="E" horiz-adv-x="1140" 
d="M1075 41v-41h-878v1413h858v-41h-813v-645h772v-41h-772v-645h833z" />
    <glyph glyph-name="F" unicode="F" horiz-adv-x="1087" 
d="M242 1372v-645h751v-41h-751v-686h-45v1413h858v-41h-813z" />
    <glyph glyph-name="G" unicode="G" horiz-adv-x="1421" 
d="M776 629h522v-629h-45v377l-41 -133q-83 -140 -212.5 -206.5t-276.5 -66.5q-133 0 -246.5 50t-196.5 142t-129.5 230.5t-46.5 308.5q0 216 86.5 385.5t237.5 262t338 92.5q221 0 356 -124.5t176 -326.5l5 -20h-46l-4 20q-37 182 -165 295t-330 113q-118 0 -225 -45.5
t-192.5 -130.5t-136 -219.5t-50.5 -298.5q0 -171 45.5 -305t125.5 -217t182 -126t220 -43q68 0 137.5 17.5t140.5 60t125 106t88.5 164.5t34.5 226h-477v41z" />
    <glyph glyph-name="H" unicode="H" horiz-adv-x="1341" 
d="M1196 1413v-1413h-45v672h-909v-672h-45v1413h45v-698h909v698h45z" />
    <glyph glyph-name="I" unicode="I" horiz-adv-x="387" 
d="M242 0h-45v1413h45v-1413z" />
    <glyph glyph-name="J" unicode="J" horiz-adv-x="1013" 
d="M879 1413v-881q0 -104 -5 -186q-5 -73 -29.5 -138t-70 -119.5t-119 -86t-166.5 -31.5q-182 0 -283 106.5t-108 319.5l-2 62h45l2 -62q4 -103 32 -178.5t76.5 -119.5t108.5 -64.5t134 -20.5q149 0 235 88.5t100 249.5q5 56 5 164v897h45z" />
    <glyph glyph-name="K" unicode="K" horiz-adv-x="1132" 
d="M369 727l727 -727h-68l-694 698l-92 -86v-612h-45v1413h45v-749l807 749h59z" />
    <glyph glyph-name="L" unicode="L" horiz-adv-x="1103" 
d="M1075 41v-41h-878v1413h45v-1372h833z" />
    <glyph glyph-name="M" unicode="M" horiz-adv-x="1626" 
d="M1481 1413v-1413h-43v819q0 470 2 559q-125 -317 -228 -559l-346 -819h-57l-344 819q-133 319 -227 559q4 -178 4 -559v-819h-45v1413h71l572 -1370l575 1370h66z" />
    <glyph glyph-name="N" unicode="N" horiz-adv-x="1304" 
d="M1159 0h-69l-852 1372q4 -190 4 -604v-768h-45v1413h67l854 -1372q-4 190 -4 604v768h45v-1413z" />
    <glyph glyph-name="O" unicode="O" horiz-adv-x="1460" 
d="M743 1442q142 0 262 -55.5t202.5 -153t128.5 -233t46 -293.5q0 -210 -78.5 -377t-225 -263t-335.5 -96t-335.5 96t-225 263t-78.5 377q0 158 46 293.5t128.5 233t202.5 153t262 55.5zM743 14q119 0 225.5 47t187.5 133t129 219t48 294q0 130 -31 242t-86 194t-129 140
t-161.5 87t-182.5 29q-119 0 -225 -46.5t-187.5 -132t-129 -218.5t-47.5 -295q0 -161 47.5 -294t129 -219t187.5 -133t225 -47z" />
    <glyph glyph-name="P" unicode="P" horiz-adv-x="1067" 
d="M713 1403q74 -10 134 -35.5t107.5 -69t74 -111.5t26.5 -155q0 -175 -94.5 -273t-247.5 -118q-83 -10 -203 -10h-268v-631h-45v1413h313q120 0 203 -10zM705 684q137 16 219 102t82 246q0 151 -81.5 231.5t-219.5 96.5q-82 10 -195 10h-268v-696h268q112 0 195 10z" />
    <glyph glyph-name="Q" unicode="Q" horiz-adv-x="1464" 
d="M1382 707q0 -455 -338 -658q91 -3 155.5 -30.5t143.5 -90.5l-28 -34q-78 62 -143.5 86t-145.5 24q-52 0 -137 -18q-73 -15 -146 -15q-189 0 -335.5 96t-225 263t-78.5 377q0 158 46 293.5t128.5 233t202.5 153t262 55.5t262 -55.5t202.5 -153t128.5 -233t46 -293.5z
M154 707q0 -161 47.5 -294t129 -219t187.5 -133t225 -47t225.5 47t187.5 133t129 219t48 294q0 130 -31 242t-86 194t-129 140t-161.5 87t-182.5 29q-119 0 -225 -46.5t-187.5 -132t-129 -218.5t-47.5 -295z" />
    <glyph glyph-name="R" unicode="R" horiz-adv-x="1169" 
d="M1010 387q17 -146 38.5 -228.5t55.5 -158.5h-53q-1 3 -9 26.5t-9.5 28l-9 27t-10 31.5t-8.5 32t-9 37.5t-8.5 39t-9 46.5t-7.5 50.5t-8 58.5q-15 132 -79 219.5t-184 93.5q-45 2 -129 2h-329v-692h-45v1413h342q119 0 202 -10q166 -20 254 -107.5t88 -238.5
q0 -135 -78.5 -227t-216.5 -117q96 -27 152 -113t70 -213zM242 735h329q88 0 154 4q143 10 226 96.5t83 219.5q0 266 -301 305q-83 10 -194 10h-297v-635z" />
    <glyph glyph-name="S" unicode="S" horiz-adv-x="1146" 
d="M582 1442q188 0 299 -110t133 -279h-45q-27 161 -132.5 253.5t-256.5 92.5q-69 0 -136.5 -20t-123.5 -57t-90.5 -97t-34.5 -133q0 -51 10 -90.5t33.5 -72t53.5 -57t79.5 -47.5t101.5 -41.5t129 -40.5q231 -66 333.5 -154t102.5 -247q0 -158 -130.5 -264.5t-327.5 -106.5
q-198 0 -338.5 102t-161.5 296h45q20 -167 149 -261t308 -94q175 0 291 91.5t116 232.5q0 76 -22 130t-75 95.5t-124.5 71.5t-185.5 63q-120 34 -197 67t-134 78t-81.5 104t-24.5 140q0 101 60.5 183t160.5 127t216 45z" />
    <glyph glyph-name="T" unicode="T" horiz-adv-x="1187" 
d="M1192 1372h-541v-1372h-45v1372h-540v41h1126v-41z" />
    <glyph glyph-name="U" unicode="U" horiz-adv-x="1228" 
d="M1094 1413v-936q0 -27 -7 -137q-11 -168 -126.5 -268.5t-321.5 -100.5t-322 100.5t-127 268.5q-6 95 -6 137v936h45v-944q0 -52 7 -127q6 -69 32.5 -126.5t74 -103.5t123.5 -72t173 -26t173 26t123.5 72t74 103.5t32.5 126.5q7 75 7 127v944h45z" />
    <glyph glyph-name="V" unicode="V" horiz-adv-x="1193" 
d="M662 0h-62l-547 1413h49l529 -1374l528 1374h49z" />
    <glyph glyph-name="W" unicode="W" horiz-adv-x="1685" 
d="M1692 1413l-381 -1413h-58l-379 1343l-407 -1343h-59l-355 1413h47l340 -1368l404 1348h61l377 -1344l365 1364h45z" />
    <glyph glyph-name="X" unicode="X" horiz-adv-x="1171" 
d="M623 707l516 -707h-62l-481 674l-481 -674h-58l508 705l-473 708h51l451 -670l498 670h59z" />
    <glyph glyph-name="Y" unicode="Y" horiz-adv-x="1116" 
d="M594 578v-578h-45v578l-502 835h53l473 -788l469 788h56z" />
    <glyph glyph-name="Z" unicode="Z" horiz-adv-x="1099" 
d="M1049 43v-43h-975v35l909 1335h-852v43h905v-41l-905 -1329h918z" />
    <glyph glyph-name="bracketleft" unicode="[" horiz-adv-x="636" 
d="M584 1597v-43h-269v-1675h269v-43h-314v1761h314z" />
    <glyph glyph-name="backslash" unicode="\" horiz-adv-x="538" 
d="M549 -61h-45l-514 1536h45z" />
    <glyph glyph-name="bracketright" unicode="]" horiz-adv-x="636" 
d="M367 -164h-314v43h269v1675h-269v43h314v-1761z" />
    <glyph glyph-name="asciicircum" unicode="^" 
d="M872 440l-325 779l-330 -779h-49l352 822h55l349 -822h-52z" />
    <glyph glyph-name="underscore" unicode="_" horiz-adv-x="1024" 
d="M922 -164h-820v43h820v-43z" />
    <glyph glyph-name="grave" unicode="`" horiz-adv-x="614" 
d="M332 1188h-39l-141 225h57z" />
    <glyph glyph-name="a" unicode="a" horiz-adv-x="1011" 
d="M838 0l-15 264l-47 -108q-56 -90 -147 -137.5t-201 -47.5q-157 0 -244.5 73.5t-87.5 215.5q0 91 54.5 162t148 113.5t208.5 64t245 21.5h69v55q0 92 -4 139q-10 121 -87 184.5t-210 63.5q-81 0 -150 -27t-122.5 -92.5t-65.5 -161.5h-45q9 137 117 230.5t266 93.5
q157 0 244 -74.5t98 -210.5q4 -55 4 -141v-332q0 -125 19 -348h-47zM434 14q112 0 202 59.5t137.5 153.5t47.5 201v147q-122 8 -239 -6.5t-216.5 -50t-160 -102t-60.5 -154.5q0 -116 72.5 -182t216.5 -66z" />
    <glyph glyph-name="b" unicode="b" horiz-adv-x="1114" 
d="M588 1106q209 0 337 -155.5t128 -403.5q0 -139 -40 -250t-108 -181.5t-155.5 -107.5t-186.5 -37q-102 0 -174 33t-139 107l-60 135v-246h-45v1505h45v-674l58 123q70 84 148.5 118t191.5 34zM563 14q194 0 317.5 147t123.5 378q0 107 -28 201.5t-79.5 166.5t-132.5 114
t-180 42q-66 0 -123 -15t-107.5 -50t-86.5 -88.5t-56.5 -135t-20.5 -184.5v-121q0 -126 34 -218.5t90.5 -142t118.5 -72t130 -22.5z" />
    <glyph glyph-name="c" unicode="c" horiz-adv-x="1058" 
d="M555 1106q173 0 290 -100t140 -263h-45q-27 150 -127.5 236t-261.5 86q-78 0 -154.5 -32.5t-141 -94t-104.5 -163t-40 -226.5q0 -132 36.5 -237t98.5 -169t138 -97.5t159 -33.5q144 0 251.5 82.5t137.5 227.5h45q-32 -162 -151.5 -256.5t-286.5 -94.5q-99 0 -186 39
t-152 110.5t-102.5 179.5t-37.5 239q0 254 143 410.5t351 156.5z" />
    <glyph glyph-name="d" unicode="d" horiz-adv-x="1114" 
d="M969 1505v-1505h-45v246l-58 -123q-70 -84 -148.5 -118t-191.5 -34q-209 0 -337 155.5t-128 403.5q0 139 40 250t108 181.5t155.5 107.5t186.5 37q102 0 174 -32.5t139 -106.5l60 -136v674h45zM530 14q66 0 123 15t107.5 50t86.5 88.5t56.5 135t20.5 184.5v121
q0 126 -34 218.5t-90.5 142t-118.5 72t-130 22.5q-194 0 -317 -146.5t-123 -377.5q0 -144 47 -261.5t144 -190.5t228 -73z" />
    <glyph glyph-name="e" unicode="e" horiz-adv-x="1067" 
d="M993 567q0 -16 -2 -39h-882q3 -134 40.5 -236.5t98 -161t131.5 -87.5t149 -29q136 0 247.5 80t156.5 236h45q-48 -173 -171 -266t-282 -93q-95 0 -178 37t-147 107t-101 180.5t-37 247.5q0 250 138 406.5t342 156.5q90 0 165.5 -30.5t127.5 -82t88.5 -121t53.5 -146.5
t17 -159zM537 1063q-58 0 -116.5 -18.5t-114 -58t-98.5 -96t-70 -139t-29 -180.5h839q-2 108 -28 194t-66.5 140.5t-94.5 91t-109 51.5t-113 15z" />
    <glyph glyph-name="f" unicode="f" horiz-adv-x="471" 
d="M217 1343q-4 -45 -4 -102v-172h219v-43h-219v-1026h-45v1026h-117v43h117v172q0 66 4 109q8 95 62.5 144.5t123.5 49.5q51 0 97 -10v-43q-113 28 -171.5 -15.5t-66.5 -132.5z" />
    <glyph glyph-name="g" unicode="g" horiz-adv-x="1114" 
d="M969 1085v-798q0 -254 -2 -324q-6 -187 -123.5 -300.5t-319.5 -113.5q-78 0 -144 17t-123 53t-94.5 101t-49.5 153l-4 31h45l4 -31q10 -75 44 -131t85 -88t111 -47t130 -15q185 0 287 105.5t107 279.5q2 72 2 228v41l-58 -123q-70 -84 -148.5 -118t-191.5 -34
q-209 0 -337 155.5t-128 403.5q0 139 40 250t108 181.5t155.5 107.5t186.5 37q102 0 174 -32.5t139 -106.5l60 -136v254h45zM530 14q66 0 123 15t107.5 50t86.5 88.5t56.5 135t20.5 184.5v121q0 126 -34 218.5t-90.5 142t-118.5 72t-130 22.5q-194 0 -317 -146.5
t-123 -377.5q0 -144 47 -261.5t144 -190.5t228 -73z" />
    <glyph glyph-name="h" unicode="h" 
d="M942 774q8 -73 8 -176v-598h-45v580q0 105 -8 178q-16 143 -97 224t-229 81q-75 0 -142.5 -26.5t-121.5 -77.5t-85.5 -133.5t-31.5 -186.5v-639h-45v1516h45v-685l43 107q59 83 147.5 125.5t190.5 42.5q162 0 258 -86.5t113 -245.5z" />
    <glyph glyph-name="i" unicode="i" horiz-adv-x="335" 
d="M168 1337q17 0 29 -12t12 -29t-12 -29t-29 -12t-29 12t-12 29t12 29t29 12zM190 0h-45v1077h45v-1077z" />
    <glyph glyph-name="j" unicode="j" horiz-adv-x="319" 
d="M154 1337q17 0 29 -12t12 -29t-12 -29t-29 -12t-29 12t-12 29t12 29t29 12zM176 1077v-1227q0 -69 -2 -106q-4 -86 -51.5 -130t-116.5 -44q-36 0 -72 8v39q92 -16 141.5 12t53.5 119q2 29 2 80v1249h45z" />
    <glyph glyph-name="k" unicode="k" horiz-adv-x="937" 
d="M283 524l-93 -84v-440h-45v1505h45v-1011l635 583h68l-574 -522l576 -555h-68z" />
    <glyph glyph-name="l" unicode="l" horiz-adv-x="354" 
d="M184 1505v-1259q0 -113 2 -142q3 -50 27 -64.5t88 -6.5v-39q-20 -4 -59 -4q-46 0 -72 23t-29 81q-2 41 -2 152v1259h45z" />
    <glyph glyph-name="m" unicode="m" horiz-adv-x="1656" 
d="M1513 774q9 -82 9 -176v-598h-45v580q0 96 -9 178q-16 144 -84.5 225.5t-195.5 81.5q-144 0 -238 -114t-94 -333v-618h-45v580q0 105 -8 178q-16 144 -85 225.5t-196 81.5q-144 0 -238 -114t-94 -333v-618h-45v1077h45v-229l50 117q109 141 284 141q130 0 210.5 -73
t105.5 -208l65 140q109 141 285 141q143 0 224 -85.5t99 -246.5z" />
    <glyph glyph-name="n" unicode="n" 
d="M942 774q8 -73 8 -176v-598h-45v580q0 105 -8 178q-16 143 -97 224t-229 81q-75 0 -142.5 -26.5t-121.5 -77.5t-85.5 -133.5t-31.5 -186.5v-639h-45v1077h45v-246l43 107q59 83 147.5 125.5t190.5 42.5q162 0 258 -86.5t113 -245.5z" />
    <glyph glyph-name="o" unicode="o" horiz-adv-x="1134" 
d="M567 1106q227 0 366.5 -156.5t139.5 -412.5q0 -255 -139.5 -410.5t-366.5 -155.5t-366.5 155.5t-139.5 410.5q0 256 139.5 412.5t366.5 156.5zM567 14q90 0 170 32t145.5 94t103.5 164.5t38 232.5q0 131 -38 234t-103.5 165.5t-145.5 94.5t-170 32t-170 -32t-145 -94.5
t-103 -165.5t-38 -234q0 -130 38 -232.5t103 -164.5t145 -94t170 -32z" />
    <glyph glyph-name="p" unicode="p" horiz-adv-x="1114" 
d="M588 1106q209 0 337 -155.5t128 -403.5q0 -139 -40 -250t-108 -181.5t-155.5 -107.5t-186.5 -37q-102 0 -174 33t-139 107l-60 135v-647h-45v1495h45v-263l58 123q70 84 148.5 118t191.5 34zM563 14q194 0 317.5 147t123.5 378q0 107 -28 201.5t-79.5 166.5t-132.5 114
t-180 42q-66 0 -123 -15t-107.5 -50t-86.5 -88.5t-56.5 -135t-20.5 -184.5v-121q0 -126 34 -218.5t90.5 -142t118.5 -72t130 -22.5z" />
    <glyph glyph-name="q" unicode="q" horiz-adv-x="1116" 
d="M971 1094v-1495h-45v651l-60 -127q-70 -84 -148.5 -118t-191.5 -34q-209 0 -337 155.5t-128 403.5q0 139 40 250t108 181.5t155.5 107.5t186.5 37q102 0 174 -32.5t139 -106.5l62 -140v267h45zM926 465v156l-2 -13q0 126 -34 218.5t-90.5 142t-118.5 72t-130 22.5
q-194 0 -317 -146.5t-123 -377.5q0 -144 47 -261.5t144 -190.5t228 -73q66 0 123 15t107.5 50t86.5 88.5t56.5 135t20.5 184.5z" />
    <glyph glyph-name="r" unicode="r" horiz-adv-x="526" 
d="M477 1106q33 0 47 -2v-41q-156 13 -245 -102t-89 -371v-590h-45v1077h45v-231l43 123q43 65 106.5 101t137.5 36z" />
    <glyph glyph-name="s" unicode="s" horiz-adv-x="890" 
d="M440 1106q81 0 146.5 -25t109 -69.5t71 -101.5t38.5 -126h-45q-34 142 -112.5 210.5t-209.5 68.5q-119 0 -202.5 -66t-83.5 -180q0 -106 74 -161.5t218 -88.5q194 -43 282.5 -113t88.5 -200q0 -128 -101 -205.5t-261 -77.5q-161 0 -271 86.5t-129 261.5h45
q47 -305 359 -305q134 0 222.5 62.5t88.5 175.5q0 112 -74.5 169.5t-269.5 102.5q-55 13 -99 28t-86.5 39t-71 54t-46 73.5t-17.5 96.5q0 125 94.5 208t241.5 83z" />
    <glyph glyph-name="t" unicode="t" horiz-adv-x="483" 
d="M233 145q6 -81 52 -107t164 -9v-37q-41 -6 -103 -6q-144 0 -156 139q-4 49 -4 145v762h-129v37h129v221h45v-221h211v-37h-211v-770q0 -88 2 -117z" />
    <glyph glyph-name="u" unicode="u" horiz-adv-x="1077" 
d="M932 1077v-1077h-45v246l-43 -107q-59 -83 -147.5 -125.5t-190.5 -42.5q-162 0 -258 86.5t-113 245.5q-8 73 -8 176v598h45v-579q0 -106 8 -179q16 -143 97 -224t229 -81q75 0 142.5 26.5t121.5 77.5t85.5 133.5t31.5 186.5v639h45z" />
    <glyph glyph-name="v" unicode="v" horiz-adv-x="958" 
d="M942 1077l-426 -1077h-63l-426 1077h51l407 -1038l406 1038h51z" />
    <glyph glyph-name="w" unicode="w" horiz-adv-x="1466" 
d="M1450 1077l-340 -1077h-57l-308 1022l-307 -1022h-69l-342 1077h51l325 -1032l310 1028h63l309 -1022l316 1026h49z" />
    <glyph glyph-name="x" unicode="x" horiz-adv-x="854" 
d="M446 541l381 -541h-57l-350 510l-359 -510h-55l383 541l-366 536h53l344 -504l352 504h55z" />
    <glyph glyph-name="y" unicode="y" horiz-adv-x="935" 
d="M920 1077l-416 -1077q-53 -139 -98 -226.5t-87.5 -131t-79 -58t-85.5 -14.5q-41 0 -72 8v41q36 -8 80 -8q67 0 127 62t125 221l35 86l-422 1097h51l395 -1040l395 1040h52z" />
    <glyph glyph-name="z" unicode="z" horiz-adv-x="909" 
d="M864 39v-39h-837v37l772 981h-717v43h776v-41l-774 -981h780z" />
    <glyph glyph-name="braceleft" unicode="{" horiz-adv-x="606" 
d="M582 1554h-37q-103 0 -160 -41.5t-57 -140.5q0 -35 20 -194q23 -172 23 -246q0 -73 -35 -133t-117 -80q57 -14 92.5 -53t47.5 -79.5t12 -84.5q0 -74 -23 -246q-20 -159 -20 -195q0 -99 57 -140.5t160 -41.5h37v-43h-35q-264 0 -264 227q0 60 22 213q21 156 21 226
q0 75 -40 129.5t-126 62.5v45q44 4 77.5 22t52 45.5t27.5 59t9 66.5q0 69 -21 225q-22 153 -22 213q0 227 264 227h35v-43z" />
    <glyph glyph-name="bar" unicode="|" horiz-adv-x="512" 
d="M279 -410h-46v2048h46v-2048z" />
    <glyph glyph-name="braceright" unicode="}" horiz-adv-x="606" 
d="M281 932q0 -35 9 -66.5t27.5 -59t51.5 -45.5t77 -22v-45q-58 -6 -96.5 -35.5t-53.5 -69t-15 -87.5q0 -77 20 -226q23 -160 23 -213q0 -227 -265 -227h-34v43h36q218 0 218 182q0 28 -21 195q-22 165 -22 246q0 73 34.5 133t116.5 80q-57 14 -92.5 53t-47 79t-11.5 85
q0 81 22 246q21 166 21 194q0 182 -218 182h-36v43h34q265 0 265 -227q0 -53 -23 -213q-20 -149 -20 -225z" />
    <glyph glyph-name="asciitilde" unicode="~" 
d="M930 717h43q0 -240 -178 -240q-58 0 -107 17.5t-158 78.5q-99 55 -147 74t-94 19q-131 0 -131 -197h-43q0 240 176 240q58 0 107 -18t159 -79q100 -56 147 -74t93 -18q133 0 133 197z" />
    <glyph glyph-name="exclamdown" unicode="&#xa1;" horiz-adv-x="413" 
d="M207 1032q-17 0 -29 12t-12 29t12 29t29 12t29 -12t12 -29t-12 -29t-29 -12zM186 860h41l9 -1188h-58z" />
    <glyph glyph-name="cent" unicode="&#xa2;" 
d="M588 1073v-1061q138 6 240 87.5t130 222.5h46q-31 -156 -144 -250.5t-272 -100.5v-155h-45v155q-197 9 -326 163.5t-129 408.5q0 122 35.5 226t97.5 176t145 116t177 51v158h45v-156q170 -1 285.5 -101t138.5 -261h-45q-27 148 -124.5 233t-254.5 88zM137 553
q0 -127 34 -229.5t91.5 -167.5t129 -102t151.5 -42v1059q-75 -7 -146 -43.5t-130 -98.5t-94.5 -160t-35.5 -216z" />
    <glyph glyph-name="sterling" unicode="&#xa3;" 
d="M971 43v-43h-858v41q62 18 117 49t101.5 77t73.5 111t27 142q0 73 -25.5 142.5t-80.5 158.5h-195v43h168q-96 157 -96 309q0 162 109 265.5t272 103.5q183 0 277.5 -109t107.5 -293h-45q-11 173 -98.5 266t-245.5 93q-135 0 -231.5 -90.5t-96.5 -233.5q0 -77 24.5 -150
t77.5 -161h482v-43h-455q100 -153 100 -301q0 -123 -67.5 -220.5t-196.5 -156.5h754z" />
    <glyph glyph-name="currency" unicode="&#xa4;" 
d="M903 616q0 -146 -88 -247l117 -117l-33 -33l-117 117q-101 -88 -239 -88q-139 0 -240 88l-117 -117l-32 33l116 117q-88 101 -88 247q0 147 88 248l-116 117l32 33l117 -117q101 88 240 88q138 0 239 -88l117 117l33 -33l-117 -117q88 -101 88 -248zM543 291
q135 0 223 93t88 232t-88 232.5t-223 93.5t-223.5 -93.5t-88.5 -232.5t88 -232t224 -93z" />
    <glyph glyph-name="yen" unicode="&#xa5;" 
d="M588 700h354v-43h-377v-161h377v-43h-377v-453h-45v453h-377v43h377v161h-377v43h353l-453 713h61l439 -706l438 706h57z" />
    <glyph glyph-name="brokenbar" unicode="&#xa6;" horiz-adv-x="512" 
d="M279 717h-46v696h46v-696zM279 -328h-46v697h46v-697z" />
    <glyph glyph-name="section" unicode="&#xa7;" 
d="M1022 530q0 -135 -89 -215t-228 -102q112 -47 162.5 -116.5t50.5 -172.5q0 -127 -103 -203.5t-264 -76.5q-326 0 -399 338h45q74 -295 358 -295q133 0 223 63t90 170q0 81 -32 134.5t-119.5 97t-243.5 77.5q-68 15 -130.5 42t-119 67.5t-90 100.5t-33.5 130q0 133 83 212
t214 104q-194 84 -194 266q0 132 92.5 211.5t241.5 79.5q159 0 249.5 -86.5t118.5 -231.5h-45q-36 139 -115 207t-210 68q-119 0 -201 -63.5t-82 -178.5q0 -218 344 -280q198 -36 312 -121t114 -226zM621 244q66 1 126.5 17.5t112 49t82.5 88t31 127.5q0 120 -100 192.5
t-300 112.5q-22 4 -108 27q-47 -5 -89 -15.5t-84.5 -32.5t-73 -52.5t-49.5 -77.5t-19 -105q0 -79 51.5 -143.5t126.5 -101.5t166 -56q66 -11 127 -30z" />
    <glyph glyph-name="dieresis" unicode="&#xa8;" horiz-adv-x="614" 
d="M225 1337q17 0 29 -12t12 -29t-12 -29t-29 -12t-29 12t-12 29t12 29t29 12zM389 1337q17 0 29 -12t12 -29t-12 -29t-29 -12t-29 12t-12 29t12 29t29 12z" />
    <glyph glyph-name="copyright" unicode="&#xa9;" horiz-adv-x="1716" 
d="M858 1487q153 0 291 -59.5t237.5 -161t157.5 -242.5t58 -297t-58 -297t-157.5 -242.5t-237.5 -161t-291 -59.5q-205 0 -375.5 101t-269 275.5t-98.5 383.5t98.5 383.5t269 275.5t375.5 101zM858 1442q-191 0 -352 -95.5t-253.5 -260t-92.5 -359.5t92.5 -359t253.5 -259
t352 -95t352 95t253.5 259t92.5 359t-92.5 359.5t-253.5 260t-352 95.5zM864 1155q134 0 225 -73t109 -210h-45q-23 113 -95.5 176.5t-193.5 63.5q-145 0 -233 -112.5t-88 -270.5q0 -163 88 -272t225 -109q243 0 295 238h45q-27 -138 -117.5 -209.5t-228.5 -71.5
q-147 0 -249.5 116t-102.5 306q0 194 105 311t261 117z" />
    <glyph glyph-name="guillemotleft" unicode="&#xab;" horiz-adv-x="1028" 
d="M625 848l-281 -340l281 -340h-60l-280 340l280 340h60zM870 848l-280 -340l280 -340h-59l-281 340l281 340h59z" />
    <glyph glyph-name="logicalnot" unicode="&#xac;" 
d="M895 430h-45v275h-674v43h719v-318z" />
    <glyph glyph-name="registered" unicode="&#xae;" horiz-adv-x="1069" 
d="M535 1565q189 0 309.5 -120t120.5 -308q0 -190 -120.5 -311t-309.5 -121t-310 121t-121 311q0 188 121 308t310 120zM535 748q168 0 275.5 109t107.5 280q0 169 -107 277t-276 108t-276 -108t-107 -277q0 -171 107.5 -280t275.5 -109zM596 1124q44 -18 53 -80
q10 -66 37 -110h-49q-22 45 -31 104q-5 32 -19 47t-46 15h-84v-166h-41v418h102q29 0 47 -2q115 -13 115 -121q0 -40 -22 -67t-62 -38zM457 1139h57q35 0 47 2q33 5 54.5 26t21.5 56q0 40 -21.5 61.5t-52.5 26.5q-12 2 -33 2h-73v-174z" />
    <glyph glyph-name="macron" unicode="&#xaf;" horiz-adv-x="614" 
d="M451 1270h-287v43h287v-43z" />
    <glyph glyph-name="degree" unicode="&#xb0;" horiz-adv-x="565" 
d="M283 1442q91 0 150 -58t59 -149t-59 -149t-150 -58t-150 58t-59 149t59 149t150 58zM283 1399q-72 0 -117 -45.5t-45 -118.5t45 -118.5t117 -45.5t116.5 45.5t44.5 118.5t-44.5 118.5t-116.5 45.5z" />
    <glyph glyph-name="plusminus" unicode="&#xb1;" 
d="M535 672h387v-43h-387v-430h-46v430h-387v43h387v430h46v-430zM922 0h-820v43h820v-43z" />
    <glyph glyph-name="acute" unicode="&#xb4;" horiz-adv-x="614" 
d="M322 1188h-39l123 225h57z" />
    <glyph glyph-name="paragraph" unicode="&#xb6;" horiz-adv-x="1083" 
d="M938 1413v-1638h-45v1595h-262v-1595h-45v880h-47q-80 0 -115 2q-151 9 -236.5 116.5t-85.5 260.5t85.5 260.5t236.5 116.5q35 2 115 2h399z" />
    <glyph glyph-name="periodcentered" unicode="&#xb7;" horiz-adv-x="278" 
d="M139 670q20 0 32.5 -12.5t12.5 -32.5t-12.5 -32.5t-32.5 -12.5t-32.5 12.5t-12.5 32.5t12.5 32.5t32.5 12.5z" />
    <glyph glyph-name="cedilla" unicode="&#xb8;" horiz-adv-x="614" 
d="M338 14l-64 -118q181 -16 181 -158q0 -83 -61.5 -125.5t-145.5 -42.5q-68 0 -109 20v45q43 -22 109 -22q72 0 116 32t44 93q0 62 -49.5 93.5t-151.5 27.5l80 155h51z" />
    <glyph glyph-name="guillemotright" unicode="&#xbb;" horiz-adv-x="1028" 
d="M498 508l-281 -340h-59l280 340l-280 340h59zM743 508l-280 -340h-60l281 340l-281 340h60z" />
    <glyph glyph-name="questiondown" unicode="&#xbf;" horiz-adv-x="966" 
d="M573 1022q-17 0 -29 12t-12 29t12 29t29 12t29 -12t12 -29t-12 -29t-29 -12zM539 -367q-185 0 -288.5 103t-103.5 262q0 202 191 383q137 131 177 220.5t40 248.5h41q-1 -120 -16.5 -189t-62 -139t-146.5 -168q-90 -89 -132 -174t-42 -182q0 -150 93 -236t249 -86
q171 0 271 105t112 282h45q-8 -191 -126 -310.5t-302 -119.5z" />
    <glyph glyph-name="Agrave" unicode="&#xc0;" horiz-adv-x="1261" 
d="M629 1507l-127 193h57l109 -193h-39zM965 551h-633l-211 -551h-47l547 1413h59l547 -1413h-49zM348 594h598l-297 780z" />
    <glyph glyph-name="Aacute" unicode="&#xc1;" horiz-adv-x="1261" 
d="M664 1507h-39l108 193h58zM965 551h-633l-211 -551h-47l547 1413h59l547 -1413h-49zM348 594h598l-297 780z" />
    <glyph glyph-name="Acircumflex" unicode="&#xc2;" horiz-adv-x="1261" 
d="M541 1507h-47l133 193h47l133 -193h-49l-109 164zM965 551h-633l-211 -551h-47l547 1413h59l547 -1413h-49zM348 594h598l-297 780z" />
    <glyph glyph-name="Atilde" unicode="&#xc3;" horiz-adv-x="1261" 
d="M543 1610q-33 0 -33 -43h-41q0 84 74 84q33 0 116 -27q77 -25 97 -25q32 0 32 43h41q0 -83 -73 -83q-38 0 -117 26q-77 25 -96 25zM965 551h-633l-211 -551h-47l547 1413h59l547 -1413h-49zM348 594h598l-297 780z" />
    <glyph glyph-name="Adieresis" unicode="&#xc4;" horiz-adv-x="1261" 
d="M578 1563q-17 0 -29 12t-12 29t12 29t29 12t28.5 -12t11.5 -29t-11.5 -29t-28.5 -12zM721 1563q-17 0 -29 12t-12 29t12 29t29 12t29 -12t12 -29t-12 -29t-29 -12zM965 551h-633l-211 -551h-47l547 1413h59l547 -1413h-49zM348 594h598l-297 780z" />
    <glyph glyph-name="Aring" unicode="&#xc5;" horiz-adv-x="1261" 
d="M649 1479q-54 0 -91.5 34t-37.5 91t37.5 91t91.5 34t91.5 -34t37.5 -91t-37.5 -91t-91.5 -34zM649 1686q-37 0 -58.5 -23.5t-21.5 -58.5t21.5 -58.5t58.5 -23.5t58.5 23.5t21.5 58.5t-21.5 58.5t-58.5 23.5zM965 551h-633l-211 -551h-47l547 1413h59l547 -1413h-49z
M348 594h598l-297 780z" />
    <glyph glyph-name="AE" unicode="&#xc6;" horiz-adv-x="1837" 
d="M1772 41v-41h-824l-24 551h-547l-344 -551h-53l888 1413h883v-41h-817l29 -645h747v-41h-747l28 -645h781zM924 594l-35 774l-483 -774h518z" />
    <glyph glyph-name="Ccedilla" unicode="&#xc7;" horiz-adv-x="1386" 
d="M1286 465l-4 -21q-41 -206 -175.5 -335t-361.5 -138l-40 -75q180 -16 180 -158q0 -83 -61.5 -125.5t-145.5 -42.5q-68 0 -109 20v45q43 -22 109 -22q72 0 116 32t44 93q0 62 -49.5 93.5t-151.5 27.5l57 112q-127 5 -235 56.5t-187 143.5t-123.5 228.5t-44.5 302.5
q0 216 84.5 385.5t230.5 262t326 92.5q221 0 356.5 -124.5t176.5 -326.5l4 -20h-45l-4 20q-37 182 -165 295t-331 113q-112 0 -215.5 -45.5t-186 -130.5t-132 -219.5t-49.5 -298.5q0 -171 45.5 -305t124.5 -217t180 -126t217 -43q111 0 201 33t152.5 92t103 135.5
t59.5 169.5l4 21h45z" />
    <glyph glyph-name="Egrave" unicode="&#xc8;" horiz-adv-x="1140" 
d="M573 1507l-127 193h58l108 -193h-39zM1075 41v-41h-878v1413h858v-41h-813v-645h772v-41h-772v-645h833z" />
    <glyph glyph-name="Eacute" unicode="&#xc9;" horiz-adv-x="1140" 
d="M608 1507h-39l109 193h57zM1075 41v-41h-878v1413h858v-41h-813v-645h772v-41h-772v-645h833z" />
    <glyph glyph-name="Ecircumflex" unicode="&#xca;" horiz-adv-x="1140" 
d="M485 1507h-47l133 193h47l134 -193h-50l-108 164zM1075 41v-41h-878v1413h858v-41h-813v-645h772v-41h-772v-645h833z" />
    <glyph glyph-name="Edieresis" unicode="&#xcb;" horiz-adv-x="1140" 
d="M522 1563q-17 0 -29 12t-12 29t12 29t29 12t29 -12t12 -29t-12 -29t-29 -12zM666 1563q-17 0 -29 12t-12 29t12 29t29 12t29 -12t12 -29t-12 -29t-29 -12zM1075 41v-41h-878v1413h858v-41h-813v-645h772v-41h-772v-645h833z" />
    <glyph glyph-name="Igrave" unicode="&#xcc;" horiz-adv-x="387" 
d="M238 1507h-39l-127 193h57zM242 0h-45v1413h45v-1413z" />
    <glyph glyph-name="Iacute" unicode="&#xcd;" horiz-adv-x="387" 
d="M233 1507h-38l108 193h57zM242 0h-45v1413h45v-1413z" />
    <glyph glyph-name="Icircumflex" unicode="&#xce;" horiz-adv-x="387" 
d="M377 1507h-49l-109 164l-108 -164h-48l134 193h47zM197 1413h45v-1413h-45v1413z" />
    <glyph glyph-name="Idieresis" unicode="&#xcf;" horiz-adv-x="387" 
d="M147 1645q17 0 29 -12t12 -29t-12 -29t-29 -12t-29 12t-12 29t12 29t29 12zM291 1645q17 0 29 -12t12 -29t-12 -29t-29 -12t-29 12t-12 29t12 29t29 12zM242 0h-45v1413h45v-1413z" />
    <glyph glyph-name="Eth" unicode="&#xd0;" horiz-adv-x="1402" 
d="M766 1409q70 -5 142 -30t148 -79t135 -130t96.5 -195t37.5 -262q0 -103 -19.5 -194.5t-52 -159.5t-76.5 -125t-92 -96t-100.5 -67t-98.5 -43t-89 -20q-72 -8 -181 -8h-407v662h-123v43h123v708h407q99 0 150 -4zM791 51q57 7 113.5 29.5t111 59.5t101.5 93t82.5 125.5
t56 160.5t20.5 194q0 107 -22 200.5t-61 162t-89 122.5t-108.5 88.5t-116 54.5t-115.5 25q-45 4 -148 4h-362v-665h377v-43h-377v-619h362q107 0 175 8z" />
    <glyph glyph-name="Ntilde" unicode="&#xd1;" horiz-adv-x="1304" 
d="M571 1651q35 0 117 -27q77 -25 96 -25q33 0 33 43h41q0 -83 -74 -83q-37 0 -116 26q-77 25 -97 25q-32 0 -32 -43h-41q0 84 73 84zM1159 0h-69l-852 1372q4 -190 4 -604v-768h-45v1413h67l854 -1372q-4 190 -4 604v768h45v-1413z" />
    <glyph glyph-name="Ograve" unicode="&#xd2;" horiz-adv-x="1460" 
d="M723 1507l-127 193h57l109 -193h-39zM743 1442q142 0 262 -55.5t202.5 -153t128.5 -233t46 -293.5q0 -210 -78.5 -377t-225 -263t-335.5 -96t-335.5 96t-225 263t-78.5 377q0 158 46 293.5t128.5 233t202.5 153t262 55.5zM743 14q119 0 225.5 47t187.5 133t129 219
t48 294q0 130 -31 242t-86 194t-129 140t-161.5 87t-182.5 29q-119 0 -225 -46.5t-187.5 -132t-129 -218.5t-47.5 -295q0 -161 47.5 -294t129 -219t187.5 -133t225 -47z" />
    <glyph glyph-name="Oacute" unicode="&#xd3;" horiz-adv-x="1460" 
d="M758 1507h-39l108 193h58zM743 1442q142 0 262 -55.5t202.5 -153t128.5 -233t46 -293.5q0 -210 -78.5 -377t-225 -263t-335.5 -96t-335.5 96t-225 263t-78.5 377q0 158 46 293.5t128.5 233t202.5 153t262 55.5zM743 14q119 0 225.5 47t187.5 133t129 219t48 294
q0 130 -31 242t-86 194t-129 140t-161.5 87t-182.5 29q-119 0 -225 -46.5t-187.5 -132t-129 -218.5t-47.5 -295q0 -161 47.5 -294t129 -219t187.5 -133t225 -47z" />
    <glyph glyph-name="Ocircumflex" unicode="&#xd4;" horiz-adv-x="1460" 
d="M635 1507h-47l133 193h47l133 -193h-49l-109 164zM743 1442q142 0 262 -55.5t202.5 -153t128.5 -233t46 -293.5q0 -210 -78.5 -377t-225 -263t-335.5 -96t-335.5 96t-225 263t-78.5 377q0 158 46 293.5t128.5 233t202.5 153t262 55.5zM743 14q119 0 225.5 47t187.5 133
t129 219t48 294q0 130 -31 242t-86 194t-129 140t-161.5 87t-182.5 29q-119 0 -225 -46.5t-187.5 -132t-129 -218.5t-47.5 -295q0 -161 47.5 -294t129 -219t187.5 -133t225 -47z" />
    <glyph glyph-name="Otilde" unicode="&#xd5;" horiz-adv-x="1460" 
d="M637 1610q-33 0 -33 -43h-41q0 84 74 84q35 0 117 -27q77 -25 96 -25q33 0 33 43h41q0 -83 -74 -83q-38 0 -117 26q-77 25 -96 25zM743 1442q142 0 262 -55.5t202.5 -153t128.5 -233t46 -293.5q0 -210 -78.5 -377t-225 -263t-335.5 -96t-335.5 96t-225 263t-78.5 377
q0 158 46 293.5t128.5 233t202.5 153t262 55.5zM743 14q119 0 225.5 47t187.5 133t129 219t48 294q0 130 -31 242t-86 194t-129 140t-161.5 87t-182.5 29q-119 0 -225 -46.5t-187.5 -132t-129 -218.5t-47.5 -295q0 -161 47.5 -294t129 -219t187.5 -133t225 -47z" />
    <glyph glyph-name="Odieresis" unicode="&#xd6;" horiz-adv-x="1460" 
d="M672 1563q-17 0 -29 12t-12 29t12 29t29 12t29 -12t12 -29t-12 -29t-29 -12zM815 1563q-17 0 -29 12t-12 29t12 29t29 12t29 -12t12 -29t-12 -29t-29 -12zM743 1442q142 0 262 -55.5t202.5 -153t128.5 -233t46 -293.5q0 -210 -78.5 -377t-225 -263t-335.5 -96t-335.5 96
t-225 263t-78.5 377q0 158 46 293.5t128.5 233t202.5 153t262 55.5zM743 14q119 0 225.5 47t187.5 133t129 219t48 294q0 130 -31 242t-86 194t-129 140t-161.5 87t-182.5 29q-119 0 -225 -46.5t-187.5 -132t-129 -218.5t-47.5 -295q0 -161 47.5 -294t129 -219t187.5 -133
t225 -47z" />
    <glyph glyph-name="multiply" unicode="&#xd7;" 
d="M573 641l310 -309l-31 -31l-309 309l-310 -309l-30 31l309 309l-309 309l30 31l310 -309l309 309l31 -31z" />
    <glyph glyph-name="Oslash" unicode="&#xd8;" horiz-adv-x="1460" 
d="M1391 1323l-144 -143q135 -196 135 -473q0 -210 -78.5 -377t-225 -263t-335.5 -96q-148 0 -270 60t-207 168l-139 -140l-31 31l144 143q-136 198 -136 474q0 158 46 293.5t128.5 233t202.5 153t262 55.5q148 0 271 -58.5t209 -166.5l137 137zM154 707q0 -261 118 -441
l916 916q-81 105 -197 161t-248 56q-119 0 -225 -46.5t-187.5 -132t-129 -218.5t-47.5 -295zM1333 707q0 258 -119 440l-915 -916q83 -105 198 -161t246 -56q119 0 225.5 47t187.5 133t129 219t48 294z" />
    <glyph glyph-name="Ugrave" unicode="&#xd9;" horiz-adv-x="1228" 
d="M657 1507h-39l-126 193h57zM1094 1413v-936q0 -27 -7 -137q-11 -168 -126.5 -268.5t-321.5 -100.5t-322 100.5t-127 268.5q-6 95 -6 137v936h45v-944q0 -52 7 -127q6 -69 32.5 -126.5t74 -103.5t123.5 -72t173 -26t173 26t123.5 72t74 103.5t32.5 126.5q7 75 7 127v944
h45z" />
    <glyph glyph-name="Uacute" unicode="&#xda;" horiz-adv-x="1228" 
d="M653 1507h-39l109 193h57zM1094 1413v-936q0 -27 -7 -137q-11 -168 -126.5 -268.5t-321.5 -100.5t-322 100.5t-127 268.5q-6 95 -6 137v936h45v-944q0 -52 7 -127q6 -69 32.5 -126.5t74 -103.5t123.5 -72t173 -26t173 26t123.5 72t74 103.5t32.5 126.5q7 75 7 127v944h45
z" />
    <glyph glyph-name="Ucircumflex" unicode="&#xdb;" horiz-adv-x="1228" 
d="M530 1507h-47l133 193h48l133 -193h-49l-109 164zM1094 1413v-936q0 -27 -7 -137q-11 -168 -126.5 -268.5t-321.5 -100.5t-322 100.5t-127 268.5q-6 95 -6 137v936h45v-944q0 -52 7 -127q6 -69 32.5 -126.5t74 -103.5t123.5 -72t173 -26t173 26t123.5 72t74 103.5
t32.5 126.5q7 75 7 127v944h45z" />
    <glyph glyph-name="Udieresis" unicode="&#xdc;" horiz-adv-x="1228" 
d="M567 1645q17 0 29 -12t12 -29t-12 -29t-29 -12t-29 12t-12 29t12 29t29 12zM711 1645q17 0 29 -12t12 -29t-12 -29t-29 -12t-29 12t-12 29t12 29t29 12zM1094 1413v-936q0 -27 -7 -137q-11 -168 -126.5 -268.5t-321.5 -100.5t-322 100.5t-127 268.5q-6 95 -6 137v936h45
v-944q0 -52 7 -127q6 -69 32.5 -126.5t74 -103.5t123.5 -72t173 -26t173 26t123.5 72t74 103.5t32.5 126.5q7 75 7 127v944h45z" />
    <glyph glyph-name="Yacute" unicode="&#xdd;" horiz-adv-x="1116" 
d="M586 1507h-39l108 193h58zM594 578v-578h-45v578l-502 835h53l473 -788l469 788h56z" />
    <glyph glyph-name="Thorn" unicode="&#xde;" horiz-adv-x="1310" 
d="M713 1161q156 -21 249 -105t93 -245q0 -167 -94 -259t-248 -112q-82 -10 -203 -10h-268v-430h-45v1413h45v-242h268q120 0 203 -10zM705 483q138 16 219.5 96t81.5 232q0 143 -81 217t-220 90q-82 10 -195 10h-268v-655h268q112 0 195 10z" />
    <glyph glyph-name="germandbls" unicode="&#xdf;" horiz-adv-x="1091" 
d="M563 1544q153 0 259 -91.5t106 -246.5q0 -110 -68 -211q-95 -45 -138.5 -87t-43.5 -103q0 -57 26 -104t95 -107q104 -92 152 -167.5t48 -156.5q0 -132 -95 -205t-265 -73q-121 0 -221 20v47q109 -24 221 -24q143 0 227 60t84 169q0 69 -37 130.5t-139 156.5
q-88 81 -116.5 132.5t-28.5 121.5q0 75 48 124t157 107q45 71 45 168q0 138 -91.5 217.5t-230.5 79.5q-151 0 -250.5 -98t-111.5 -273q-5 -72 -5 -122v-1008h-45v1004q0 38 5 131q10 191 125 300t288 109z" />
    <glyph glyph-name="agrave" unicode="&#xe0;" horiz-adv-x="1011" 
d="M477 1188l-141 225h57l123 -225h-39zM838 0l-15 264l-47 -108q-56 -90 -147 -137.5t-201 -47.5q-157 0 -244.5 73.5t-87.5 215.5q0 91 54.5 162t148 113.5t208.5 64t245 21.5h69v55q0 92 -4 139q-10 121 -87 184.5t-210 63.5q-81 0 -150 -27t-122.5 -92.5t-65.5 -161.5
h-45q9 137 117 230.5t266 93.5q157 0 244 -74.5t98 -210.5q4 -55 4 -141v-332q0 -125 19 -348h-47zM434 14q112 0 202 59.5t137.5 153.5t47.5 201v147q-122 8 -239 -6.5t-216.5 -50t-160 -102t-60.5 -154.5q0 -116 72.5 -182t216.5 -66z" />
    <glyph glyph-name="aacute" unicode="&#xe1;" horiz-adv-x="1011" 
d="M537 1188h-39l123 225h57zM838 0l-15 264l-47 -108q-56 -90 -147 -137.5t-201 -47.5q-157 0 -244.5 73.5t-87.5 215.5q0 91 54.5 162t148 113.5t208.5 64t245 21.5h69v55q0 92 -4 139q-10 121 -87 184.5t-210 63.5q-81 0 -150 -27t-122.5 -92.5t-65.5 -161.5h-45
q9 137 117 230.5t266 93.5q157 0 244 -74.5t98 -210.5q4 -55 4 -141v-332q0 -125 19 -348h-47zM434 14q112 0 202 59.5t137.5 153.5t47.5 201v147q-122 8 -239 -6.5t-216.5 -50t-160 -102t-60.5 -154.5q0 -116 72.5 -182t216.5 -66z" />
    <glyph glyph-name="acircumflex" unicode="&#xe2;" horiz-adv-x="1011" 
d="M414 1188h-47l133 225h47l133 -225h-49l-109 192zM838 0l-15 264l-47 -108q-56 -90 -147 -137.5t-201 -47.5q-157 0 -244.5 73.5t-87.5 215.5q0 91 54.5 162t148 113.5t208.5 64t245 21.5h69v55q0 92 -4 139q-10 121 -87 184.5t-210 63.5q-81 0 -150 -27t-122.5 -92.5
t-65.5 -161.5h-45q9 137 117 230.5t266 93.5q157 0 244 -74.5t98 -210.5q4 -55 4 -141v-332q0 -125 19 -348h-47zM434 14q112 0 202 59.5t137.5 153.5t47.5 201v147q-122 8 -239 -6.5t-216.5 -50t-160 -102t-60.5 -154.5q0 -116 72.5 -182t216.5 -66z" />
    <glyph glyph-name="atilde" unicode="&#xe3;" horiz-adv-x="1011" 
d="M416 1333q-33 0 -33 -43h-41q0 84 74 84q37 0 116 -26q77 -25 97 -25q33 0 33 43h40q0 -84 -73 -84q-35 0 -117 27q-74 24 -96 24zM838 0l-15 264l-47 -108q-56 -90 -147 -137.5t-201 -47.5q-157 0 -244.5 73.5t-87.5 215.5q0 91 54.5 162t148 113.5t208.5 64t245 21.5
h69v55q0 92 -4 139q-10 121 -87 184.5t-210 63.5q-81 0 -150 -27t-122.5 -92.5t-65.5 -161.5h-45q9 137 117 230.5t266 93.5q157 0 244 -74.5t98 -210.5q4 -55 4 -141v-332q0 -125 19 -348h-47zM434 14q112 0 202 59.5t137.5 153.5t47.5 201v147q-122 8 -239 -6.5
t-216.5 -50t-160 -102t-60.5 -154.5q0 -116 72.5 -182t216.5 -66z" />
    <glyph glyph-name="adieresis" unicode="&#xe4;" horiz-adv-x="1011" 
d="M440 1255q-17 0 -29 12t-12 29t12 29t29 12t29 -12t12 -29t-12 -29t-29 -12zM604 1255q-17 0 -29 12t-12 29t12 29t29 12t29 -12t12 -29t-12 -29t-29 -12zM838 0l-15 264l-47 -108q-56 -90 -147 -137.5t-201 -47.5q-157 0 -244.5 73.5t-87.5 215.5q0 91 54.5 162
t148 113.5t208.5 64t245 21.5h69v55q0 92 -4 139q-10 121 -87 184.5t-210 63.5q-81 0 -150 -27t-122.5 -92.5t-65.5 -161.5h-45q9 137 117 230.5t266 93.5q157 0 244 -74.5t98 -210.5q4 -55 4 -141v-332q0 -125 19 -348h-47zM434 14q112 0 202 59.5t137.5 153.5t47.5 201
v147q-122 8 -239 -6.5t-216.5 -50t-160 -102t-60.5 -154.5q0 -116 72.5 -182t216.5 -66z" />
    <glyph glyph-name="aring" unicode="&#xe5;" horiz-adv-x="1011" 
d="M522 1171q-54 0 -90.5 35t-36.5 92t36.5 92t90.5 35t90.5 -35t36.5 -92t-36.5 -92t-90.5 -35zM522 1382q-37 0 -58.5 -24.5t-21.5 -59.5t21.5 -59.5t58.5 -24.5t58.5 24.5t21.5 59.5t-21.5 59.5t-58.5 24.5zM838 0l-15 264l-47 -108q-56 -90 -147 -137.5t-201 -47.5
q-157 0 -244.5 73.5t-87.5 215.5q0 91 54.5 162t148 113.5t208.5 64t245 21.5h69v55q0 92 -4 139q-10 121 -87 184.5t-210 63.5q-81 0 -150 -27t-122.5 -92.5t-65.5 -161.5h-45q9 137 117 230.5t266 93.5q157 0 244 -74.5t98 -210.5q4 -55 4 -141v-332q0 -125 19 -348h-47z
M434 14q112 0 202 59.5t137.5 153.5t47.5 201v147q-122 8 -239 -6.5t-216.5 -50t-160 -102t-60.5 -154.5q0 -116 72.5 -182t216.5 -66z" />
    <glyph glyph-name="ae" unicode="&#xe6;" horiz-adv-x="1888" 
d="M1815 567q0 -5 -3 -39h-882q2 -109 25.5 -196.5t62.5 -146t92 -97.5t112.5 -56.5t127.5 -17.5q136 0 247 80t156 236h45q-48 -173 -170.5 -266t-281.5 -93q-71 0 -139 21t-129 62.5t-106 112t-63 161.5l-43 -131q-151 -226 -417 -226q-71 0 -133 17t-112 50.5t-79 90.5
t-29 131q0 73 41 129t108 90.5t162.5 56t193.5 29.5t212 8h70v50q0 220 -85 330t-268 110q-60 0 -116.5 -16t-107.5 -48.5t-86 -88.5t-44 -128h-45q9 136 123.5 230t275.5 94q168 0 267 -82t121 -244q43 155 167.5 240.5t278.5 85.5q116 0 205.5 -46t141.5 -124t78 -171.5
t26 -197.5zM930 571h835q-2 108 -26.5 194t-62.5 141t-90.5 91t-108 51t-117.5 15q-85 0 -159.5 -30t-135 -88.5t-96.5 -154.5t-39 -219zM883 469v59q-136 6 -258.5 -3.5t-234.5 -37t-178.5 -85t-66.5 -140.5q0 -113 84.5 -180.5t225.5 -67.5q187 0 307.5 127t120.5 328z
" />
    <glyph glyph-name="ccedilla" unicode="&#xe7;" horiz-adv-x="1058" 
d="M553 14l-2 -2q142 3 246.5 85t134.5 225h45q-32 -162 -151.5 -256.5t-286.5 -94.5h-9l-41 -75q181 -16 181 -158q0 -83 -61.5 -125.5t-145.5 -42.5q-68 0 -109 20v45q43 -22 109 -22q72 0 116 32t44 93q0 62 -49.5 93.5t-151.5 27.5l59 116q-184 21 -302 171.5
t-118 392.5q0 254 143 410.5t351 156.5q173 0 290 -100t140 -263h-45q-27 150 -127.5 236t-261.5 86q-78 0 -154.5 -32.5t-141 -94t-104.5 -163t-40 -226.5q0 -124 32 -224.5t87.5 -164.5t124.5 -101t147 -45h51z" />
    <glyph glyph-name="egrave" unicode="&#xe8;" horiz-adv-x="1067" 
d="M518 1188l-141 225h57l123 -225h-39zM993 567q0 -16 -2 -39h-882q3 -134 40.5 -236.5t98 -161t131.5 -87.5t149 -29q136 0 247.5 80t156.5 236h45q-48 -173 -171 -266t-282 -93q-95 0 -178 37t-147 107t-101 180.5t-37 247.5q0 250 138 406.5t342 156.5q90 0 165.5 -30.5
t127.5 -82t88.5 -121t53.5 -146.5t17 -159zM537 1063q-58 0 -116.5 -18.5t-114 -58t-98.5 -96t-70 -139t-29 -180.5h839q-2 108 -28 194t-66.5 140.5t-94.5 91t-109 51.5t-113 15z" />
    <glyph glyph-name="eacute" unicode="&#xe9;" horiz-adv-x="1067" 
d="M539 1188h-39l123 225h57zM993 567q0 -16 -2 -39h-882q3 -134 40.5 -236.5t98 -161t131.5 -87.5t149 -29q136 0 247.5 80t156.5 236h45q-48 -173 -171 -266t-282 -93q-95 0 -178 37t-147 107t-101 180.5t-37 247.5q0 250 138 406.5t342 156.5q90 0 165.5 -30.5t127.5 -82
t88.5 -121t53.5 -146.5t17 -159zM537 1063q-58 0 -116.5 -18.5t-114 -58t-98.5 -96t-70 -139t-29 -180.5h839q-2 108 -28 194t-66.5 140.5t-94.5 91t-109 51.5t-113 15z" />
    <glyph glyph-name="ecircumflex" unicode="&#xea;" horiz-adv-x="1067" 
d="M416 1188h-47l133 225h47l133 -225h-49l-109 192zM993 567q0 -16 -2 -39h-882q3 -134 40.5 -236.5t98 -161t131.5 -87.5t149 -29q136 0 247.5 80t156.5 236h45q-48 -173 -171 -266t-282 -93q-95 0 -178 37t-147 107t-101 180.5t-37 247.5q0 250 138 406.5t342 156.5
q90 0 165.5 -30.5t127.5 -82t88.5 -121t53.5 -146.5t17 -159zM537 1063q-58 0 -116.5 -18.5t-114 -58t-98.5 -96t-70 -139t-29 -180.5h839q-2 108 -28 194t-66.5 140.5t-94.5 91t-109 51.5t-113 15z" />
    <glyph glyph-name="edieresis" unicode="&#xeb;" horiz-adv-x="1067" 
d="M442 1255q-17 0 -29 12t-12 29t12 29t29 12t29 -12t12 -29t-12 -29t-29 -12zM606 1255q-17 0 -29 12t-12 29t12 29t29 12t29 -12t12 -29t-12 -29t-29 -12zM993 567q0 -16 -2 -39h-882q3 -134 40.5 -236.5t98 -161t131.5 -87.5t149 -29q136 0 247.5 80t156.5 236h45
q-48 -173 -171 -266t-282 -93q-95 0 -178 37t-147 107t-101 180.5t-37 247.5q0 250 138 406.5t342 156.5q90 0 165.5 -30.5t127.5 -82t88.5 -121t53.5 -146.5t17 -159zM537 1063q-58 0 -116.5 -18.5t-114 -58t-98.5 -96t-70 -139t-29 -180.5h839q-2 108 -28 194t-66.5 140.5
t-94.5 91t-109 51.5t-113 15z" />
    <glyph glyph-name="igrave" unicode="&#xec;" horiz-adv-x="335" 
d="M162 1188h-39l-141 225h57zM190 0h-45v1077h45v-1077z" />
    <glyph glyph-name="iacute" unicode="&#xed;" horiz-adv-x="335" 
d="M182 1188h-39l123 225h58zM190 0h-45v1077h45v-1077z" />
    <glyph glyph-name="icircumflex" unicode="&#xee;" horiz-adv-x="335" 
d="M326 1188h-50l-108 192l-109 -192h-47l133 225h48zM145 1077h45v-1077h-45v1077z" />
    <glyph glyph-name="idieresis" unicode="&#xef;" horiz-adv-x="335" 
d="M86 1337q17 0 29 -12t12 -29t-12 -29t-29 -12t-29 12t-12 29t12 29t29 12zM250 1337q17 0 29 -12t12 -29t-12 -29t-29 -12t-29 12t-12 29t12 29t29 12zM190 0h-45v1077h45v-1077z" />
    <glyph glyph-name="eth" unicode="&#xf0;" horiz-adv-x="1069" 
d="M918 1421l-136 -55q191 -213 191 -737q0 -169 -33 -295.5t-94.5 -205t-146 -117.5t-191.5 -40q-207 -1 -327 155t-120 400q0 168 56 300.5t165.5 210t256.5 77.5q155 0 272 -92l100 -133q-29 304 -174 459l-342 -142l-16 41l323 133q-97 82 -223 105l29 41
q146 -43 240 -127l153 63zM924 594v39q0 195 -106.5 316.5t-278.5 121.5q-182 0 -305 -143.5t-123 -399.5q0 -242 116 -378t287 -136q195 0 302.5 154.5t107.5 425.5z" />
    <glyph glyph-name="ntilde" unicode="&#xf1;" 
d="M430 1333q-33 0 -33 -43h-41q0 84 74 84q38 0 117 -26q77 -25 96 -25q33 0 33 43h41q0 -84 -74 -84q-35 0 -117 27q-73 24 -96 24zM942 774q8 -73 8 -176v-598h-45v580q0 105 -8 178q-16 143 -97 224t-229 81q-75 0 -142.5 -26.5t-121.5 -77.5t-85.5 -133.5t-31.5 -186.5
v-639h-45v1077h45v-246l43 107q59 83 147.5 125.5t190.5 42.5q162 0 258 -86.5t113 -245.5z" />
    <glyph glyph-name="ograve" unicode="&#xf2;" horiz-adv-x="1134" 
d="M561 1188l-141 225h57l123 -225h-39zM567 1106q227 0 366.5 -156.5t139.5 -412.5q0 -255 -139.5 -410.5t-366.5 -155.5t-366.5 155.5t-139.5 410.5q0 256 139.5 412.5t366.5 156.5zM567 14q90 0 170 32t145.5 94t103.5 164.5t38 232.5q0 131 -38 234t-103.5 165.5
t-145.5 94.5t-170 32t-170 -32t-145 -94.5t-103 -165.5t-38 -234q0 -130 38 -232.5t103 -164.5t145 -94t170 -32z" />
    <glyph glyph-name="oacute" unicode="&#xf3;" horiz-adv-x="1134" 
d="M582 1188h-39l123 225h57zM567 1106q227 0 366.5 -156.5t139.5 -412.5q0 -255 -139.5 -410.5t-366.5 -155.5t-366.5 155.5t-139.5 410.5q0 256 139.5 412.5t366.5 156.5zM567 14q90 0 170 32t145.5 94t103.5 164.5t38 232.5q0 131 -38 234t-103.5 165.5t-145.5 94.5
t-170 32t-170 -32t-145 -94.5t-103 -165.5t-38 -234q0 -130 38 -232.5t103 -164.5t145 -94t170 -32z" />
    <glyph glyph-name="ocircumflex" unicode="&#xf4;" horiz-adv-x="1134" 
d="M459 1188h-47l133 225h47l133 -225h-49l-109 192zM567 1106q227 0 366.5 -156.5t139.5 -412.5q0 -255 -139.5 -410.5t-366.5 -155.5t-366.5 155.5t-139.5 410.5q0 256 139.5 412.5t366.5 156.5zM567 14q90 0 170 32t145.5 94t103.5 164.5t38 232.5q0 131 -38 234
t-103.5 165.5t-145.5 94.5t-170 32t-170 -32t-145 -94.5t-103 -165.5t-38 -234q0 -130 38 -232.5t103 -164.5t145 -94t170 -32z" />
    <glyph glyph-name="otilde" unicode="&#xf5;" horiz-adv-x="1134" 
d="M461 1333q-33 0 -33 -43h-41q0 84 74 84q38 0 117 -26q77 -25 96 -25q33 0 33 43h41q0 -84 -74 -84q-34 0 -117 27q-73 24 -96 24zM567 1106q227 0 366.5 -156.5t139.5 -412.5q0 -255 -139.5 -410.5t-366.5 -155.5t-366.5 155.5t-139.5 410.5q0 256 139.5 412.5
t366.5 156.5zM567 14q90 0 170 32t145.5 94t103.5 164.5t38 232.5q0 131 -38 234t-103.5 165.5t-145.5 94.5t-170 32t-170 -32t-145 -94.5t-103 -165.5t-38 -234q0 -130 38 -232.5t103 -164.5t145 -94t170 -32z" />
    <glyph glyph-name="odieresis" unicode="&#xf6;" horiz-adv-x="1134" 
d="M485 1255q-17 0 -29 12t-12 29t12 29t29 12t29 -12t12 -29t-12 -29t-29 -12zM649 1255q-17 0 -29 12t-12 29t12 29t29 12t29 -12t12 -29t-12 -29t-29 -12zM567 1106q227 0 366.5 -156.5t139.5 -412.5q0 -255 -139.5 -410.5t-366.5 -155.5t-366.5 155.5t-139.5 410.5
q0 256 139.5 412.5t366.5 156.5zM567 14q90 0 170 32t145.5 94t103.5 164.5t38 232.5q0 131 -38 234t-103.5 165.5t-145.5 94.5t-170 32t-170 -32t-145 -94.5t-103 -165.5t-38 -234q0 -130 38 -232.5t103 -164.5t145 -94t170 -32z" />
    <glyph glyph-name="divide" unicode="&#xf7;" 
d="M543 1020q23 0 38 -15t15 -38t-15 -38.5t-38 -15.5t-38.5 15.5t-15.5 38.5t15.5 38t38.5 15zM952 629h-819v43h819v-43zM543 385q23 0 38 -15t15 -38t-15 -38t-38 -15t-38.5 15t-15.5 38t15.5 38t38.5 15z" />
    <glyph glyph-name="oslash" unicode="&#xf8;" horiz-adv-x="1216" 
d="M1163 1063l-159 -160q102 -148 102 -366q0 -255 -139.5 -410.5t-366.5 -155.5q-229 0 -371 158l-145 -145l-31 30l150 150q-109 149 -109 373q0 256 139.5 412.5t366.5 156.5q234 0 377 -168l156 156zM143 537q0 -203 93 -340l708 708q-64 78 -154.5 118t-189.5 40
q-90 0 -170 -32t-145.5 -94.5t-103.5 -165.5t-38 -234zM1057 537q0 198 -86 331l-707 -704q63 -74 151 -112t185 -38q90 0 170 32t145.5 94t103.5 164.5t38 232.5z" />
    <glyph glyph-name="ugrave" unicode="&#xf9;" horiz-adv-x="1077" 
d="M492 1188l-142 225h58l122 -225h-38zM932 1077v-1077h-45v246l-43 -107q-59 -83 -147.5 -125.5t-190.5 -42.5q-162 0 -258 86.5t-113 245.5q-8 73 -8 176v598h45v-579q0 -106 8 -179q16 -143 97 -224t229 -81q75 0 142.5 26.5t121.5 77.5t85.5 133.5t31.5 186.5v639h45z
" />
    <glyph glyph-name="uacute" unicode="&#xfa;" horiz-adv-x="1077" 
d="M543 1188h-39l123 225h57zM932 1077v-1077h-45v246l-43 -107q-59 -83 -147.5 -125.5t-190.5 -42.5q-162 0 -258 86.5t-113 245.5q-8 73 -8 176v598h45v-579q0 -106 8 -179q16 -143 97 -224t229 -81q75 0 142.5 26.5t121.5 77.5t85.5 133.5t31.5 186.5v639h45z" />
    <glyph glyph-name="ucircumflex" unicode="&#xfb;" horiz-adv-x="1077" 
d="M420 1188h-47l133 225h47l133 -225h-49l-109 192zM932 1077v-1077h-45v246l-43 -107q-59 -83 -147.5 -125.5t-190.5 -42.5q-162 0 -258 86.5t-113 245.5q-8 73 -8 176v598h45v-579q0 -106 8 -179q16 -143 97 -224t229 -81q75 0 142.5 26.5t121.5 77.5t85.5 133.5
t31.5 186.5v639h45z" />
    <glyph glyph-name="udieresis" unicode="&#xfc;" horiz-adv-x="1077" 
d="M446 1255q-17 0 -28.5 12t-11.5 29t11.5 29t28.5 12t29 -12t12 -29t-12 -29t-29 -12zM610 1255q-17 0 -29 12t-12 29t12 29t29 12t29 -12t12 -29t-12 -29t-29 -12zM932 1077v-1077h-45v246l-43 -107q-59 -83 -147.5 -125.5t-190.5 -42.5q-162 0 -258 86.5t-113 245.5
q-8 73 -8 176v598h45v-579q0 -106 8 -179q16 -143 97 -224t229 -81q75 0 142.5 26.5t121.5 77.5t85.5 133.5t31.5 186.5v639h45z" />
    <glyph glyph-name="yacute" unicode="&#xfd;" horiz-adv-x="935" 
d="M485 1188h-39l123 225h58zM920 1077l-416 -1077q-53 -139 -98 -226.5t-87.5 -131t-79 -58t-85.5 -14.5q-41 0 -72 8v41q36 -8 80 -8q67 0 127 62t125 221l35 86l-422 1097h51l395 -1040l395 1040h52z" />
    <glyph glyph-name="thorn" unicode="&#xfe;" horiz-adv-x="1114" 
d="M588 1106q209 0 337 -155.5t128 -403.5q0 -139 -40 -250t-108 -181.5t-155.5 -107.5t-186.5 -37q-102 0 -174 33t-139 107l-60 135v-647h-45v1906h45v-674l58 123q70 84 148.5 118t191.5 34zM563 14q194 0 317.5 147t123.5 378q0 107 -28 201.5t-79.5 166.5t-132.5 114
t-180 42q-66 0 -123 -15t-107.5 -50t-86.5 -88.5t-56.5 -135t-20.5 -184.5v-121q0 -126 34 -218.5t90.5 -142t118.5 -72t130 -22.5z" />
    <glyph glyph-name="ydieresis" unicode="&#xff;" horiz-adv-x="935" 
d="M389 1255q-17 0 -29 12t-12 29t12 29t29 12t29 -12t12 -29t-12 -29t-29 -12zM553 1255q-17 0 -29 12t-12 29t12 29t29 12t29 -12t12 -29t-12 -29t-29 -12zM920 1077l-416 -1077q-53 -139 -98 -226.5t-87.5 -131t-79 -58t-85.5 -14.5q-41 0 -72 8v41q36 -8 80 -8
q67 0 127 62t125 221l35 86l-422 1097h51l395 -1040l395 1040h52z" />
    <glyph glyph-name="Amacron" unicode="&#x100;" horiz-adv-x="1261" 
d="M793 1581h-287v43h287v-43zM965 551h-633l-211 -551h-47l547 1413h59l547 -1413h-49zM348 594h598l-297 780z" />
    <glyph glyph-name="amacron" unicode="&#x101;" horiz-adv-x="1011" 
d="M666 1270h-287v43h287v-43zM838 0l-15 264l-47 -108q-56 -90 -147 -137.5t-201 -47.5q-157 0 -244.5 73.5t-87.5 215.5q0 91 54.5 162t148 113.5t208.5 64t245 21.5h69v55q0 92 -4 139q-10 121 -87 184.5t-210 63.5q-81 0 -150 -27t-122.5 -92.5t-65.5 -161.5h-45
q9 137 117 230.5t266 93.5q157 0 244 -74.5t98 -210.5q4 -55 4 -141v-332q0 -125 19 -348h-47zM434 14q112 0 202 59.5t137.5 153.5t47.5 201v147q-122 8 -239 -6.5t-216.5 -50t-160 -102t-60.5 -154.5q0 -116 72.5 -182t216.5 -66z" />
    <glyph glyph-name="Abreve" unicode="&#x102;" horiz-adv-x="1261" 
d="M649 1479q-90 0 -144 59.5t-54 161.5h36q1 -84 46 -131t116 -47t116 47t46 131h37q0 -101 -55 -161t-144 -60zM965 551h-633l-211 -551h-47l547 1413h59l547 -1413h-49zM348 594h598l-297 780z" />
    <glyph glyph-name="abreve" unicode="&#x103;" horiz-adv-x="1011" 
d="M522 1167q-93 0 -139.5 65t-46.5 181h37q2 -96 40.5 -149.5t108.5 -53.5t108 53.5t40 149.5h37q0 -116 -46.5 -181t-138.5 -65zM838 0l-15 264l-47 -108q-56 -90 -147 -137.5t-201 -47.5q-157 0 -244.5 73.5t-87.5 215.5q0 91 54.5 162t148 113.5t208.5 64t245 21.5h69
v55q0 92 -4 139q-10 121 -87 184.5t-210 63.5q-81 0 -150 -27t-122.5 -92.5t-65.5 -161.5h-45q9 137 117 230.5t266 93.5q157 0 244 -74.5t98 -210.5q4 -55 4 -141v-332q0 -125 19 -348h-47zM434 14q112 0 202 59.5t137.5 153.5t47.5 201v147q-122 8 -239 -6.5t-216.5 -50
t-160 -102t-60.5 -154.5q0 -116 72.5 -182t216.5 -66z" />
    <glyph glyph-name="Aogonek" unicode="&#x104;" horiz-adv-x="1261" 
d="M1227 0h-10q-111 -48 -178.5 -129t-67.5 -180q0 -55 25 -81t69 -26q69 0 133 64v-47q-58 -58 -141 -58q-57 0 -94 32.5t-37 109.5q0 106 66 195t179 136l-206 535h-633l-211 -551h-47l547 1413h59zM348 594h598l-297 780z" />
    <glyph glyph-name="aogonek" unicode="&#x105;" horiz-adv-x="1011" 
d="M885 0h-21q-109 -29 -179.5 -117t-70.5 -192q0 -55 25.5 -81t69.5 -26q69 0 133 64v-47q-58 -58 -142 -58q-57 0 -94 32.5t-37 109.5q0 114 74 210t193 132l-13 237l-47 -108q-56 -90 -147 -137.5t-201 -47.5q-157 0 -244.5 73.5t-87.5 215.5q0 91 54.5 162t148 113.5
t208.5 64t245 21.5h69v55q0 92 -4 139q-10 121 -87 184.5t-210 63.5q-81 0 -150 -27t-122.5 -92.5t-65.5 -161.5h-45q9 137 117 230.5t266 93.5q157 0 244 -74.5t98 -210.5q4 -55 4 -141v-332q0 -125 19 -348zM434 14q112 0 202 59.5t137.5 153.5t47.5 201v147
q-122 8 -239 -6.5t-216.5 -50t-160 -102t-60.5 -154.5q0 -116 72.5 -182t216.5 -66z" />
    <glyph glyph-name="Cacute" unicode="&#x106;" horiz-adv-x="1386" 
d="M719 1507h-39l108 193h58zM745 1442q221 0 356.5 -124.5t176.5 -326.5l4 -20h-45l-4 20q-37 182 -165 295t-331 113q-112 0 -215.5 -45.5t-186 -130.5t-132 -219.5t-49.5 -298.5q0 -171 45.5 -305t124.5 -217t180 -126t217 -43q111 0 201 33t152.5 92t103 135.5
t59.5 169.5l4 21h45l-4 -21q-20 -102 -63.5 -186t-111.5 -149t-167.5 -101.5t-222.5 -36.5q-131 0 -243.5 50t-194.5 142t-128.5 231t-46.5 308q0 216 84.5 385.5t230.5 262t326 92.5z" />
    <glyph glyph-name="cacute" unicode="&#x107;" horiz-adv-x="1058" 
d="M557 1188h-39l123 225h57zM555 1106q173 0 290 -100t140 -263h-45q-27 150 -127.5 236t-261.5 86q-78 0 -154.5 -32.5t-141 -94t-104.5 -163t-40 -226.5q0 -132 36.5 -237t98.5 -169t138 -97.5t159 -33.5q144 0 251.5 82.5t137.5 227.5h45q-32 -162 -151.5 -256.5
t-286.5 -94.5q-99 0 -186 39t-152 110.5t-102.5 179.5t-37.5 239q0 254 143 410.5t351 156.5z" />
    <glyph glyph-name="Cdotaccent" unicode="&#x10a;" horiz-adv-x="1386" 
d="M705 1645q17 0 28.5 -12t11.5 -29t-11.5 -29t-28.5 -12t-29 12t-12 29t12 29t29 12zM745 1442q221 0 356.5 -124.5t176.5 -326.5l4 -20h-45l-4 20q-37 182 -165 295t-331 113q-112 0 -215.5 -45.5t-186 -130.5t-132 -219.5t-49.5 -298.5q0 -171 45.5 -305t124.5 -217
t180 -126t217 -43q111 0 201 33t152.5 92t103 135.5t59.5 169.5l4 21h45l-4 -21q-20 -102 -63.5 -186t-111.5 -149t-167.5 -101.5t-222.5 -36.5q-131 0 -243.5 50t-194.5 142t-128.5 231t-46.5 308q0 216 84.5 385.5t230.5 262t326 92.5z" />
    <glyph glyph-name="cdotaccent" unicode="&#x10b;" horiz-adv-x="1058" 
d="M543 1337q17 0 29 -12t12 -29t-12 -29t-29 -12t-29 12t-12 29t12 29t29 12zM555 1106q173 0 290 -100t140 -263h-45q-27 150 -127.5 236t-261.5 86q-78 0 -154.5 -32.5t-141 -94t-104.5 -163t-40 -226.5q0 -132 36.5 -237t98.5 -169t138 -97.5t159 -33.5
q144 0 251.5 82.5t137.5 227.5h45q-32 -162 -151.5 -256.5t-286.5 -94.5q-99 0 -186 39t-152 110.5t-102.5 179.5t-37.5 239q0 254 143 410.5t351 156.5z" />
    <glyph glyph-name="Ccaron" unicode="&#x10c;" horiz-adv-x="1386" 
d="M682 1507l-133 193h49l109 -164l108 164h47l-133 -193h-47zM1286 465l-4 -21q-20 -102 -63.5 -186t-111.5 -149t-167.5 -101.5t-222.5 -36.5q-131 0 -243.5 50t-194.5 142t-128.5 231t-46.5 308q0 216 84.5 385.5t230.5 262t326 92.5q221 0 356.5 -124.5t176.5 -326.5
l4 -20h-45l-4 20q-37 182 -165 295t-331 113q-112 0 -215.5 -45.5t-186 -130.5t-132 -219.5t-49.5 -298.5q0 -171 45.5 -305t124.5 -217t180 -126t217 -43q111 0 201 33t152.5 92t103 135.5t59.5 169.5l4 21h45z" />
    <glyph glyph-name="ccaron" unicode="&#x10d;" horiz-adv-x="1058" 
d="M520 1188l-133 225h49l109 -192l108 192h47l-133 -225h-47zM543 12q144 0 251.5 82.5t137.5 227.5h45q-32 -162 -151.5 -256.5t-286.5 -94.5q-99 0 -186 39t-152 110.5t-102.5 179.5t-37.5 239q0 254 143 410.5t351 156.5q173 0 290 -100t140 -263h-45
q-27 150 -127.5 236t-261.5 86q-78 0 -154.5 -32.5t-141 -94t-104.5 -163t-40 -226.5q0 -132 36.5 -237t98.5 -169t138 -97.5t159 -33.5z" />
    <glyph glyph-name="Dcaron" unicode="&#x10e;" horiz-adv-x="1390" 
d="M678 1507l-133 193h49l108 -164l109 164h47l-133 -193h-47zM754 1409q70 -5 142 -30t148 -79t135 -130t96.5 -195t37.5 -262q0 -142 -37 -261.5t-94 -196t-130 -132t-139.5 -82t-128.5 -33.5q-72 -8 -180 -8h-407v1413h407q99 0 150 -4zM778 51q69 8 136.5 38t131 85.5
t112 130t77.5 180t29 228.5q0 107 -22 200.5t-61 162t-89 122.5t-108.5 88.5t-116 54.5t-115.5 25q-45 4 -148 4h-362v-1327h362q106 0 174 8z" />
    <glyph glyph-name="dcaron" unicode="&#x10f;" horiz-adv-x="1114" 
d="M924 1505h45v-1505h-45v246l-58 -123q-70 -84 -148.5 -118t-191.5 -34q-209 0 -337 155.5t-128 403.5q0 139 40 250t108 181.5t155.5 107.5t186.5 37q102 0 174 -32.5t139 -106.5l60 -136v674zM1169 1503v-10l-100 -240h-39l88 250h51zM530 14q66 0 123 15t107.5 50
t86.5 88.5t56.5 135t20.5 184.5v121q0 126 -34 218.5t-90.5 142t-118.5 72t-130 22.5q-194 0 -317 -146.5t-123 -377.5q0 -144 47 -261.5t144 -190.5t228 -73z" />
    <glyph glyph-name="Dcroat" unicode="&#x110;" horiz-adv-x="1402" 
d="M766 1409q70 -5 142 -30t148 -79t135 -130t96.5 -195t37.5 -262q0 -103 -19.5 -194.5t-52 -159.5t-76.5 -125t-92 -96t-100.5 -67t-98.5 -43t-89 -20q-72 -8 -181 -8h-407v662h-123v43h123v708h407q99 0 150 -4zM791 51q57 7 113.5 29.5t111 59.5t101.5 93t82.5 125.5
t56 160.5t20.5 194q0 107 -22 200.5t-61 162t-89 122.5t-108.5 88.5t-116 54.5t-115.5 25q-45 4 -148 4h-362v-665h377v-43h-377v-619h362q107 0 175 8z" />
    <glyph glyph-name="dcroat" unicode="&#x111;" horiz-adv-x="1118" 
d="M1055 1255h-86v-1255h-45v246l-58 -123q-70 -84 -148.5 -118t-191.5 -34q-209 0 -337 155.5t-128 403.5q0 139 40 250t108 181.5t155.5 107.5t186.5 37q102 0 174 -32.5t139 -106.5l60 -136v424h-240v43h240v207h45v-207h86v-43zM530 14q66 0 123 15t107.5 50t86.5 88.5
t56.5 135t20.5 184.5v121q0 126 -34 218.5t-90.5 142t-118.5 72t-130 22.5q-194 0 -317 -146.5t-123 -377.5q0 -144 47 -261.5t144 -190.5t228 -73z" />
    <glyph glyph-name="Emacron" unicode="&#x112;" horiz-adv-x="1140" 
d="M737 1581h-286v43h286v-43zM1075 41v-41h-878v1413h858v-41h-813v-645h772v-41h-772v-645h833z" />
    <glyph glyph-name="emacron" unicode="&#x113;" horiz-adv-x="1067" 
d="M668 1270h-287v43h287v-43zM993 567q0 -16 -2 -39h-882q3 -134 40.5 -236.5t98 -161t131.5 -87.5t149 -29q136 0 247.5 80t156.5 236h45q-48 -173 -171 -266t-282 -93q-95 0 -178 37t-147 107t-101 180.5t-37 247.5q0 250 138 406.5t342 156.5q90 0 165.5 -30.5
t127.5 -82t88.5 -121t53.5 -146.5t17 -159zM537 1063q-58 0 -116.5 -18.5t-114 -58t-98.5 -96t-70 -139t-29 -180.5h839q-2 108 -28 194t-66.5 140.5t-94.5 91t-109 51.5t-113 15z" />
    <glyph glyph-name="Edotaccent" unicode="&#x116;" horiz-adv-x="1140" 
d="M594 1563q-17 0 -29 12t-12 29t12 29t29 12t29 -12t12 -29t-12 -29t-29 -12zM1075 41v-41h-878v1413h858v-41h-813v-645h772v-41h-772v-645h833z" />
    <glyph glyph-name="edotaccent" unicode="&#x117;" horiz-adv-x="1067" 
d="M524 1255q-17 0 -29 12t-12 29t12 29t29 12t29 -12t12 -29t-12 -29t-29 -12zM993 567q0 -16 -2 -39h-882q3 -134 40.5 -236.5t98 -161t131.5 -87.5t149 -29q136 0 247.5 80t156.5 236h45q-48 -173 -171 -266t-282 -93q-95 0 -178 37t-147 107t-101 180.5t-37 247.5
q0 250 138 406.5t342 156.5q90 0 165.5 -30.5t127.5 -82t88.5 -121t53.5 -146.5t17 -159zM537 1063q-58 0 -116.5 -18.5t-114 -58t-98.5 -96t-70 -139t-29 -180.5h839q-2 108 -28 194t-66.5 140.5t-94.5 91t-109 51.5t-113 15z" />
    <glyph glyph-name="Eogonek" unicode="&#x118;" horiz-adv-x="1140" 
d="M1075 41v-41q-111 -48 -178.5 -129t-67.5 -180q0 -55 25.5 -81t69.5 -26q69 0 133 64v-47q-58 -58 -142 -58q-57 0 -94 32.5t-37 109.5q0 97 56 180t153 135h-796v1413h858v-41h-813v-645h772v-41h-772v-645h833z" />
    <glyph glyph-name="eogonek" unicode="&#x119;" horiz-adv-x="1067" 
d="M993 567q0 -16 -2 -39h-882q3 -134 40.5 -236.5t98 -161t131.5 -87.5t149 -29q136 0 247.5 80t156.5 236h45q-34 -125 -109.5 -208.5t-179.5 -121.5q-19 -8 -31 -10q-97 -36 -157 -119.5t-60 -179.5q0 -55 25.5 -81t69.5 -26q69 0 133 64v-47q-58 -58 -142 -58
q-57 0 -94 32.5t-37 109.5q0 83 42 159t114 127h-27q-95 0 -178 37t-147 107t-101 180.5t-37 247.5q0 250 138 406.5t342 156.5q90 0 165.5 -30.5t127.5 -82t88.5 -121t53.5 -146.5t17 -159zM537 1063q-58 0 -116.5 -18.5t-114 -58t-98.5 -96t-70 -139t-29 -180.5h839
q-2 108 -28 194t-66.5 140.5t-94.5 91t-109 51.5t-113 15z" />
    <glyph glyph-name="Ecaron" unicode="&#x11a;" horiz-adv-x="1140" 
d="M571 1507l-133 193h49l109 -164l109 164h47l-134 -193h-47zM1075 41v-41h-878v1413h858v-41h-813v-645h772v-41h-772v-645h833z" />
    <glyph glyph-name="ecaron" unicode="&#x11b;" horiz-adv-x="1067" 
d="M502 1188l-133 225h49l108 -192l109 192h47l-133 -225h-47zM993 567q0 -16 -2 -39h-882q3 -134 40.5 -236.5t98 -161t131.5 -87.5t149 -29q136 0 247.5 80t156.5 236h45q-48 -173 -171 -266t-282 -93q-95 0 -178 37t-147 107t-101 180.5t-37 247.5q0 250 138 406.5
t342 156.5q90 0 165.5 -30.5t127.5 -82t88.5 -121t53.5 -146.5t17 -159zM537 1063q-58 0 -116.5 -18.5t-114 -58t-98.5 -96t-70 -139t-29 -180.5h839q-2 108 -28 194t-66.5 140.5t-94.5 91t-109 51.5t-113 15z" />
    <glyph glyph-name="Gbreve" unicode="&#x11e;" horiz-adv-x="1421" 
d="M737 1479q-90 0 -144 59.5t-54 161.5h36q1 -84 46 -131t116 -47t116 47t46 131h37q0 -101 -55 -161t-144 -60zM776 629h522v-629h-45v377l-41 -133q-83 -140 -212.5 -206.5t-276.5 -66.5q-133 0 -246.5 50t-196.5 142t-129.5 230.5t-46.5 308.5q0 216 86.5 385.5
t237.5 262t338 92.5q221 0 356 -124.5t176 -326.5l5 -20h-46l-4 20q-37 182 -165 295t-330 113q-118 0 -225 -45.5t-192.5 -130.5t-136 -219.5t-50.5 -298.5q0 -171 45.5 -305t125.5 -217t182 -126t220 -43q68 0 137.5 17.5t140.5 60t125 106t88.5 164.5t34.5 226h-477v41z
" />
    <glyph glyph-name="gbreve" unicode="&#x11f;" horiz-adv-x="1114" 
d="M549 1167q-93 0 -140 65t-47 181h37q2 -96 41 -149.5t109 -53.5t107.5 53.5t39.5 149.5h37q0 -116 -46.5 -181t-137.5 -65zM969 1085v-798q0 -254 -2 -324q-6 -187 -123.5 -300.5t-319.5 -113.5q-78 0 -144 17t-123 53t-94.5 101t-49.5 153l-4 31h45l4 -31
q10 -75 44 -131t85 -88t111 -47t130 -15q185 0 287 105.5t107 279.5q2 72 2 228v41l-58 -123q-70 -84 -148.5 -118t-191.5 -34q-209 0 -337 155.5t-128 403.5q0 139 40 250t108 181.5t155.5 107.5t186.5 37q102 0 174 -32.5t139 -106.5l60 -136v254h45zM530 14q66 0 123 15
t107.5 50t86.5 88.5t56.5 135t20.5 184.5v121q0 126 -34 218.5t-90.5 142t-118.5 72t-130 22.5q-194 0 -317 -146.5t-123 -377.5q0 -144 47 -261.5t144 -190.5t228 -73z" />
    <glyph glyph-name="Gdotaccent" unicode="&#x120;" horiz-adv-x="1421" 
d="M737 1563q-17 0 -29 12t-12 29t12 29t29 12t29 -12t12 -29t-12 -29t-29 -12zM776 629h522v-629h-45v377l-41 -133q-83 -140 -212.5 -206.5t-276.5 -66.5q-133 0 -246.5 50t-196.5 142t-129.5 230.5t-46.5 308.5q0 216 86.5 385.5t237.5 262t338 92.5q221 0 356 -124.5
t176 -326.5l5 -20h-46l-4 20q-37 182 -165 295t-330 113q-118 0 -225 -45.5t-192.5 -130.5t-136 -219.5t-50.5 -298.5q0 -171 45.5 -305t125.5 -217t182 -126t220 -43q68 0 137.5 17.5t140.5 60t125 106t88.5 164.5t34.5 226h-477v41z" />
    <glyph glyph-name="gdotaccent" unicode="&#x121;" horiz-adv-x="1114" 
d="M549 1255q-17 0 -29 12t-12 29t12 29t29 12t29 -12t12 -29t-12 -29t-29 -12zM969 1085v-798q0 -254 -2 -324q-6 -187 -123.5 -300.5t-319.5 -113.5q-78 0 -144 17t-123 53t-94.5 101t-49.5 153l-4 31h45l4 -31q10 -75 44 -131t85 -88t111 -47t130 -15q185 0 287 105.5
t107 279.5q2 72 2 228v41l-58 -123q-70 -84 -148.5 -118t-191.5 -34q-209 0 -337 155.5t-128 403.5q0 139 40 250t108 181.5t155.5 107.5t186.5 37q102 0 174 -32.5t139 -106.5l60 -136v254h45zM530 14q66 0 123 15t107.5 50t86.5 88.5t56.5 135t20.5 184.5v121
q0 126 -34 218.5t-90.5 142t-118.5 72t-130 22.5q-194 0 -317 -146.5t-123 -377.5q0 -144 47 -261.5t144 -190.5t228 -73z" />
    <glyph glyph-name="Gcommaaccent" unicode="&#x122;" horiz-adv-x="1421" 
d="M776 629h522v-629h-45v377l-41 -133q-83 -140 -212.5 -206.5t-276.5 -66.5q-133 0 -246.5 50t-196.5 142t-129.5 230.5t-46.5 308.5q0 216 86.5 385.5t237.5 262t338 92.5q221 0 356 -124.5t176 -326.5l5 -20h-46l-4 20q-37 182 -165 295t-330 113q-118 0 -225 -45.5
t-192.5 -130.5t-136 -219.5t-50.5 -298.5q0 -171 45.5 -305t125.5 -217t182 -126t220 -43q68 0 137.5 17.5t140.5 60t125 106t88.5 164.5t34.5 226h-477v41zM713 -104h51v-11l-100 -239h-39z" />
    <glyph glyph-name="gcommaaccent" unicode="&#x123;" horiz-adv-x="1114" 
d="M573 1190h-51v10l101 240h39zM969 1085v-798q0 -254 -2 -324q-6 -187 -123.5 -300.5t-319.5 -113.5q-78 0 -144 17t-123 53t-94.5 101t-49.5 153l-4 31h45l4 -31q10 -75 44 -131t85 -88t111 -47t130 -15q185 0 287 105.5t107 279.5q2 72 2 228v41l-58 -123
q-70 -84 -148.5 -118t-191.5 -34q-209 0 -337 155.5t-128 403.5q0 139 40 250t108 181.5t155.5 107.5t186.5 37q102 0 174 -32.5t139 -106.5l60 -136v254h45zM530 14q66 0 123 15t107.5 50t86.5 88.5t56.5 135t20.5 184.5v121q0 126 -34 218.5t-90.5 142t-118.5 72
t-130 22.5q-194 0 -317 -146.5t-123 -377.5q0 -144 47 -261.5t144 -190.5t228 -73z" />
    <glyph glyph-name="Hbar" unicode="&#x126;" horiz-adv-x="1341" 
d="M1278 1065h-82v-1065h-45v672h-909v-672h-45v1065h-82v43h82v305h45v-305h909v305h45v-305h82v-43zM1151 1065h-909v-350h909v350z" />
    <glyph glyph-name="hbar" unicode="&#x127;" horiz-adv-x="1105" 
d="M963 774q8 -73 8 -176v-598h-45v580q0 105 -8 178q-16 143 -97 224t-229 81q-75 0 -142.5 -26.5t-121.5 -77.5t-85.5 -133.5t-31.5 -186.5v-639h-45v1255h-103v43h103v218h45v-218h225v-43h-225v-424l43 107q59 83 147.5 125.5t190.5 42.5q162 0 258 -86.5t113 -245.5z
" />
    <glyph glyph-name="Imacron" unicode="&#x12a;" horiz-adv-x="387" 
d="M362 1581h-286v43h286v-43zM242 0h-45v1413h45v-1413z" />
    <glyph glyph-name="imacron" unicode="&#x12b;" horiz-adv-x="335" 
d="M311 1270h-286v43h286v-43zM190 0h-45v1077h45v-1077z" />
    <glyph glyph-name="Iogonek" unicode="&#x12e;" horiz-adv-x="387" 
d="M242 1413v-1413q-111 -48 -178.5 -129t-67.5 -180q0 -55 25 -81t69 -26q69 0 133 64v-47q-58 -58 -141 -58q-57 0 -94 32.5t-37 109.5q0 106 66 194.5t180 138.5v1395h45z" />
    <glyph glyph-name="iogonek" unicode="&#x12f;" horiz-adv-x="335" 
d="M168 1337q17 0 29 -12t12 -29t-12 -29t-29 -12t-29 12t-12 29t12 29t29 12zM145 1077h45v-1077h-18q-109 -29 -179.5 -117t-70.5 -192q0 -55 25 -81t69 -26q70 0 134 64v-47q-58 -58 -142 -58q-57 0 -94 32.5t-37 109.5q0 114 74 210t194 132v1050z" />
    <glyph glyph-name="Idotaccent" unicode="&#x130;" horiz-adv-x="387" 
d="M219 1645q17 0 29 -12t12 -29t-12 -29t-29 -12t-29 12t-12 29t12 29t29 12zM242 0h-45v1413h45v-1413z" />
    <glyph glyph-name="dotlessi" unicode="&#x131;" horiz-adv-x="335" 
d="M190 0h-45v1077h45v-1077z" />
    <glyph glyph-name="IJ" unicode="&#x132;" horiz-adv-x="1400" 
d="M242 0h-45v1413h45v-1413zM1266 1413v-881q0 -120 -4 -186q-5 -73 -29.5 -138t-70 -119.5t-119 -86t-166.5 -31.5q-182 0 -283.5 106.5t-108.5 319.5l-2 62h45l2 -62q4 -103 32 -178.5t76.5 -119.5t108.5 -64.5t134 -20.5q149 0 235.5 88.5t100.5 249.5q4 45 4 164v897
h45z" />
    <glyph glyph-name="ij" unicode="&#x133;" horiz-adv-x="655" 
d="M168 1337q17 0 29 -12t12 -29t-12 -29t-29 -12t-29 12t-12 29t12 29t29 12zM489 1337q17 0 29 -12t12 -29t-12 -29t-29 -12t-28.5 12t-11.5 29t11.5 29t28.5 12zM190 0h-45v1077h45v-1077zM512 1077v-1227q0 -69 -2 -106q-4 -86 -51.5 -130t-116.5 -44q-36 0 -72 8v39
q92 -16 141.5 12t53.5 119q2 29 2 80v1249h45z" />
    <glyph glyph-name="Kcommaaccent" unicode="&#x136;" horiz-adv-x="1132" 
d="M369 727l727 -727h-68l-694 698l-92 -86v-612h-45v1413h45v-749l807 749h59zM584 -104h51v-11l-100 -239h-39z" />
    <glyph glyph-name="kcommaaccent" unicode="&#x137;" horiz-adv-x="937" 
d="M895 0h-68l-544 524l-93 -84v-440h-45v1505h45v-1011l635 583h68l-574 -522zM444 -104h52v-11l-101 -239h-39z" />
    <glyph glyph-name="Lacute" unicode="&#x139;" horiz-adv-x="1103" 
d="M233 1507h-38l108 193h57zM1075 41v-41h-878v1413h45v-1372h833z" />
    <glyph glyph-name="lacute" unicode="&#x13a;" horiz-adv-x="354" 
d="M176 1608h-39l123 225h57zM184 1505v-1259q0 -113 2 -142q3 -50 27 -64.5t88 -6.5v-39q-20 -4 -59 -4q-46 0 -72 23t-29 81q-2 41 -2 152v1259h45z" />
    <glyph glyph-name="Lcommaaccent" unicode="&#x13b;" horiz-adv-x="1103" 
d="M1075 41v-41h-878v1413h45v-1372h833zM569 -104h52v-11l-101 -239h-39z" />
    <glyph glyph-name="lcommaaccent" unicode="&#x13c;" horiz-adv-x="354" 
d="M184 1505v-1259q0 -113 2 -142q3 -50 27 -64.5t88 -6.5v-39q-20 -4 -59 -4q-46 0 -72 23t-29 81q-2 41 -2 152v1259h45zM256 -115l-100 -239h-39l88 250h51v-11z" />
    <glyph glyph-name="Lcaron" unicode="&#x13d;" horiz-adv-x="1103" 
d="M1075 41v-41h-878v1413h45v-1372h833z" />
    <glyph glyph-name="lcaron" unicode="&#x13e;" horiz-adv-x="354" 
d="M184 1505v-1259q0 -113 2 -142q3 -50 27 -64.5t88 -6.5v-39q-20 -4 -59 -4q-46 0 -72 23t-29 81q-2 41 -2 152v1259h45z" />
    <glyph glyph-name="Ldot" unicode="&#x13f;" horiz-adv-x="1103" 
d="M1075 41v-41h-878v1413h45v-1372h833zM676 778q-17 0 -29 12t-12 29t12 29t29 12t29 -12t12 -29t-12 -29t-29 -12z" />
    <glyph glyph-name="ldot" unicode="&#x140;" horiz-adv-x="368" 
d="M184 1505v-1259q0 -113 2 -142q3 -50 27 -64.5t88 -6.5v-39q-20 -4 -59 -4q-46 0 -72 23t-29 81q-2 41 -2 152v1259h45zM322 860q17 0 28.5 -12t11.5 -29t-11.5 -29t-28.5 -12t-29 12t-12 29t12 29t29 12z" />
    <glyph glyph-name="Lslash" unicode="&#x141;" horiz-adv-x="1169" 
d="M1141 41v-41h-879v641l-233 -139v49l233 139v723h45v-696l377 223v-49l-377 -223v-627h834z" />
    <glyph glyph-name="lslash" unicode="&#x142;" horiz-adv-x="413" 
d="M223 649v-403q0 -113 2 -142q3 -50 27 -64.5t88 -6.5v-39q-20 -4 -59 -4q-46 0 -72 23t-29 81q-2 41 -2 152v370l-117 -84v54l117 84v835h45v-803l117 84v-53z" />
    <glyph glyph-name="Nacute" unicode="&#x143;" horiz-adv-x="1304" 
d="M692 1507h-39l109 193h57zM1159 0h-69l-852 1372q4 -190 4 -604v-768h-45v1413h67l854 -1372q-4 190 -4 604v768h45v-1413z" />
    <glyph glyph-name="nacute" unicode="&#x144;" 
d="M551 1188h-39l123 225h57zM942 774q8 -73 8 -176v-598h-45v580q0 105 -8 178q-16 143 -97 224t-229 81q-75 0 -142.5 -26.5t-121.5 -77.5t-85.5 -133.5t-31.5 -186.5v-639h-45v1077h45v-246l43 107q59 83 147.5 125.5t190.5 42.5q162 0 258 -86.5t113 -245.5z" />
    <glyph glyph-name="Ncommaaccent" unicode="&#x145;" horiz-adv-x="1304" 
d="M1159 0h-69l-852 1372q4 -190 4 -604v-768h-45v1413h67l854 -1372q-4 190 -4 604v768h45v-1413zM705 -115l-101 -239h-39l88 250h52v-11z" />
    <glyph glyph-name="ncommaaccent" unicode="&#x146;" 
d="M942 774q8 -73 8 -176v-598h-45v580q0 105 -8 178q-16 143 -97 224t-229 81q-75 0 -142.5 -26.5t-121.5 -77.5t-85.5 -133.5t-31.5 -186.5v-639h-45v1077h45v-246l43 107q59 83 147.5 125.5t190.5 42.5q162 0 258 -86.5t113 -245.5zM512 -104h51v-11l-100 -239h-39z" />
    <glyph glyph-name="Ncaron" unicode="&#x147;" horiz-adv-x="1304" 
d="M655 1507l-133 193h49l109 -164l108 164h48l-134 -193h-47zM1159 1413v-1413h-69l-852 1372q4 -190 4 -604v-768h-45v1413h67l854 -1372q-4 190 -4 604v768h45z" />
    <glyph glyph-name="ncaron" unicode="&#x148;" 
d="M514 1188l-133 225h49l109 -192l108 192h47l-133 -225h-47zM942 774q8 -73 8 -176v-598h-45v580q0 105 -8 178q-16 143 -97 224t-229 81q-75 0 -142.5 -26.5t-121.5 -77.5t-85.5 -133.5t-31.5 -186.5v-639h-45v1077h45v-246l43 107q59 83 147.5 125.5t190.5 42.5
q162 0 258 -86.5t113 -245.5z" />
    <glyph glyph-name="Eng" unicode="&#x14a;" horiz-adv-x="1304" 
d="M1159 1413v-1550q0 -55 -2 -84q-9 -122 -76.5 -176.5t-203.5 -59.5v43q124 0 180.5 54t56.5 190v131l-876 1411q4 -190 4 -604v-768h-45v1413h67l854 -1372q-4 190 -4 604v768h45z" />
    <glyph glyph-name="eng" unicode="&#x14b;" 
d="M942 774q8 -73 8 -176v-709q0 -55 -2 -84q-9 -123 -77.5 -179t-202.5 -56v43q111 0 169.5 41.5t65.5 142.5q2 31 2 86v697q0 105 -8 178q-16 143 -97 224t-229 81q-75 0 -142.5 -26.5t-121.5 -77.5t-85.5 -133.5t-31.5 -186.5v-639h-45v1077h45v-246l43 107
q59 83 147.5 125.5t190.5 42.5q162 0 258 -86.5t113 -245.5z" />
    <glyph glyph-name="Omacron" unicode="&#x14c;" horiz-adv-x="1460" 
d="M887 1581h-287v43h287v-43zM743 1442q142 0 262 -55.5t202.5 -153t128.5 -233t46 -293.5q0 -210 -78.5 -377t-225 -263t-335.5 -96t-335.5 96t-225 263t-78.5 377q0 158 46 293.5t128.5 233t202.5 153t262 55.5zM743 14q119 0 225.5 47t187.5 133t129 219t48 294
q0 130 -31 242t-86 194t-129 140t-161.5 87t-182.5 29q-119 0 -225 -46.5t-187.5 -132t-129 -218.5t-47.5 -295q0 -161 47.5 -294t129 -219t187.5 -133t225 -47z" />
    <glyph glyph-name="omacron" unicode="&#x14d;" horiz-adv-x="1134" 
d="M711 1270h-287v43h287v-43zM567 1106q227 0 366.5 -156.5t139.5 -412.5q0 -255 -139.5 -410.5t-366.5 -155.5t-366.5 155.5t-139.5 410.5q0 256 139.5 412.5t366.5 156.5zM567 14q90 0 170 32t145.5 94t103.5 164.5t38 232.5q0 131 -38 234t-103.5 165.5t-145.5 94.5
t-170 32t-170 -32t-145 -94.5t-103 -165.5t-38 -234q0 -130 38 -232.5t103 -164.5t145 -94t170 -32z" />
    <glyph glyph-name="Ohungarumlaut" unicode="&#x150;" horiz-adv-x="1460" 
d="M672 1507h-39l108 193h58zM850 1507h-39l109 193h57zM743 1442q142 0 262 -55.5t202.5 -153t128.5 -233t46 -293.5q0 -210 -78.5 -377t-225 -263t-335.5 -96t-335.5 96t-225 263t-78.5 377q0 158 46 293.5t128.5 233t202.5 153t262 55.5zM743 14q119 0 225.5 47
t187.5 133t129 219t48 294q0 130 -31 242t-86 194t-129 140t-161.5 87t-182.5 29q-119 0 -225 -46.5t-187.5 -132t-129 -218.5t-47.5 -295q0 -161 47.5 -294t129 -219t187.5 -133t225 -47z" />
    <glyph glyph-name="ohungarumlaut" unicode="&#x151;" horiz-adv-x="1134" 
d="M475 1188h-39l123 225h57zM680 1188h-39l123 225h57zM567 1106q227 0 366.5 -156.5t139.5 -412.5q0 -255 -139.5 -410.5t-366.5 -155.5t-366.5 155.5t-139.5 410.5q0 256 139.5 412.5t366.5 156.5zM567 14q90 0 170 32t145.5 94t103.5 164.5t38 232.5q0 131 -38 234
t-103.5 165.5t-145.5 94.5t-170 32t-170 -32t-145 -94.5t-103 -165.5t-38 -234q0 -130 38 -232.5t103 -164.5t145 -94t170 -32z" />
    <glyph glyph-name="OE" unicode="&#x152;" horiz-adv-x="2277" 
d="M2212 41v-41h-879v422l-63 -160q-100 -153 -227 -222t-300 -69q-189 0 -335.5 96t-225 263t-78.5 377q0 158 46 293.5t128.5 233t202.5 153t262 55.5q177 0 295 -63.5t232 -219.5l63 -168v422h858v-41h-813v-645h772v-41h-772v-645h834zM743 14q126 0 234 46.5t187 133.5
t124 219t45 294q0 163 -45 295t-124 218t-187 132.5t-234 46.5q-119 0 -225 -46.5t-187.5 -132t-129 -218.5t-47.5 -295q0 -161 47.5 -294t129 -219t187.5 -133t225 -47z" />
    <glyph glyph-name="oe" unicode="&#x153;" horiz-adv-x="2029" 
d="M1956 567q0 -16 -2 -39h-881q2 -108 27.5 -196t65.5 -146.5t94 -98t111.5 -56.5t119.5 -17q136 0 247 80t156 236h45q-48 -173 -170.5 -266t-281.5 -93q-158 0 -280 98t-163 285q-44 -180 -171.5 -281.5t-305.5 -101.5q-227 0 -366.5 155.5t-139.5 410.5
q0 256 139.5 412.5t366.5 156.5q181 0 310.5 -101.5t173.5 -283.5q39 181 165.5 283t288.5 102q90 0 165.5 -30.5t127.5 -82t88 -121t53 -146.5t17 -159zM567 14q90 0 170 32t145.5 94t103.5 164.5t38 232.5q0 131 -38 234t-103.5 165.5t-145.5 94.5t-170 32t-170 -32
t-145 -94.5t-103 -165.5t-38 -234q0 -130 38 -232.5t103 -164.5t145 -94t170 -32zM1073 571h836q-2 108 -28 194t-66 140.5t-93.5 91t-108 51.5t-112.5 15q-60 0 -119 -18.5t-114 -58t-97.5 -96t-69 -139t-28.5 -180.5z" />
    <glyph glyph-name="Racute" unicode="&#x154;" horiz-adv-x="1169" 
d="M635 1507h-39l109 193h57zM1010 387q17 -146 38.5 -228.5t55.5 -158.5h-53q-1 3 -9 26.5t-9.5 28l-9 27t-10 31.5t-8.5 32t-9 37.5t-8.5 39t-9 46.5t-7.5 50.5t-8 58.5q-15 132 -79 219.5t-184 93.5q-45 2 -129 2h-329v-692h-45v1413h342q119 0 202 -10
q166 -20 254 -107.5t88 -238.5q0 -135 -78.5 -227t-216.5 -117q96 -27 152 -113t70 -213zM242 735h329q88 0 154 4q143 10 226 96.5t83 219.5q0 266 -301 305q-83 10 -194 10h-297v-635z" />
    <glyph glyph-name="racute" unicode="&#x155;" horiz-adv-x="526" 
d="M276 1188h-38l122 225h58zM477 1106q33 0 47 -2v-41q-156 13 -245 -102t-89 -371v-590h-45v1077h45v-231l43 123q43 65 106.5 101t137.5 36z" />
    <glyph glyph-name="Rcommaaccent" unicode="&#x156;" horiz-adv-x="1169" 
d="M1010 387q17 -146 38.5 -228.5t55.5 -158.5h-53q-1 3 -9 26.5t-9.5 28l-9 27t-10 31.5t-8.5 32t-9 37.5t-8.5 39t-9 46.5t-7.5 50.5t-8 58.5q-15 132 -79 219.5t-184 93.5q-45 2 -129 2h-329v-692h-45v1413h342q119 0 202 -10q166 -20 254 -107.5t88 -238.5
q0 -135 -78.5 -227t-216.5 -117q96 -27 152 -113t70 -213zM242 735h329q88 0 154 4q143 10 226 96.5t83 219.5q0 266 -301 305q-83 10 -194 10h-297v-635zM575 -104h52v-11l-101 -239h-39z" />
    <glyph glyph-name="rcommaaccent" unicode="&#x157;" horiz-adv-x="526" 
d="M477 1106q33 0 47 -2v-41q-156 13 -245 -102t-89 -371v-590h-45v1077h45v-231l43 123q43 65 106.5 101t137.5 36zM143 -104h52v-11l-101 -239h-39z" />
    <glyph glyph-name="Rcaron" unicode="&#x158;" horiz-adv-x="1169" 
d="M598 1507l-133 193h49l109 -164l108 164h47l-133 -193h-47zM1010 387q17 -146 38.5 -228.5t55.5 -158.5h-53q-1 3 -9 26.5t-9.5 28l-9 27t-10 31.5t-8.5 32t-9 37.5t-8.5 39t-9 46.5t-7.5 50.5t-8 58.5q-15 132 -79 219.5t-184 93.5q-45 2 -129 2h-329v-692h-45v1413h342
q119 0 202 -10q166 -20 254 -107.5t88 -238.5q0 -135 -78.5 -227t-216.5 -117q96 -27 152 -113t70 -213zM242 735h329q88 0 154 4q143 10 226 96.5t83 219.5q0 266 -301 305q-83 10 -194 10h-297v-635z" />
    <glyph glyph-name="rcaron" unicode="&#x159;" horiz-adv-x="526" 
d="M240 1188l-134 225h50l108 -192l109 192h47l-133 -225h-47zM477 1106q33 0 47 -2v-41q-156 13 -245 -102t-89 -371v-590h-45v1077h45v-231l43 123q43 65 106.5 101t137.5 36z" />
    <glyph glyph-name="Sacute" unicode="&#x15a;" horiz-adv-x="1146" 
d="M588 1507h-39l108 193h58zM582 1442q188 0 299 -110t133 -279h-45q-27 161 -132.5 253.5t-256.5 92.5q-69 0 -136.5 -20t-123.5 -57t-90.5 -97t-34.5 -133q0 -51 10 -90.5t33.5 -72t53.5 -57t79.5 -47.5t101.5 -41.5t129 -40.5q231 -66 333.5 -154t102.5 -247
q0 -158 -130.5 -264.5t-327.5 -106.5q-198 0 -338.5 102t-161.5 296h45q20 -167 149 -261t308 -94q175 0 291 91.5t116 232.5q0 76 -22 130t-75 95.5t-124.5 71.5t-185.5 63q-120 34 -197 67t-134 78t-81.5 104t-24.5 140q0 101 60.5 183t160.5 127t216 45z" />
    <glyph glyph-name="sacute" unicode="&#x15b;" horiz-adv-x="890" 
d="M451 1188h-39l123 225h57zM440 1106q81 0 146.5 -25t109 -69.5t71 -101.5t38.5 -126h-45q-34 142 -112.5 210.5t-209.5 68.5q-119 0 -202.5 -66t-83.5 -180q0 -106 74 -161.5t218 -88.5q194 -43 282.5 -113t88.5 -200q0 -128 -101 -205.5t-261 -77.5q-161 0 -271 86.5
t-129 261.5h45q47 -305 359 -305q134 0 222.5 62.5t88.5 175.5q0 112 -74.5 169.5t-269.5 102.5q-55 13 -99 28t-86.5 39t-71 54t-46 73.5t-17.5 96.5q0 125 94.5 208t241.5 83z" />
    <glyph glyph-name="Scedilla" unicode="&#x15e;" horiz-adv-x="1146" 
d="M1038 342q0 -157 -130 -264t-326 -107l-41 -75q180 -16 180 -158q0 -83 -61.5 -125.5t-145.5 -42.5q-67 0 -108 20v45q43 -22 108 -22q72 0 116 32t44 93q0 62 -49.5 93.5t-151.5 27.5l59 114q-118 7 -213 51.5t-160.5 133t-78.5 211.5h45q20 -167 149 -261t308 -94
q175 0 291 91.5t116 232.5q0 76 -22 130t-75 95.5t-124.5 71.5t-185.5 63q-120 34 -197 67t-134 78t-81.5 104t-24.5 140q0 101 60.5 183t160.5 127t216 45q188 0 299 -110t133 -279h-45q-27 161 -132.5 253.5t-256.5 92.5q-69 0 -136.5 -20t-123.5 -57t-90.5 -97
t-34.5 -133q0 -51 10 -90.5t33.5 -72t53.5 -57t79.5 -47.5t101.5 -41.5t129 -40.5q231 -66 333.5 -154t102.5 -247z" />
    <glyph glyph-name="scedilla" unicode="&#x15f;" horiz-adv-x="890" 
d="M815 254q0 -125 -97.5 -202.5t-252.5 -80.5l-41 -75q180 -16 180 -158q0 -83 -61.5 -125.5t-145.5 -42.5q-67 0 -108 20v45q43 -22 108 -22q72 0 116 32t44 93q0 62 -49.5 93.5t-151.5 27.5l60 114q-147 10 -246 96t-117 250h45q47 -305 359 -305q134 0 222.5 62.5
t88.5 175.5q0 112 -74.5 169.5t-269.5 102.5q-55 13 -99 28t-86.5 39t-71 54t-46 73.5t-17.5 96.5q0 125 94.5 208t241.5 83q81 0 146.5 -25t109 -69.5t71 -101.5t38.5 -126h-45q-34 142 -112.5 210.5t-209.5 68.5q-119 0 -202.5 -66t-83.5 -180q0 -106 74 -161.5t218 -88.5
q194 -43 282.5 -113t88.5 -200z" />
    <glyph glyph-name="Scaron" unicode="&#x160;" horiz-adv-x="1146" 
d="M551 1507l-133 193h49l108 -164l109 164h47l-133 -193h-47zM602 743q231 -66 333.5 -154t102.5 -247q0 -158 -130.5 -264.5t-327.5 -106.5q-198 0 -338.5 102t-161.5 296h45q20 -167 149 -261t308 -94q175 0 291 91.5t116 232.5q0 76 -22 130t-75 95.5t-124.5 71.5
t-185.5 63q-120 34 -197 67t-134 78t-81.5 104t-24.5 140q0 101 60.5 183t160.5 127t216 45q188 0 299 -110t133 -279h-45q-27 161 -132.5 253.5t-256.5 92.5q-69 0 -136.5 -20t-123.5 -57t-90.5 -97t-34.5 -133q0 -51 10 -90.5t33.5 -72t53.5 -57t79.5 -47.5t101.5 -41.5
t129 -40.5z" />
    <glyph glyph-name="scaron" unicode="&#x161;" horiz-adv-x="890" 
d="M414 1188l-133 225h49l108 -192l109 192h47l-133 -225h-47zM444 567q194 -43 282.5 -113t88.5 -200q0 -128 -101 -205.5t-261 -77.5q-161 0 -271 86.5t-129 261.5h45q47 -305 359 -305q134 0 222.5 62.5t88.5 175.5q0 112 -74.5 169.5t-269.5 102.5q-55 13 -99 28
t-86.5 39t-71 54t-46 73.5t-17.5 96.5q0 125 94.5 208t241.5 83q81 0 146.5 -25t109 -69.5t71 -101.5t38.5 -126h-45q-34 142 -112.5 210.5t-209.5 68.5q-119 0 -202.5 -66t-83.5 -180q0 -106 74 -161.5t218 -88.5z" />
    <glyph glyph-name="Tcedilla" unicode="&#x162;" horiz-adv-x="1187" 
d="M651 1372v-1358h8l-63 -118q180 -16 180 -158q0 -83 -61.5 -125.5t-145.5 -42.5q-67 0 -108 20v45q43 -22 108 -22q72 0 116 32t44 93q0 62 -49.5 93.5t-151.5 27.5l78 151v1362h-540v41h1126v-41h-541z" />
    <glyph glyph-name="tcedilla" unicode="&#x163;" horiz-adv-x="483" 
d="M338 -14l-49 -90q180 -16 180 -158q0 -83 -61.5 -125.5t-145.5 -42.5q-67 0 -108 20v45q43 -22 108 -22q72 0 116 32t44 93q0 62 -49.5 93.5t-151.5 27.5l68 133q-90 24 -99 133q-4 49 -4 145v762h-129v37h129v221h45v-221h211v-37h-211v-770q0 -88 2 -117q6 -81 52 -107
t164 -9v-37q-41 -6 -103 -6h-8z" />
    <glyph glyph-name="Tcaron" unicode="&#x164;" horiz-adv-x="1187" 
d="M606 1507l-133 193h49l109 -164l108 164h47l-133 -193h-47zM1192 1372h-541v-1372h-45v1372h-540v41h1126v-41z" />
    <glyph glyph-name="tcaron" unicode="&#x165;" horiz-adv-x="452" 
d="M479 1503v-10l-100 -240h-39l88 250h51zM233 145q6 -81 52 -107t164 -9v-37q-41 -6 -103 -6q-144 0 -156 139q-4 49 -4 145v762h-129v37h129v221h45v-221h211v-37h-211v-770q0 -88 2 -117z" />
    <glyph glyph-name="Tbar" unicode="&#x166;" horiz-adv-x="1187" 
d="M651 1372v-667h295v-43h-295v-662h-45v662h-295v43h295v667h-540v41h1126v-41h-541z" />
    <glyph glyph-name="tbar" unicode="&#x167;" horiz-adv-x="483" 
d="M233 145q6 -81 52 -107t164 -9v-37q-41 -6 -103 -6q-144 0 -156 139q-4 49 -4 145v406h-112v43h112v313h-129v37h129v221h45v-221h211v-37h-211v-313h129v-43h-129v-414q0 -88 2 -117z" />
    <glyph glyph-name="Umacron" unicode="&#x16a;" horiz-adv-x="1228" 
d="M782 1581h-286v43h286v-43zM1094 1413v-936q0 -27 -7 -137q-11 -168 -126.5 -268.5t-321.5 -100.5t-322 100.5t-127 268.5q-6 95 -6 137v936h45v-944q0 -52 7 -127q6 -69 32.5 -126.5t74 -103.5t123.5 -72t173 -26t173 26t123.5 72t74 103.5t32.5 126.5q7 75 7 127v944
h45z" />
    <glyph glyph-name="umacron" unicode="&#x16b;" horiz-adv-x="1077" 
d="M672 1270h-287v43h287v-43zM932 1077v-1077h-45v246l-43 -107q-59 -83 -147.5 -125.5t-190.5 -42.5q-162 0 -258 86.5t-113 245.5q-8 73 -8 176v598h45v-579q0 -106 8 -179q16 -143 97 -224t229 -81q75 0 142.5 26.5t121.5 77.5t85.5 133.5t31.5 186.5v639h45z" />
    <glyph glyph-name="Uring" unicode="&#x16e;" horiz-adv-x="1228" 
d="M639 1729q54 0 91.5 -34t37.5 -91t-37.5 -91t-91.5 -34t-91.5 34t-37.5 91t37.5 91t91.5 34zM639 1686q-37 0 -58.5 -23.5t-21.5 -58.5t21.5 -58.5t58.5 -23.5t58.5 23.5t21.5 58.5t-21.5 58.5t-58.5 23.5zM1094 1413v-936q0 -27 -7 -137q-11 -168 -126.5 -268.5
t-321.5 -100.5t-322 100.5t-127 268.5q-6 95 -6 137v936h45v-944q0 -52 7 -127q6 -69 32.5 -126.5t74 -103.5t123.5 -72t173 -26t173 26t123.5 72t74 103.5t32.5 126.5q7 75 7 127v944h45z" />
    <glyph glyph-name="uring" unicode="&#x16f;" horiz-adv-x="1077" 
d="M528 1171q-54 0 -90.5 35t-36.5 92t36.5 92t90.5 35t90.5 -35t36.5 -92t-36.5 -92t-90.5 -35zM528 1382q-37 0 -58 -24.5t-21 -59.5t21 -59.5t58 -24.5t58.5 24.5t21.5 59.5t-21.5 59.5t-58.5 24.5zM932 1077v-1077h-45v246l-43 -107q-59 -83 -147.5 -125.5t-190.5 -42.5
q-162 0 -258 86.5t-113 245.5q-8 73 -8 176v598h45v-579q0 -106 8 -179q16 -143 97 -224t229 -81q75 0 142.5 26.5t121.5 77.5t85.5 133.5t31.5 186.5v639h45z" />
    <glyph glyph-name="Uhungarumlaut" unicode="&#x170;" horiz-adv-x="1228" 
d="M567 1507h-39l109 193h57zM745 1507h-38l108 193h57zM1094 1413v-936q0 -27 -7 -137q-11 -168 -126.5 -268.5t-321.5 -100.5t-322 100.5t-127 268.5q-6 95 -6 137v936h45v-944q0 -52 7 -127q6 -69 32.5 -126.5t74 -103.5t123.5 -72t173 -26t173 26t123.5 72t74 103.5
t32.5 126.5q7 75 7 127v944h45z" />
    <glyph glyph-name="uhungarumlaut" unicode="&#x171;" horiz-adv-x="1077" 
d="M436 1188h-39l123 225h58zM641 1188h-39l123 225h57zM932 1077v-1077h-45v246l-43 -107q-59 -83 -147.5 -125.5t-190.5 -42.5q-162 0 -258 86.5t-113 245.5q-8 73 -8 176v598h45v-579q0 -106 8 -179q16 -143 97 -224t229 -81q75 0 142.5 26.5t121.5 77.5t85.5 133.5
t31.5 186.5v639h45z" />
    <glyph glyph-name="Uogonek" unicode="&#x172;" horiz-adv-x="1228" 
d="M1094 1413v-936q0 -27 -7 -137q-8 -124 -73 -212.5t-183 -127.5q-110 -48 -177.5 -129t-67.5 -180q0 -55 25 -81t69 -26q69 0 133 64v-47q-58 -58 -141 -58q-57 0 -94 32.5t-37 109.5q0 85 44.5 160t123.5 130q-46 -4 -70 -4q-206 0 -322 100.5t-127 268.5q-6 95 -6 137
v936h45v-944q0 -52 7 -127q6 -69 32.5 -126.5t74 -103.5t123.5 -72t173 -26t173 26t123.5 72t74 103.5t32.5 126.5q7 75 7 127v944h45z" />
    <glyph glyph-name="uogonek" unicode="&#x173;" horiz-adv-x="1077" 
d="M932 1077v-1077h-19q-109 -29 -179 -117t-70 -192q0 -55 25 -81t69 -26q69 0 133 64v-47q-58 -58 -141 -58q-57 0 -94.5 32.5t-37.5 109.5q0 114 74.5 210t194.5 132v219l-43 -107q-59 -83 -147.5 -125.5t-190.5 -42.5q-162 0 -258 86.5t-113 245.5q-8 73 -8 176v598h45
v-579q0 -106 8 -179q16 -143 97 -224t229 -81q75 0 142.5 26.5t121.5 77.5t85.5 133.5t31.5 186.5v639h45z" />
    <glyph glyph-name="Wcircumflex" unicode="&#x174;" horiz-adv-x="1685" 
d="M743 1507h-47l133 193h48l133 -193h-49l-109 164zM1692 1413l-381 -1413h-58l-379 1343l-407 -1343h-59l-355 1413h47l340 -1368l404 1348h61l377 -1344l365 1364h45z" />
    <glyph glyph-name="wcircumflex" unicode="&#x175;" horiz-adv-x="1466" 
d="M635 1188h-47l133 225h47l133 -225h-49l-109 192zM1450 1077l-340 -1077h-57l-308 1022l-307 -1022h-69l-342 1077h51l325 -1032l310 1028h63l309 -1022l316 1026h49z" />
    <glyph glyph-name="Ycircumflex" unicode="&#x176;" horiz-adv-x="1116" 
d="M463 1507h-47l133 193h47l133 -193h-49l-109 164zM594 578v-578h-45v578l-502 835h53l473 -788l469 788h56z" />
    <glyph glyph-name="ycircumflex" unicode="&#x177;" horiz-adv-x="935" 
d="M362 1188h-47l134 225h47l133 -225h-49l-109 192zM920 1077l-416 -1077q-53 -139 -98 -226.5t-87.5 -131t-79 -58t-85.5 -14.5q-41 0 -72 8v41q36 -8 80 -8q67 0 127 62t125 221l35 86l-422 1097h51l395 -1040l395 1040h52z" />
    <glyph glyph-name="Ydieresis" unicode="&#x178;" horiz-adv-x="1116" 
d="M500 1563q-17 0 -29 12t-12 29t12 29t29 12t29 -12t12 -29t-12 -29t-29 -12zM643 1563q-17 0 -29 12t-12 29t12 29t29 12t29 -12t12 -29t-12 -29t-29 -12zM594 578v-578h-45v578l-502 835h53l473 -788l469 788h56z" />
    <glyph glyph-name="Zacute" unicode="&#x179;" horiz-adv-x="1099" 
d="M575 1507h-38l108 193h57zM1049 43v-43h-975v35l909 1335h-852v43h905v-41l-905 -1329h918z" />
    <glyph glyph-name="zacute" unicode="&#x17a;" horiz-adv-x="909" 
d="M469 1188h-39l123 225h57zM864 39v-39h-837v37l772 981h-717v43h776v-41l-774 -981h780z" />
    <glyph glyph-name="Zdotaccent" unicode="&#x17b;" horiz-adv-x="1099" 
d="M561 1563q-17 0 -29 12t-12 29t12 29t29 12t29 -12t12 -29t-12 -29t-29 -12zM1049 43v-43h-975v35l909 1335h-852v43h905v-41l-905 -1329h918z" />
    <glyph glyph-name="zdotaccent" unicode="&#x17c;" horiz-adv-x="909" 
d="M455 1255q-17 0 -29 12t-12 29t12 29t29 12t29 -12t12 -29t-12 -29t-29 -12zM864 39v-39h-837v37l772 981h-717v43h776v-41l-774 -981h780z" />
    <glyph glyph-name="Zcaron" unicode="&#x17d;" horiz-adv-x="1099" 
d="M539 1507l-133 193h49l108 -164l109 164h47l-133 -193h-47zM1049 43v-43h-975v35l909 1335h-852v43h905v-41l-905 -1329h918z" />
    <glyph glyph-name="zcaron" unicode="&#x17e;" horiz-adv-x="909" 
d="M432 1188l-133 225h49l109 -192l108 192h47l-133 -225h-47zM864 39v-39h-837v37l772 981h-717v43h776v-41l-774 -981h780z" />
    <glyph glyph-name="Scommaaccent" unicode="&#x218;" horiz-adv-x="1146" 
d="M582 1442q188 0 299 -110t133 -279h-45q-27 161 -132.5 253.5t-256.5 92.5q-69 0 -136.5 -20t-123.5 -57t-90.5 -97t-34.5 -133q0 -51 10 -90.5t33.5 -72t53.5 -57t79.5 -47.5t101.5 -41.5t129 -40.5q231 -66 333.5 -154t102.5 -247q0 -158 -130.5 -264.5t-327.5 -106.5
q-198 0 -338.5 102t-161.5 296h45q20 -167 149 -261t308 -94q175 0 291 91.5t116 232.5q0 76 -22 130t-75 95.5t-124.5 71.5t-185.5 63q-120 34 -197 67t-134 78t-81.5 104t-24.5 140q0 101 60.5 183t160.5 127t216 45zM600 -115l-100 -239h-39l88 250h51v-11z" />
    <glyph glyph-name="scommaaccent" unicode="&#x219;" horiz-adv-x="890" 
d="M440 1106q81 0 146.5 -25t109 -69.5t71 -101.5t38.5 -126h-45q-34 142 -112.5 210.5t-209.5 68.5q-119 0 -202.5 -66t-83.5 -180q0 -106 74 -161.5t218 -88.5q194 -43 282.5 -113t88.5 -200q0 -128 -101 -205.5t-261 -77.5q-161 0 -271 86.5t-129 261.5h45
q47 -305 359 -305q134 0 222.5 62.5t88.5 175.5q0 112 -74.5 169.5t-269.5 102.5q-55 13 -99 28t-86.5 39t-71 54t-46 73.5t-17.5 96.5q0 125 94.5 208t241.5 83zM483 -115l-100 -239h-39l88 250h51v-11z" />
    <glyph glyph-name="uni021A" unicode="&#x21a;" horiz-adv-x="1187" 
d="M1192 1413v-41h-541v-1372h-45v1372h-540v41h1126zM604 -104h51v-11l-100 -239h-39z" />
    <glyph glyph-name="uni021B" unicode="&#x21b;" horiz-adv-x="483" 
d="M233 145q6 -81 52 -107t164 -9v-37q-41 -6 -103 -6q-144 0 -156 139q-4 49 -4 145v762h-129v37h129v221h45v-221h211v-37h-211v-770q0 -88 2 -117zM297 -104h51v-11l-100 -239h-39z" />
    <glyph glyph-name="circumflex" unicode="&#x2c6;" horiz-adv-x="614" 
d="M416 1188l-109 192l-108 -192h-47l133 225h47l133 -225h-49z" />
    <glyph glyph-name="caron" unicode="&#x2c7;" horiz-adv-x="614" 
d="M465 1413l-133 -225h-47l-133 225h49l108 -192l109 192h47z" />
    <glyph glyph-name="breve" unicode="&#x2d8;" horiz-adv-x="614" 
d="M455 1413h37q0 -116 -46.5 -181t-138.5 -65q-93 0 -139.5 65t-46.5 181h37q2 -96 40.5 -149.5t108.5 -53.5t108 53.5t40 149.5z" />
    <glyph glyph-name="dotaccent" unicode="&#x2d9;" horiz-adv-x="614" 
d="M307 1337q17 0 29 -12t12 -29t-12 -29t-29 -12t-29 12t-12 29t12 29t29 12z" />
    <glyph glyph-name="ring" unicode="&#x2da;" horiz-adv-x="614" 
d="M307 1425q54 0 90.5 -35t36.5 -92t-36.5 -92t-90.5 -35t-90.5 35t-36.5 92t36.5 92t90.5 35zM307 1382q-37 0 -58.5 -24.5t-21.5 -59.5t21.5 -59.5t58.5 -24.5t58.5 24.5t21.5 59.5t-21.5 59.5t-58.5 24.5z" />
    <glyph glyph-name="ogonek" unicode="&#x2db;" horiz-adv-x="614" 
d="M307 27l27 -27q-109 -29 -179.5 -117t-70.5 -192q0 -55 25 -81t69 -26q69 0 133 64v-47q-58 -58 -141 -58q-57 0 -94 32.5t-37 109.5q0 114 74 210t194 132z" />
    <glyph glyph-name="tilde" unicode="&#x2dc;" horiz-adv-x="614" 
d="M201 1374q37 0 116 -26q77 -25 97 -25q32 0 32 43h41q0 -84 -73 -84q-34 0 -117 27q-73 24 -96 24q-33 0 -33 -43h-41q0 84 74 84z" />
    <glyph glyph-name="hungarumlaut" unicode="&#x2dd;" horiz-adv-x="614" 
d="M215 1188h-39l123 225h57zM420 1188h-39l123 225h57z" />
    <glyph glyph-name="uni0326" unicode="&#x326;" horiz-adv-x="0" 
d="M334 -115l-101 -239h-38l88 250h51v-11z" />
    <glyph glyph-name="Wgrave" unicode="&#x1e80;" horiz-adv-x="1685" 
d="M831 1507l-126 193h57l108 -193h-39zM1692 1413l-381 -1413h-58l-379 1343l-407 -1343h-59l-355 1413h47l340 -1368l404 1348h61l377 -1344l365 1364h45z" />
    <glyph glyph-name="wgrave" unicode="&#x1e81;" horiz-adv-x="1466" 
d="M733 1188l-141 225h57l123 -225h-39zM1450 1077l-340 -1077h-57l-308 1022l-307 -1022h-69l-342 1077h51l325 -1032l310 1028h63l309 -1022l316 1026h49z" />
    <glyph glyph-name="Wacute" unicode="&#x1e82;" horiz-adv-x="1685" 
d="M866 1507h-39l109 193h57zM1692 1413l-381 -1413h-58l-379 1343l-407 -1343h-59l-355 1413h47l340 -1368l404 1348h61l377 -1344l365 1364h45z" />
    <glyph glyph-name="wacute" unicode="&#x1e83;" horiz-adv-x="1466" 
d="M758 1188h-39l123 225h57zM1450 1077l-340 -1077h-57l-308 1022l-307 -1022h-69l-342 1077h51l325 -1032l310 1028h63l309 -1022l316 1026h49z" />
    <glyph glyph-name="Wdieresis" unicode="&#x1e84;" horiz-adv-x="1685" 
d="M780 1563q-17 0 -29 12t-12 29t12 29t29 12t29 -12t12 -29t-12 -29t-29 -12zM924 1563q-17 0 -29 12t-12 29t12 29t29 12t29 -12t12 -29t-12 -29t-29 -12zM1692 1413l-381 -1413h-58l-379 1343l-407 -1343h-59l-355 1413h47l340 -1368l404 1348h61l377 -1344l365 1364h45
z" />
    <glyph glyph-name="wdieresis" unicode="&#x1e85;" horiz-adv-x="1466" 
d="M662 1255q-17 0 -29 12t-12 29t12 29t29 12t28.5 -12t11.5 -29t-11.5 -29t-28.5 -12zM825 1255q-17 0 -29 12t-12 29t12 29t29 12t29 -12t12 -29t-12 -29t-29 -12zM1450 1077l-340 -1077h-57l-308 1022l-307 -1022h-69l-342 1077h51l325 -1032l310 1028h63l309 -1022
l316 1026h49z" />
    <glyph glyph-name="Ygrave" unicode="&#x1ef2;" horiz-adv-x="1116" 
d="M551 1507l-127 193h57l109 -193h-39zM594 578v-578h-45v578l-502 835h53l473 -788l469 788h56z" />
    <glyph glyph-name="ygrave" unicode="&#x1ef3;" horiz-adv-x="935" 
d="M461 1188l-142 225h58l123 -225h-39zM920 1077l-416 -1077q-53 -139 -98 -226.5t-87.5 -131t-79 -58t-85.5 -14.5q-41 0 -72 8v41q36 -8 80 -8q67 0 127 62t125 221l35 86l-422 1097h51l395 -1040l395 1040h52z" />
    <glyph glyph-name="endash" unicode="&#x2013;" horiz-adv-x="1024" 
d="M881 573h-738v43h738v-43z" />
    <glyph glyph-name="emdash" unicode="&#x2014;" horiz-adv-x="2048" 
d="M1905 573h-1762v43h1762v-43z" />
    <glyph glyph-name="quoteleft" unicode="&#x2018;" horiz-adv-x="233" 
d="M29 1016l151 489h41l-143 -499h-47z" />
    <glyph glyph-name="quoteright" unicode="&#x2019;" horiz-adv-x="233" 
d="M205 1495l-152 -489h-41l144 499h47z" />
    <glyph glyph-name="quotesinglbase" unicode="&#x201a;" horiz-adv-x="307" 
d="M139 39l-104 -277h-39l94 287h47z" />
    <glyph glyph-name="quotedblleft" unicode="&#x201c;" horiz-adv-x="417" 
d="M29 1016l151 489h41l-143 -499h-47zM213 1016l152 489h41l-144 -499h-47z" />
    <glyph glyph-name="quotedblright" unicode="&#x201d;" horiz-adv-x="417" 
d="M205 1495l-152 -489h-41l144 499h47zM389 1495l-151 -489h-41l143 499h47z" />
    <glyph glyph-name="quotedblbase" unicode="&#x201e;" horiz-adv-x="450" 
d="M139 39l-104 -277h-39l94 287h47zM283 39l-105 -277h-39l94 287h48z" />
    <glyph glyph-name="dagger" unicode="&#x2020;" horiz-adv-x="1126" 
d="M971 825l-383 2l2 -1155h-49l-2 1155l-383 -2v47l383 -2l-2 543h53l-2 -543l383 2v-47z" />
    <glyph glyph-name="daggerdbl" unicode="&#x2021;" horiz-adv-x="1126" 
d="M588 827v-573l383 2v-47l-383 2l2 -539h-49l-2 539l-383 -2v47l383 -2v573l-383 -2v47l383 -2l-2 543h53l-2 -543l383 2v-47z" />
    <glyph glyph-name="bullet" unicode="&#x2022;" horiz-adv-x="356" 
d="M178 717q40 0 66 -26t26 -66t-26 -66.5t-66 -26.5t-66 26.5t-26 66.5t26 66t66 26z" />
    <glyph glyph-name="ellipsis" unicode="&#x2026;" horiz-adv-x="716" 
d="M123 53q17 0 29 -12t12 -29t-12 -29t-29 -12t-29 12t-12 29t12 29t29 12zM328 53q17 0 29 -12t12 -29t-12 -29t-29 -12t-29 12t-12 29t12 29t29 12zM532 53q17 0 29 -12t12 -29t-12 -29t-29 -12t-28.5 12t-11.5 29t11.5 29t28.5 12z" />
    <glyph glyph-name="perthousand" unicode="&#x2030;" horiz-adv-x="2060" 
d="M408 791q-120 0 -191.5 93t-71.5 232q0 142 71.5 234t191.5 92t191 -92t71 -234q0 -139 -71 -232t-191 -93zM1200 1413l-915 -1413h-54l916 1413h53zM408 1399q-102 0 -157.5 -77.5t-55.5 -205.5q0 -127 55.5 -204.5t157.5 -77.5t157.5 77.5t55.5 204.5
q0 128 -55.5 205.5t-157.5 77.5zM1024 623q120 0 191 -92t71 -234q0 -139 -71 -232.5t-191 -93.5t-191 93.5t-71 232.5q0 142 71 234t191 92zM1653 623q120 0 191 -92t71 -234q0 -139 -71 -232.5t-191 -93.5t-191 93.5t-71 232.5q0 142 71 234t191 92zM1024 14
q102 0 157.5 78t55.5 205q0 128 -55.5 205.5t-157.5 77.5t-157.5 -77.5t-55.5 -205.5q0 -127 55.5 -205t157.5 -78zM1653 14q102 0 157.5 78t55.5 205q0 128 -55.5 205.5t-157.5 77.5t-157.5 -77.5t-55.5 -205.5q0 -127 55.5 -205t157.5 -78z" />
    <glyph glyph-name="guilsinglleft" unicode="&#x2039;" horiz-adv-x="782" 
d="M625 848l-281 -340l281 -340h-60l-280 340l280 340h60z" />
    <glyph glyph-name="guilsinglright" unicode="&#x203a;" horiz-adv-x="782" 
d="M498 508l-281 -340h-59l280 340l-280 340h59z" />
    <glyph glyph-name="fraction" unicode="&#x2044;" horiz-adv-x="149" 
d="M-356 0h-54l916 1413h53z" />
    <glyph glyph-name="Euro" unicode="&#x20ac;" 
d="M678 1399q-87 0 -165 -31t-146 -94.5t-114 -174t-60 -257.5h757l-22 -43h-740q-2 -29 -2 -90q0 -64 2 -93h678l-18 -43h-658q24 -286 148 -422.5t346 -136.5q158 0 287 82v-49q-133 -76 -297 -76q-488 0 -533 602h-149l20 43h127q-2 27 -2 84q0 37 4 99h-98l20 43h80
q30 294 175 447t364 153q113 0 189.5 -28.5t144.5 -94.5l-31 -33q-64 62 -134 87.5t-173 25.5z" />
    <glyph glyph-name="trademark" unicode="&#x2122;" horiz-adv-x="1058" 
d="M438 1352v-39h-172v-379h-45v379h-172v39h389zM907 1350v-416h-41l4 379l-145 -375h-49l-144 373l3 -377h-41v416h63l145 -377l146 377h59z" />
    <glyph glyph-name="partialdiff" unicode="&#x2202;" 
d="M500 1552q103 0 182 -46t129.5 -124.5t82.5 -193.5t45 -243t13 -283q0 -162 -26 -287.5t-79 -216.5t-139.5 -139t-203.5 -48q-179 0 -290.5 126.5t-111.5 326.5q0 234 127.5 373t325.5 139q118 0 209 -57t139 -148q-2 109 -12 205t-30 185t-52.5 158.5t-76.5 121.5
t-104.5 80t-133.5 28q-84 0 -151 -23.5t-132 -78.5l-27 33q72 60 147.5 86t168.5 26zM504 14q195 0 295 153t104 486q-54 121 -148 180.5t-198 59.5q-185 0 -295 -129.5t-110 -335.5q0 -190 99 -302t253 -112z" />
    <glyph glyph-name="emptyset" unicode="&#x2205;" horiz-adv-x="1716" 
d="M1577 1415l-172 -172q94 -102 146.5 -234.5t52.5 -281.5q0 -159 -60 -300.5t-160.5 -241t-238 -158t-287.5 -58.5q-148 0 -282 55t-236 154l-170 -170l-31 31l172 172q-94 102 -146 234.5t-52 281.5q0 159 59.5 300.5t160.5 241.5t238 158t287 58q148 0 282 -55t236 -154
l170 170zM162 727q0 -140 47.5 -263.5t134.5 -219.5l999 999q-96 95 -221.5 147t-263.5 52q-140 0 -268 -55t-222 -149t-150 -227.5t-56 -283.5zM858 12q140 0 268 55t222 149t150 227.5t56 283.5q0 140 -47.5 263.5t-134.5 219.5l-999 -999q96 -95 221.5 -147t263.5 -52z
" />
    <glyph glyph-name="product" unicode="&#x220f;" 
d="M997 1370h-114v-1595h-45v1595h-590v-1595h-45v1595h-115v43h909v-43z" />
    <glyph glyph-name="summation" unicode="&#x2211;" 
d="M1018 -182v-43h-961v41l590 800l-528 756v41h887v-43h-832l528 -756l-587 -796h903z" />
    <glyph glyph-name="minus" unicode="&#x2212;" 
d="M952 629h-819v43h819v-43z" />
    <glyph glyph-name="radical" unicode="&#x221a;" 
d="M1008 1597l-449 -1925h-67l-271 920h-135v43h168l270 -928l437 1890h47z" />
    <glyph glyph-name="infinity" unicode="&#x221e;" horiz-adv-x="2035" 
d="M1499 1114q212 0 343.5 -158.5t131.5 -414.5q0 -255 -131.5 -412.5t-343.5 -157.5q-184 0 -306.5 117t-176.5 348q-45 -229 -169.5 -347t-309.5 -118q-212 0 -344 157.5t-132 412.5q0 256 132 414.5t344 158.5q184 0 306.5 -117t176.5 -346q41 223 167.5 343t311.5 120z
M537 14q62 0 120 16.5t114.5 56t101 98.5t75.5 151t41 207q-19 143 -64.5 249t-108.5 165t-132 86.5t-147 27.5q-82 0 -157 -32.5t-135.5 -95.5t-97 -167t-36.5 -235q0 -130 36.5 -233.5t97 -166t135.5 -95t157 -32.5zM1499 14q82 0 157 32.5t135.5 95t97 166t36.5 233.5
q0 131 -36.5 235t-97 167t-135.5 95.5t-157 32.5q-62 0 -120 -16.5t-115 -55.5t-101.5 -98t-75.5 -151t-40 -207q15 -115 48 -207t76.5 -151.5t98.5 -98.5t111 -55.5t118 -16.5z" />
    <glyph glyph-name="integral" unicode="&#x222b;" 
d="M604 1544q77 0 125 -57l-29 -31q-40 45 -98 45q-61 0 -97 -71t-36 -220q0 -151 74 -596q44 -271 59.5 -395.5t15.5 -228.5q0 -168 -53.5 -243t-130.5 -75q-76 0 -125 58l29 30q40 -45 98 -45q61 0 97 71t36 220q0 157 -73 596q-45 275 -60.5 398.5t-15.5 226.5
q0 168 53.5 242.5t130.5 74.5z" />
    <glyph glyph-name="approxequal" unicode="&#x2248;" 
d="M332 903q50 0 94 -16t129 -60q78 -41 116 -54t85 -13q70 0 114 28t91 99l30 -25q-83 -145 -235 -145q-51 0 -95.5 16t-128.5 60q-78 41 -115.5 54t-84.5 13q-70 0 -114 -28t-91 -99l-31 25q83 145 236 145zM332 535q50 0 94 -16t129 -60q79 -41 116.5 -54.5t84.5 -13.5
q70 0 114 28t91 99l30 -24q-83 -146 -235 -146q-51 0 -95.5 16t-128.5 60q-80 42 -116.5 55t-83.5 13q-70 0 -114 -28t-91 -99l-31 24q83 146 236 146z" />
    <glyph glyph-name="notequal" unicode="&#x2260;" 
d="M662 813l-191 -326h502v-43h-527l-137 -233h-49l137 233h-284v43h309l190 326h-499v43h524l137 236h49l-137 -236h287v-43h-311z" />
    <glyph glyph-name="lessequal" unicode="&#x2264;" 
d="M967 893l-762 -330l762 -330v-49l-820 359v41l820 358v-49zM147 43h820v-43h-820v43z" />
    <glyph glyph-name="greaterequal" unicode="&#x2265;" 
d="M938 584v-41l-819 -359v49l762 330l-762 330v49zM119 43h819v-43h-819v43z" />
    <glyph glyph-name="lozenge" unicode="&#x25ca;" horiz-adv-x="958" 
d="M844 707l-342 -707h-45l-342 707l342 706h45zM795 707l-316 655l-315 -655l315 -658z" />
    </font>
</defs>
</svg>
